osu file format v14

[General]
AudioFilename: audio.mp3
AudioLeadIn: 0
PreviewTime: 60661
Countdown: 0
SampleSet: Soft
StackLeniency: 0.7
Mode: 2
LetterboxInBreaks: 0
WidescreenStoryboard: 0

[Editor]
Bookmarks: 53536,90136
DistanceSpacing: 0.9
BeatDivisor: 4
GridSize: 8
TimelineZoom: 2.899999

[Metadata]
Title:On the FM
TitleUnicode:On the FM
Artist:C-Show
ArtistUnicode:C-Show
Creator:Ascendance
Version:Emiru's Hi-Speed Deluge
Source:beatmania IIDX 23 copula
Tags:KONAMI BEMANI Kaitsuu! Tokotoko line 24 SINOBUZ PANIC HOLIC ZiRoX Spectator Emiru FoxyGrandpa Hareimu Sorcerer Tomthewizard CShow RADIO SHOWCASE 開通!とことこライン
BeatmapID:1385774
BeatmapSetID:609679

[Difficulty]
HPDrainRate:6
CircleSize:4.2
OverallDifficulty:9.5
ApproachRate:9.5
SliderMultiplier:1.9
SliderTickRate:2

[Events]
//Background and Video events
0,0,"background.jpg",0,0
//Break Periods
//Storyboard Layer 0 (Background)
//Storyboard Layer 1 (Fail)
//Storyboard Layer 2 (Pass)
//Storyboard Layer 3 (Foreground)
//Storyboard Sound Samples

[TimingPoints]
1036,300,4,2,1,40,1,0
3136,-100,4,2,4,40,0,0
3436,-100,4,2,1,40,0,0
5836,-100,4,3,2,50,0,0
7411,-100,4,2,1,5,0,0
7486,-100,4,2,1,45,0,0
7561,-100,4,2,1,5,0,0
7636,-100,4,2,1,45,0,0
7711,-100,4,2,1,5,0,0
7786,-100,4,2,1,45,0,0
7861,-100,4,2,1,5,0,0
7936,-83.3333333333333,4,2,1,10,0,0
8236,-83.3333333333333,4,2,6,40,0,0
8536,-83.3333333333333,4,2,5,40,0,0
8836,-100,4,2,3,40,0,0
8986,-100,4,3,3,50,0,0
9736,-100,4,3,2,50,0,0
10036,-100,4,3,3,50,0,0
12736,-100,4,2,4,50,0,0
12773,-100,4,2,4,5,0,0
13036,-100,4,2,1,60,0,0
15586,-71.4285714285714,4,2,1,60,0,0
17536,-83.3333333333333,4,2,1,60,0,0
19036,-83.3333333333333,4,3,15,60,0,0
19111,-83.3333333333333,4,2,1,60,0,0
19936,-62.5,4,2,1,60,0,0
20236,-83.3333333333333,4,3,4,65,0,0
20273,-83.3333333333333,4,3,2,65,0,0
24436,-100,4,3,6,65,0,0
25036,-100,4,3,2,65,0,0
27136,-83.3333333333333,4,3,7,65,0,0
27436,-83.3333333333333,4,3,2,65,0,0
27736,-83.3333333333333,4,3,2,65,0,0
28036,-100,4,3,2,65,0,0
29836,-100,4,3,8,65,0,0
31936,-100,4,3,7,65,0,0
32236,-100,4,3,8,65,0,0
33736,-100,4,3,6,65,0,0
34636,-100,4,3,2,65,0,0
36736,-100,4,3,7,65,0,0
37036,-100,4,3,8,65,0,0
41536,-83.3333333333333,4,3,7,65,0,0
41836,-100,4,3,9,70,0,1
43636,-100,4,3,9,70,0,1
43711,-100,4,3,9,70,0,1
44236,-100,4,3,8,70,0,1
44311,-100,4,3,9,70,0,1
45736,-100,4,3,8,70,0,1
45811,-100,4,3,9,70,0,1
46936,-100,4,3,10,70,0,1
50836,-100,4,2,1,40,0,0
51436,-71.4285714285714,4,3,11,70,0,0
57436,-100,4,3,2,70,0,0
58636,-100,4,3,11,70,0,0
60136,-100,4,3,8,70,0,0
60586,-100,4,3,3,70,0,0
61036,-76.9230769230769,4,3,4,80,0,1
61111,-76.9230769230769,4,3,3,80,0,1
70636,-76.9230769230769,4,3,4,80,0,1
70711,-76.9230769230769,4,3,16,80,0,1
79936,-83.3333333333333,4,2,1,40,0,0
80236,-83.3333333333333,4,3,11,40,0,0
86236,-83.3333333333333,4,3,12,40,0,0
87436,-83.3333333333333,4,3,11,40,0,0
89536,-83.3333333333333,4,3,12,40,0,0
89836,-100,4,3,9,40,0,1
98836,-100,4,2,1,40,0,0

[Colours]
Combo1 : 255,149,147
Combo2 : 145,255,206
Combo3 : 254,197,94
Combo4 : 181,66,193

[HitObjects]
248,288,1036,6,0,L|256:192,1,95,2|0,0:0|0:0,0:0:0:0:
120,160,1336,2,0,L|112:56,1,95,2|0,0:0|0:0,0:0:0:0:
352,200,1786,2,0,L|360:144,2,47.5,2|2|2,0:0|0:0|0:0,0:0:0:0:
216,128,2086,1,2,0:0:0:0:
352,264,2236,6,0,L|360:360,1,95,2|0,0:0|0:0,0:0:0:0:
216,200,2536,2,0,L|208:312,1,95,2|0,0:0|0:0,0:0:0:0:
432,192,2986,2,0,L|440:240,1,47.5,2|0,0:0|0:0,0:0:0:0:
216,200,3136,2,0,L|208:304,1,95,4|0,0:0|0:0,0:0:0:0:
424,320,3436,6,8,L|432:208,1,95,8|8,0:3|0:3,0:3:0:0:
256,144,3736,2,8,L|272:256,1,95,8|8,0:3|0:3,0:3:0:0:
136,312,4036,2,8,L|128:200,1,95,8|8,0:3|0:3,0:3:0:0:
280,80,4336,2,8,L|272:192,1,95,8|8,0:3|0:3,0:3:0:0:
136,112,4636,5,8,0:0:0:0:
111,152,4711,1,0,0:0:0:0:
102,198,4786,1,8,0:0:0:0:
108,245,4861,1,0,0:0:0:0:
130,287,4936,1,8,0:0:0:0:
164,320,5011,1,0,0:0:0:0:
207,339,5086,1,8,0:0:0:0:
254,344,5161,1,0,0:0:0:0:
320,192,5236,2,0,L|440:192,1,95,12|8,0:0|0:0,0:0:0:0:
192,192,5536,2,0,L|97:192,1,95,10|0,0:0|0:0,0:0:0:0:
320,80,5836,5,12,0:0:0:0:
192,80,5986,1,0,0:0:0:0:
320,80,6136,1,8,0:0:0:0:
192,192,6286,2,0,L|80:192,1,95,2|8,0:0|0:0,0:0:0:0:
384,192,6586,2,0,L|504:192,2,95,2|8|2,0:0|0:0|0:0,0:0:0:0:
240,128,7036,6,0,P|208:128|72:128,1,142.5,10|0,0:0|0:0,0:0:0:0:
296,56,7336,1,2,0:0:0:0:
338,75,7411,1,0,0:0:0:0:
368,112,7486,1,2,0:0:0:0:
380,157,7561,1,0,0:0:0:0:
370,204,7636,1,2,0:0:0:0:
342,241,7711,1,0,0:0:0:0:
300,263,7786,1,0,0:0:0:0:
253,265,7861,1,0,0:0:0:0:
88,80,7936,5,0,0:0:0:0:
60,75,7973,1,0,0:0:0:0:
36,89,8011,1,0,0:0:0:0:
27,116,8048,1,0,0:0:0:0:
36,142,8086,1,0,0:0:0:0:
60,156,8123,1,0,0:0:0:0:
88,151,8161,1,0,0:0:0:0:
256,248,8236,6,0,L|352:248,2,75.9999976806641,2|0|0,0:0|0:0|0:0,0:0:0:0:
152,288,8536,2,0,L|64:288,2,75.9999976806641,2|0|0,0:0|0:0|0:0,0:0:0:0:
344,192,8836,5,4,0:0:0:0:
472,192,8986,1,6,0:0:0:0:
344,192,9136,1,0,0:0:0:0:
208,136,9286,5,2,0:0:0:0:
344,136,9436,1,4,0:0:0:0:
208,72,9586,1,2,0:0:0:0:
96,192,9736,6,0,L|96:88,1,95,8|2,0:0|0:0,0:0:0:0:
256,192,10036,1,8,0:0:0:0:
400,248,10186,2,0,L|408:200,2,47.5,2|0|2,0:0|0:0|0:0,0:0:0:0:
256,288,10486,1,2,0:0:0:0:
112,248,10636,6,0,L|48:248,2,47.5,2|0|0,0:0|0:0|0:0,0:0:0:0:
256,192,10936,1,2,0:0:0:0:
400,96,11086,2,0,L|200:96,1,190,4|2,0:0|0:0,0:0:0:0:
162,96,11461,2,0,L|234:96,1,47.5,2|2,0:0|0:0,0:0:0:0:
360,192,11686,1,2,0:0:0:0:
208,192,11836,6,0,L|88:192,2,95,0|2|4,0:0|0:0|0:0,0:0:0:0:
352,120,12286,1,2,0:0:0:0:
208,120,12436,1,8,0:0:0:0:
352,40,12586,1,2,0:0:0:0:
136,64,12736,5,0,0:0:0:0:
112,64,12773,1,0,0:0:0:0:
89,69,12811,1,0,0:0:0:0:
67,78,12848,1,0,0:0:0:0:
47,91,12886,1,0,0:0:0:0:
30,107,12923,1,0,0:0:0:0:
16,126,12961,1,0,0:0:0:0:
160,192,13036,6,0,B|352:192|352:192|264:192,1,237.5,10|0,0:3|0:3,0:3:0:0:
248,160,13486,2,0,B|440:160|440:160|352:160,1,237.5,10|0,0:3|0:3,0:3:0:0:
344,104,13936,2,0,B|152:104|152:104|240:104,1,237.5,10|0,0:3|0:3,0:3:0:0:
256,160,14386,6,0,B|448:160|448:160|360:160,1,237.5,10|0,0:3|0:3,0:3:0:0:
208,256,14836,2,0,B|112:256|112:256|192:256,1,142.5,14|0,0:3|0:3,0:3:0:0:
392,192,15136,2,0,B|488:192|488:192|408:192,1,142.5,14|0,0:3|0:3,0:3:0:0:
120,192,15436,5,6,0:0:0:0:
256,184,15736,2,0,B|512:184|512:-8|256:-8|256:-8|256:192|256:192|0:192|0:384|256:384|256:384|256:176|256:176|312:256|312:256|208:256|208:256|320:256,1,1595.99995129395
432,192,17836,6,8,L|519:192,1,56.9999982604981,8|8,0:3|0:3,0:3:0:0:
488,232,17986,2,8,L|432:232,1,56.9999982604981,8|8,0:3|0:3,0:3:0:0:
256,104,18136,2,8,L|169:104,1,56.9999982604981,8|8,0:3|0:3,0:3:0:0:
256,144,18286,2,8,L|312:144,1,56.9999982604981,8|8,0:3|0:3,0:3:0:0:
80,192,18436,6,8,L|24:192,1,56.9999982604981,8|8,0:3|0:3,0:3:0:0:
24,232,18586,2,8,L|81:232,1,56.9999982604981,8|8,0:3|0:3,0:3:0:0:
256,232,18736,2,8,L|328:232,1,56.9999982604981,8|8,0:3|0:3,0:3:0:0:
256,272,18886,2,8,L|183:272,1,56.9999982604981,8|8,0:3|0:3,0:3:0:0:
376,192,19036,6,0,L|448:192,1,56.9999982604981
256,80,19186,2,0,L|176:80,1,56.9999982604981
432,120,19336,2,0,L|504:120,1,56.9999982604981
488,56,19486,2,0,L|408:56,1,56.9999982604981
256,144,19636,6,8,L|184:144,1,56.9999982604981,8|8,0:3|0:3,0:3:0:0:
376,144,19786,2,8,L|448:144,1,56.9999982604981,8|8,0:3|0:3,0:3:0:0:
175,192,19936,2,0,P|95:216|199:232,1,228,6|0,0:0|0:0,0:0:0:0:
344,192,20236,6,0,L|344:64,1,113.999996520996,4|0,0:0|0:0,0:0:0:0:
192,64,20536,2,0,L|128:64,2,56.9999982604981,8|0|2,0:0|0:0|0:0,0:0:0:0:
344,16,20836,1,8,0:0:0:0:
192,136,20986,1,2,0:0:0:0:
336,136,21136,2,0,L|464:136,1,113.999996520996,8|2,0:0|0:0,0:0:0:0:
496,168,21361,1,0,0:0:0:0:
448,200,21436,6,0,L|328:200,1,113.999996520996,8|2,0:0|0:0,0:0:0:0:
200,248,21736,1,8,0:0:0:0:
336,248,21886,1,2,0:0:0:0:
120,48,22036,5,8,0:0:0:0:
94,60,22073,1,0,0:0:0:0:
72,79,22111,1,0,0:0:0:0:
56,102,22148,1,0,0:0:0:0:
46,128,22186,1,0,0:0:0:0:
42,156,22223,1,0,0:0:0:0:
46,185,22261,1,0,0:0:0:0:
224,112,22336,2,0,L|288:112,1,56.9999982604981,10|0,0:0|0:0,0:0:0:0:
336,160,22486,2,0,L|272:160,1,56.9999982604981,10|0,0:0|0:0,0:0:0:0:
72,280,22636,5,12,0:0:0:0:
8,280,22711,1,0,0:0:0:0:
72,280,22786,1,2,0:0:0:0:
328,192,22936,2,0,L|400:192,2,56.9999982604981,8|0|2,0:0|0:0|0:0,0:0:0:0:
176,192,23236,2,0,L|176:312,1,113.999996520996,8|2,0:0|0:0,0:0:0:0:
392,80,23536,2,0,L|272:80,1,113.999996520996,8|2,0:0|0:0,0:0:0:0:
144,80,23836,5,8,0:0:0:0:
432,152,23986,2,0,L|488:152,2,56.9999982604981,2|0|8,0:0|0:0|0:0,0:0:0:0:
296,192,24286,1,2,0:0:0:0:
80,192,24436,6,0,L|64:224,1,23.75,10|0,0:0|0:0,0:0:0:0:
184,240,24586,2,0,L|184:272,1,23.75,2|0,0:0|0:0,0:0:0:0:
280,304,24736,2,0,L|296:336,1,23.75,10|0,0:0|0:0,0:0:0:0:
376,320,24886,2,0,L|408:336,1,23.75,2|0,0:0|0:0,0:0:0:0:
184,152,25036,6,0,L|128:152,2,47.5,4|0|0,0:0|0:0|0:0,0:0:0:0:
336,152,25336,2,0,L|400:152,2,47.5,8|0|2,0:0|0:0|0:0,0:0:0:0:
184,224,25636,1,8,0:0:0:0:
336,224,25786,1,2,0:0:0:0:
184,320,25936,2,0,L|48:320,1,95,8|2,0:0|0:0,0:0:0:0:
208,152,26236,6,0,L|336:152,1,95,8|2,0:0|0:0,0:0:0:0:
184,224,26536,1,10,0:0:0:0:
336,224,26686,1,2,0:0:0:0:
184,72,26836,5,2,0:0:0:0:
160,77,26873,1,0,0:0:0:0:
139,87,26911,1,0,0:0:0:0:
121,102,26948,1,0,0:0:0:0:
107,121,26986,1,0,0:0:0:0:
97,143,27023,1,0,0:0:0:0:
93,166,27061,1,0,0:0:0:0:
264,120,27136,2,0,L|336:120,1,56.9999982604981,2|0,0:0|0:0,0:0:0:0:
321,120,27286,2,0,L|265:120,1,56.9999982604981,2|0,0:0|0:0,0:0:0:0:
96,200,27436,5,10,0:0:0:0:
116,252,27511,1,8,0:0:0:0:
161,285,27586,1,0,0:0:0:0:
217,289,27661,1,2,0:0:0:0:
296,248,27736,2,0,L|360:248,1,56.9999982604981,0|12,0:0|0:0,0:0:0:0:
200,328,27886,2,0,L|128:328,1,56.9999982604981,2|0,0:0|0:0,0:0:0:0:
296,192,28036,2,0,L|416:192,1,95,8|2,0:0|0:0,0:0:0:0:
184,192,28336,1,8,0:0:0:0:
416,56,28486,6,0,P|472:96|384:160,1,190,2|2,0:0|0:0,0:0:0:0:
344,192,28861,1,2,0:0:0:0:
408,224,28936,2,0,L|304:224,1,95,10|2,0:0|0:0,0:0:0:0:
248,240,29161,1,2,0:0:0:0:
312,264,29236,2,0,L|176:264,1,95,8|0,0:0|0:0,0:0:0:0:
152,288,29461,1,0,0:0:0:0:
216,320,29536,2,0,L|121:320,1,95,2|0,0:0|0:0,0:0:0:0:
97,320,29723,2,0,L|121:320,1,23.75
331,256,29836,5,12,0:0:0:0:
371,232,29911,1,0,0:0:0:0:
331,200,29986,1,0,0:0:0:0:
181,200,30136,2,0,L|173:160,1,23.75,8|0,0:0|0:0,0:0:0:0:
296,128,30286,2,0,L|304:88,1,23.75,2|0,0:0|0:0,0:0:0:0:
192,256,30436,2,0,L|184:216,1,23.75,8|0,0:0|0:0,0:0:0:0:
296,192,30586,2,0,L|304:232,1,23.75,2|0,0:0|0:0,0:0:0:0:
48,64,30736,2,0,L|32:96,1,23.75,8|0,0:0|0:0,0:0:0:0:
144,64,30886,2,0,L|144:104,1,23.75,2|0,0:0|0:0,0:0:0:0:
240,64,31036,6,0,L|256:96,1,23.75,8|0,0:0|0:0,0:0:0:0:
352,64,31186,2,0,L|376:88,1,23.75,2|0,0:0|0:0,0:0:0:0:
240,144,31336,2,0,L|232:176,1,23.75,10|0,0:0|0:0,0:0:0:0:
352,136,31486,2,0,L|360:168,1,23.75,2|0,0:0|0:0,0:0:0:0:
240,248,31636,2,0,L|232:280,1,23.75,10|0,0:0|0:0,0:0:0:0:
360,240,31786,2,0,L|352:280,1,23.75,2|0,0:0|0:0,0:0:0:0:
224,328,31936,2,0,L|168:328,1,47.5,2|0,0:0|0:0,0:0:0:0:
177,328,32086,2,0,L|233:328,1,47.5,2|0,0:0|0:0,0:0:0:0:
360,328,32236,6,0,L|432:328,2,47.5,6|0|2,0:0|0:0|0:0,0:0:0:0:
216,128,32536,2,0,L|224:168,1,23.75
336,192,32686,2,0,L|328:224,1,23.75,2|0,0:0|0:0,0:0:0:0:
216,64,32836,2,0,L|224:104,1,23.75
336,96,32986,2,0,L|328:128,1,23.75,2|0,0:0|0:0,0:0:0:0:
216,192,33136,2,0,L|200:216,1,23.75,8|0,0:0|0:0,0:0:0:0:
96,224,33286,2,0,L|72:232,1,23.75,2|0,0:0|0:0,0:0:0:0:
192,272,33436,6,0,L|224:264,1,23.75,8|0,0:0|0:0,0:0:0:0:
328,272,33586,2,0,L|352:264,1,23.75,2|0,0:0|0:0,0:0:0:0:
232,312,33736,2,0,L|208:320,1,23.75,2|0,0:0|0:0,0:0:0:0:
328,328,33886,2,0,L|352:320,1,23.75,2|0,0:0|0:0,0:0:0:0:
152,240,34036,6,0,L|128:248,1,23.75,2|0,0:0|0:0,0:0:0:0:
240,184,34186,2,0,L|232:144,1,23.75,2|0,0:0|0:0,0:0:0:0:
344,120,34336,2,0,L|344:96,1,23.75,2|0,0:0|0:0,0:0:0:0:
448,96,34486,2,0,L|456:56,1,23.75,2|0,0:0|0:0,0:0:0:0:
240,248,34636,6,0,L|176:248,2,47.5,4|0|2,0:0|0:0|0:0,0:0:0:0:
448,192,34936,2,0,L|464:224,1,23.75,10|0,0:0|0:0,0:0:0:0:
336,248,35086,2,0,L|336:280,1,23.75,2|0,0:0|0:0,0:0:0:0:
232,288,35236,2,0,L|216:320,1,23.75,10|0,0:0|0:0,0:0:0:0:
112,320,35386,2,0,L|80:336,1,23.75,2|0,0:0|0:0,0:0:0:0:
216,216,35536,2,0,L|224:176,1,23.75,8|0,0:0|0:0,0:0:0:0:
104,232,35686,2,0,L|96:200,1,23.75,2|0,0:0|0:0,0:0:0:0:
216,120,35836,6,0,L|224:80,1,23.75,8|0,0:0|0:0,0:0:0:0:
104,136,35986,2,0,L|96:104,1,23.75,2|0,0:0|0:0,0:0:0:0:
216,184,36136,2,0,L|216:216,1,23.75,10|0,0:0|0:0,0:0:0:0:
336,232,36286,2,0,L|352:264,1,23.75,2|0,0:0|0:0,0:0:0:0:
448,304,36436,6,0,L|520:304,2,47.5,2|2|0,0:0|0:0|0:0,0:0:0:0:
304,328,36736,2,0,L|232:328,1,47.5,2|0,0:0|0:0,0:0:0:0:
256,328,36886,2,0,L|328:328,1,47.5,2|0,0:0|0:0,0:0:0:0:
448,248,37036,5,12,0:0:0:0:
496,248,37111,1,0,0:0:0:0:
448,248,37186,1,2,0:0:0:0:
200,120,37336,2,0,L|192:152,1,23.75
296,128,37486,2,0,L|296:160,1,23.75,2|0,0:0|0:0,0:0:0:0:
392,152,37636,2,0,L|400:184,1,23.75
488,192,37786,2,0,L|504:232,1,23.75,2|0,0:0|0:0,0:0:0:0:
392,256,37936,1,8,0:0:0:0:
96,56,38086,6,0,P|40:96|128:160,1,190,2|2,0:0|0:0,0:0:0:0:
168,192,38461,1,2,0:0:0:0:
104,224,38536,2,0,L|208:224,1,95,10|2,0:0|0:0,0:0:0:0:
264,240,38761,1,2,0:0:0:0:
200,264,38836,2,0,L|336:264,1,95,8|0,0:0|0:0,0:0:0:0:
360,288,39061,1,0,0:0:0:0:
296,320,39136,2,0,L|391:320,1,95,2|0,0:0|0:0,0:0:0:0:
415,320,39323,2,0,L|391:320,1,23.75
184,32,39436,5,2,0:0:0:0:
136,32,39511,1,2,0:0:0:0:
184,32,39586,1,2,0:0:0:0:
328,32,39736,5,2,0:0:0:0:
376,32,39811,1,2,0:0:0:0:
328,32,39886,1,2,0:0:0:0:
184,112,40036,5,2,0:0:0:0:
328,112,40186,1,2,0:0:0:0:
184,192,40336,1,2,0:0:0:0:
48,192,40486,1,2,0:0:0:0:
184,192,40636,1,2,0:0:0:0:
328,192,40786,1,2,0:0:0:0:
464,192,40936,5,2,0:0:0:0:
216,264,41086,1,2,0:0:0:0:
328,287,41236,2,0,L|328:175,1,95,4|0,0:0|0:0,0:0:0:0:
184,160,41536,5,2,0:0:0:0:
160,144,41573,1,0,0:0:0:0:
144,121,41611,1,0,0:0:0:0:
138,93,41648,1,0,0:0:0:0:
145,66,41686,1,0,0:0:0:0:
162,43,41723,1,0,0:0:0:0:
187,30,41761,1,0,0:0:0:0:
215,27,41798,1,0,0:0:0:0:
464,112,41836,5,4,0:0:0:0:
256,192,42136,2,0,L|256:248,1,47.5,2|0,0:0|0:0,0:0:0:0:
416,192,42436,1,8,0:0:0:0:
256,256,42586,6,0,L|240:360,1,95,2|0,0:0|0:0,0:0:0:0:
408,112,42886,2,0,L|424:224,1,95,2|0,0:0|0:0,0:0:0:0:
256,96,43186,2,0,L|240:208,1,95,2|0,0:0|3:0,0:0:0:0:
104,112,43486,2,0,L|88:208,1,95,2|8,0:0|0:0,0:0:0:0:
256,24,43786,1,2,0:0:0:0:
104,32,43936,2,0,L|88:128,1,95,2|0,0:0|0:0,0:0:0:0:
352,184,44236,6,0,P|408:184|472:64,1,190,6|2,0:0|0:0,0:0:0:0:
352,80,44686,1,0,0:0:0:0:
472,24,44836,1,8,0:0:0:0:
352,216,44986,2,0,L|240:208,1,95,2|0,0:0|0:0,0:0:0:0:
376,304,45286,2,0,L|480:312,2,95,2|0|2,0:0|0:0|0:0,0:0:0:0:
272,272,45736,5,2,0:0:0:0:
233,188,45886,1,2,0:0:0:0:
265,101,46036,1,10,0:0:0:0:
350,63,46186,1,2,0:0:0:0:
472,192,46336,2,0,L|344:200,1,95
160,48,46636,5,4,0:0:0:0:
352,48,46936,2,0,L|360:96,2,47.5,10|0|8,0:0|0:0|0:0,0:0:0:0:
184,112,47236,1,0,0:0:0:0:
328,112,47386,2,0,L|336:216,1,95,2|0,0:0|0:0,0:0:0:0:
184,192,47686,6,2,P|96:176|56:64,2,190
328,168,48436,2,0,L|336:272,1,95,8|0,0:0|0:0,0:0:0:0:
184,48,48736,2,0,P|128:64|88:160,1,142.5,4|0,0:0|0:0,0:0:0:0:
256,192,49036,1,2,0:0:0:0:
368,112,49186,2,8,L|376:160,2,47.5
144,112,49486,5,2,0:0:0:0:
280,144,49636,1,2,0:0:0:0:
144,192,49786,1,2,0:0:0:0:
368,112,49936,5,2,0:0:0:0:
232,144,50086,1,2,0:0:0:0:
368,192,50236,1,2,0:0:0:0:
144,88,50386,1,2,0:0:0:0:
368,88,50536,5,2,0:0:0:0:
232,24,50836,2,0,P|128:40|24:240,1,332.5,2|0,0:0|0:0,0:0:0:0:
256,16,51436,6,0,P|336:96|200:224,1,332.499989852906,8|0,0:0|0:0,0:0:0:0:
272,56,51886,2,0,P|352:136|216:264,1,332.499989852906,10|0,0:0|0:0,0:0:0:0:
288,96,52336,2,0,P|368:176|232:304,1,332.499989852906,10|0,0:0|0:0,0:0:0:0:
304,136,52786,2,0,P|384:216|248:344,1,332.499989852906,10|0,0:0|0:0,0:0:0:0:
208,288,53236,6,0,P|120:248|104:104,1,199.499993911743,10|0,0:0|0:0,0:0:0:0:
304,288,53536,2,0,P|393:247|424:155,1,199.499993911743,10|0,0:0|0:0,0:0:0:0:
256,16,53836,6,0,P|176:96|312:224,1,332.499989852906,8|0,0:0|0:0,0:0:0:0:
240,56,54286,2,0,P|160:136|296:264,1,332.499989852906,8|0,0:0|0:0,0:0:0:0:
224,96,54736,2,0,P|144:176|280:304,1,332.499989852906,10|0,0:0|0:0,0:0:0:0:
208,136,55186,2,0,P|128:216|264:344,1,332.499989852906,10|0,0:0|0:0,0:0:0:0:
304,288,55636,6,0,P|392:248|408:104,1,199.499993911743,10|0,0:0|0:0,0:0:0:0:
208,288,55936,2,0,P|119:247|88:155,1,199.499993911743,10|0,0:0|0:0,0:0:0:0:
432,192,56236,5,10,0:0:0:0:
200,192,56536,1,10,0:0:0:0:
432,192,56836,1,10,0:0:0:0:
184,192,57136,1,10,0:0:0:0:
392,152,57436,5,0,0:0:0:0:
312,152,57536,1,0,0:0:0:0:
392,152,57636,1,0,0:0:0:0:
296,224,57736,5,0,0:0:0:0:
216,224,57836,1,0,0:0:0:0:
296,224,57936,1,0,0:0:0:0:
120,224,58036,5,2,0:0:0:0:
40,224,58136,1,2,0:0:0:0:
120,224,58236,1,2,0:0:0:0:
296,296,58336,5,2,0:0:0:0:
376,296,58436,1,2,0:0:0:0:
296,296,58536,1,2,0:0:0:0:
40,336,58636,5,10,0:0:0:0:
256,192,59086,1,10,0:0:0:0:
472,336,59536,2,0,L|282:336,2,190,10|10|0,0:0|0:0|0:0,0:0:0:0:
256,208,60436,6,0,P|176:176|168:120,1,126.666666666667,0|4,0:0|0:0,0:0:0:0:
360,64,60736,1,10,0:0:0:0:
440,112,60836,1,2,0:0:0:0:
480,192,60936,1,2,0:0:0:0:
264,296,61036,6,0,L|136:296,1,123.499994346619,6|0,0:0|0:0,0:0:0:0:
104,280,61236,1,0,0:0:0:0:
80,248,61286,1,0,0:0:0:0:
64,208,61336,2,0,L|215:208,1,123.499994346619,10|0,0:0|0:0,0:0:0:0:
224,224,61536,1,0,0:0:0:0:
248,248,61586,1,0,0:0:0:0:
264,280,61636,5,4,0:0:0:0:
96,136,61836,1,0,0:0:0:0:
256,56,61936,1,8,0:0:0:0:
368,96,62136,2,0,L|416:96,1,41.1666647822063
368,144,62236,6,0,P|320:144|224:144,1,123.499994346619,6|0,0:0|0:0,0:0:0:0:
208,152,62436,1,0,0:0:0:0:
184,176,62486,1,0,0:0:0:0:
168,208,62536,5,4,0:0:0:0:
256,240,62636,1,2,0:0:0:0:
168,280,62736,1,2,0:0:0:0:
368,192,62836,2,0,L|456:192,2,82.3333295644126,6|2|2,0:0|0:0|0:0,0:0:0:0:
176,48,63136,2,0,L|360:56,1,164.666659128825,10|0,0:0|0:0,0:0:0:0:
184,120,63436,6,0,L|80:120,2,82.3333295644126,6|2|2,0:0|0:0|0:0,0:0:0:0:
96,192,63736,2,0,L|0:192,2,82.3333295644126,10|2|2,0:0|0:0|0:0,0:0:0:0:
336,248,64036,2,0,L|152:240,1,164.666659128825,4|4,0:0|0:0,0:0:0:0:
400,192,64336,1,8,0:0:0:0:
400,192,64536,1,0,0:0:0:0:
216,72,64636,6,0,P|160:96|136:208,1,164.666659128825,6|0,0:0|0:0,0:0:0:0:
336,112,64936,2,0,L|424:112,2,82.3333295644126,10|2|2,0:0|0:0|0:0,0:0:0:0:
168,240,65236,2,0,P|192:240|336:240,1,164.666659128825,4|0,0:0|0:0,0:0:0:0:
160,312,65536,1,10,0:0:0:0:
80,256,65636,1,2,0:0:0:0:
32,160,65736,1,2,0:0:0:0:
248,296,65836,6,0,L|376:296,1,123.499994346619,6|0,0:0|0:0,0:0:0:0:
408,280,66036,1,0,0:0:0:0:
432,248,66086,1,0,0:0:0:0:
448,208,66136,2,0,L|297:208,1,123.499994346619,10|0,0:0|0:0,0:0:0:0:
288,224,66336,1,0,0:0:0:0:
264,248,66386,1,0,0:0:0:0:
248,280,66436,5,4,0:0:0:0:
416,136,66636,1,0,0:0:0:0:
256,56,66736,1,8,0:0:0:0:
144,96,66936,2,0,L|96:96,1,41.1666647822063
144,136,67036,6,0,P|192:136|320:136,1,164.666659128825,6|0,0:0|0:0,0:0:0:0:
144,192,67336,2,0,P|88:216|64:328,1,164.666659128825,8|0,0:0|0:0,0:0:0:0:
216,40,67636,2,0,L|328:40,2,82.3333295644126,4|0|0,0:0|0:0|0:0,0:0:0:0:
392,192,67936,5,8,0:0:0:0:
472,224,68036,2,0,L|472:312,1,82.3333295644126
296,96,68236,6,0,L|208:96,2,82.3333295644126,8|0|0,0:0|0:0|0:0,0:0:0:0:
120,192,68536,1,12,0:0:0:0:
40,224,68636,2,0,L|40:312,1,82.3333295644126
304,192,68836,2,0,L|392:192,2,82.3333295644126,4|0|0,0:0|0:0|0:0,0:0:0:0:
126,192,69136,5,8,0:0:0:0:
296,56,69336,1,0,0:0:0:0:
328,64,69386,1,0,0:0:0:0:
352,80,69436,6,0,P|400:88|448:200,1,164.666659128825,4|0,0:0|0:0,0:0:0:0:
160,80,69736,2,0,P|112:88|64:200,1,164.666659128825,8|0,0:0|0:0,0:0:0:0:
424,248,70036,2,0,L|248:248,1,164.666659128825,4|0,0:0|0:0,0:0:0:0:
88,248,70336,2,0,L|264:248,1,164.666659128825,8|0,0:0|0:0,0:0:0:0:
288,248,70586,1,0,0:0:0:0:
252,248,70636,5,4,0:0:0:0:
120,96,70836,2,0,L|112:144,1,41.1666647822063,2|0,0:0|0:0,0:0:0:0:
256,152,70936,1,8,0:0:0:0:
392,96,71136,2,0,L|400:136,1,41.1666647822063,2|0,0:0|0:0,0:0:0:0:
256,192,71236,1,4,0:0:0:0:
120,192,71436,2,0,L|104:280,1,82.3333295644126,2|8,0:0|0:0,0:0:0:0:
392,192,71736,1,2,0:0:0:0:
120,160,71836,6,0,P|64:144|64:40,1,164.666659128825,4|2,0:0|0:0,0:0:0:0:
216,40,72136,2,0,L|312:40,2,82.3333295644126,8|0|2,0:0|0:0|0:0,0:0:0:0:
408,120,72436,2,0,L|496:120,2,82.3333295644126,4|0|2,0:0|0:0|0:0,0:0:0:0:
304,120,72736,2,0,L|200:120,2,82.3333295644126,8|0|2,0:0|0:0|0:0,0:0:0:0:
104,120,73036,6,0,L|16:120,2,82.3333295644126,4|0|2,0:0|0:0|0:0,0:0:0:0:
304,192,73336,1,8,0:0:0:0:
224,192,73436,1,0,0:0:0:0:
304,232,73536,1,2,0:0:0:0:
224,232,73636,1,4,0:0:0:0:
104,56,73861,1,2,0:0:0:0:
344,80,73936,2,0,P|392:96|440:216,1,164.666659128825,8|0,0:0|0:0,0:0:0:0:
176,344,74236,6,0,P|192:344|352:344,1,164.666659128825,4|2,0:0|0:0,0:0:0:0:
168,80,74536,2,0,P|120:96|72:216,1,164.666659128825,8|0,0:0|0:0,0:0:0:0:
340,344,74836,2,0,P|324:344|164:344,1,164.666659128825,4|2,0:0|0:0,0:0:0:0:
392,272,75136,2,0,L|512:272,2,82.3333295644126,8|0|2,0:0|0:0|0:0,0:0:0:0:
192,272,75436,5,4,0:0:0:0:
120,96,75636,2,0,L|112:144,1,41.1666647822063,2|0,0:0|0:0,0:0:0:0:
256,152,75736,1,8,0:0:0:0:
392,96,75936,2,0,L|400:136,1,41.1666647822063,2|0,0:0|0:0,0:0:0:0:
256,192,76036,1,4,0:0:0:0:
120,192,76236,2,0,L|104:280,1,82.3333295644126,2|8,0:0|0:0,0:0:0:0:
392,192,76536,1,2,0:0:0:0:
120,160,76636,6,0,P|64:144|64:40,1,164.666659128825,4|2,0:0|0:0,0:0:0:0:
216,40,76936,2,0,L|312:40,2,82.3333295644126,8|0|2,0:0|0:0|0:0,0:0:0:0:
408,120,77236,2,0,L|496:120,2,82.3333295644126,4|0|2,0:0|0:0|0:0,0:0:0:0:
304,120,77536,2,0,L|200:120,2,82.3333295644126,8|0|2,0:0|0:0|0:0,0:0:0:0:
104,120,77836,6,0,L|16:120,2,82.3333295644126,4|0|2,0:0|0:0|0:0,0:0:0:0:
304,192,78136,2,0,L|408:192,1,82.3333295644126,4|0,0:0|0:0,0:0:0:0:
208,192,78336,2,0,L|104:192,1,82.3333295644126,0|4,0:0|0:0,0:0:0:0:
360,264,78536,2,0,L|464:264,2,82.3333295644126,4|8|0,0:0|0:0|0:0,0:0:0:0:
208,288,78936,5,0,0:0:0:0:
167,287,78986,1,0,0:0:0:0:
129,272,79036,1,0,0:0:0:0:
98,244,79086,1,0,0:0:0:0:
80,207,79136,1,0,0:0:0:0:
75,167,79186,1,0,0:0:0:0:
256,96,79236,5,0,0:0:0:0:
376,96,79336,2,0,P|424:112|480:224,1,164.666659128825
136,96,79636,2,0,P|88:112|32:224,1,164.666659128825
256,192,79936,1,0,0:0:0:0:
136,192,80136,1,0,0:0:0:0:
392,320,80236,6,0,B|112:320|112:280|264:280,1,284.999991302491,10|0,0:0|0:0,0:0:0:0:
256,224,80686,2,0,B|-24:224|-24:184|128:184,1,284.999991302491,10|0,0:0|0:0,0:0:0:0:
128,152,81136,2,0,B|408:152|408:112|256:112,1,284.999991302491,10|0,0:0|0:0,0:0:0:0:
264,56,81586,2,0,B|544:56|544:16|392:16,1,284.999991302491,10|0,0:0|0:0,0:0:0:0:
392,120,82036,6,0,B|392:216|392:216|392:96,1,170.999994781494,10|0,0:0|0:0,0:0:0:0:
256,144,82336,2,0,B|256:240|256:240|256:120,1,170.999994781494,10|0,0:0|0:0,0:0:0:0:
120,320,82636,6,0,B|400:320|400:280|248:280,1,284.999991302491,10|0,0:0|0:0,0:0:0:0:
256,224,83086,2,0,B|536:224|536:184|384:184,1,284.999991302491,10|0,0:0|0:0,0:0:0:0:
384,152,83536,2,0,B|104:152|104:112|256:112,1,284.999991302491,10|0,0:0|0:0,0:0:0:0:
248,56,83986,2,0,B|-32:56|-32:16|120:16,1,284.999991302491,10|0,0:0|0:0,0:0:0:0:
248,104,84436,6,0,B|248:200|248:200|248:80,1,170.999994781494,10|0,0:0|0:0,0:0:0:0:
112,144,84736,2,0,B|112:240|112:240|112:120,1,170.999994781494,10|0,0:0|0:0,0:0:0:0:
328,192,85036,6,0,L|504:192,1,170.999994781494,10|0,0:0|0:0,0:0:0:0:
499,192,85336,2,0,L|323:192,1,170.999994781494,10|0,0:0|0:0,0:0:0:0:
184,192,85636,2,0,L|4:192,1,170.999994781494,10|0,0:0|0:0,0:0:0:0:
13,192,85936,2,0,L|197:192,1,170.999994781494,10|0,0:0|0:0,0:0:0:0:
328,160,86236,6,0,L|216:160,2,75.9999976806641
144,48,86536,2,0,L|232:48,2,75.9999976806641
312,112,86836,1,0,0:0:0:0:
400,112,86936,1,0,0:0:0:0:
400,176,87036,1,0,0:0:0:0:
216,192,87136,1,0,0:0:0:0:
136,192,87236,1,0,0:0:0:0:
216,192,87336,1,0,0:0:0:0:
376,272,87436,6,0,P|456:248|352:136,1,284.999991302491,10|0,0:0|0:0,0:0:0:0:
136,272,87886,2,0,P|56:248|160:136,1,284.999991302491,10|0,0:0|0:0,0:0:0:0:
344,192,88336,2,0,L|152:192,1,170.999994781494,10|0,0:0|0:0,0:0:0:0:
120,160,88636,2,0,L|304:160,1,170.999994781494,10|0,0:0|0:0,0:0:0:0:
344,192,88936,1,0,0:0:0:0:
112,192,89536,5,0,0:0:0:0:
83,191,89574,1,0,0:0:0:0:
59,177,89611,1,0,0:0:0:0:
45,153,89649,1,0,0:0:0:0:
45,125,89686,1,0,0:0:0:0:
59,100,89724,1,0,0:0:0:0:
83,86,89761,1,0,0:0:0:0:
400,192,89836,5,4,0:0:0:0:
256,192,90136,2,0,L|256:248,1,47.5,2|0,0:0|0:0,0:0:0:0:
96,192,90436,1,8,0:0:0:0:
256,256,90586,6,0,L|272:360,1,95,2|0,0:0|0:0,0:0:0:0:
104,112,90886,2,0,L|88:224,1,95,2|0,0:0|0:0,0:0:0:0:
256,96,91186,2,0,L|272:208,1,95,2|0,0:0|3:0,0:0:0:0:
408,112,91486,2,0,L|424:208,1,95,2|8,0:0|0:0,0:0:0:0:
256,24,91786,1,2,0:0:0:0:
408,32,91936,2,0,L|424:128,1,95,2|0,0:0|0:0,0:0:0:0:
160,184,92236,6,0,P|104:184|40:64,1,190,6|2,0:0|0:0,0:0:0:0:
160,80,92686,1,0,0:0:0:0:
40,24,92836,1,8,0:0:0:0:
160,216,92986,6,0,L|272:208,1,95,2|0,0:0|0:0,0:0:0:0:
136,304,93286,2,0,L|32:312,2,95,2|0|2,0:0|0:0|0:0,0:0:0:0:
240,272,93736,1,2,0:0:0:0:
279,188,93886,1,2,0:0:0:0:
247,101,94036,1,10,0:0:0:0:
162,63,94186,1,2,0:0:0:0:
40,192,94336,2,0,L|168:200,1,95
352,48,94636,5,4,0:0:0:0:
160,48,94936,2,0,L|152:96,2,47.5,10|0|8,0:0|0:0|0:0,0:0:0:0:
328,112,95236,1,0,0:0:0:0:
184,112,95386,2,0,L|176:216,1,95,2|0,0:0|0:0,0:0:0:0:
328,192,95686,6,2,P|416:176|456:64,2,190
184,168,96436,2,0,L|176:272,1,95,8|0,0:0|0:0,0:0:0:0:
328,48,96736,2,0,P|384:64|424:160,1,142.5,4|0,0:0|0:0,0:0:0:0:
256,192,97036,5,2,0:0:0:0:
144,112,97186,2,8,L|136:160,2,47.5
368,112,97486,1,2,0:0:0:0:
232,144,97636,1,2,0:0:0:0:
368,192,97786,1,2,0:0:0:0:
144,112,97936,5,2,0:0:0:0:
280,144,98086,1,2,0:0:0:0:
144,192,98236,1,2,0:0:0:0:
368,88,98386,1,2,0:0:0:0:
144,88,98536,1,2,0:0:0:0:
368,144,98836,6,0,P|432:160|488:280,1,190
368,240,99286,1,0,0:0:0:0:
24,192,99436,1,0,0:0:0:0:
256,192,99886,5,0,0:0:0:0:
24,192,100336,1,0,0:0:0:0:
256,280,100636,1,0,0:0:0:0:
24,192,100936,1,0,0:0:0:0:
392,120,101236,5,2,0:0:0:0:
