osu file format v14

[General]
AudioFilename: audio.mp3
AudioLeadIn: 0
PreviewTime: 52594
Countdown: 0
SampleSet: None
StackLeniency: 0.7
Mode: 1
LetterboxInBreaks: 0
WidescreenStoryboard: 1

[Editor]
Bookmarks: 70049,139867,209685
DistanceSpacing: 0.2
BeatDivisor: 6
GridSize: 32
TimelineZoom: 2.1

[Metadata]
Title:Night City Runway
TitleUnicode:Night City Runway
Artist:C-Show
ArtistUnicode:C-Show
Creator:Arrival
Version:Muzukashii
Source:
Tags:Funkacity 2 Funk DA Recordings
BeatmapID:1976099
BeatmapSetID:945707

[Difficulty]
HPDrainRate:5
CircleSize:2
OverallDifficulty:5
ApproachRate:0
SliderMultiplier:1.4
SliderTickRate:1

[Events]
//Background and Video events
0,0,"cropped-1920-1080-903637.jpg",0,-50
//Break Periods
//Storyboard Layer 0 (Background)
//Storyboard Layer 1 (Fail)
//Storyboard Layer 2 (Pass)
//Storyboard Layer 3 (Foreground)
//Storyboard Sound Samples

[TimingPoints]
231,545.454545454546,4,1,0,50,1,0
231,-83.3333333333333,4,1,0,50,0,0
16458,-81.9672131147541,4,1,0,50,0,0
16731,-80.6451612903226,4,1,0,50,0,0
17094,-79.3650793650794,4,1,0,50,0,0
17367,-78.125,4,1,0,50,0,0
17640,-76.9230769230769,4,1,0,60,0,0
33731,-75.7575757575758,4,1,0,60,0,0
34185,-74.6268656716418,4,1,0,60,0,0
34549,-73.5294117647059,4,1,0,60,0,0
34821,-72.463768115942,4,1,0,60,0,0
35140,-71.4285714285714,4,1,0,60,0,0
51231,-66.6666666666667,4,1,0,60,0,0
52594,-66.6666666666667,4,1,0,70,0,1
68912,-65.7894736842105,4,1,0,70,0,1
69185,-64.9350649350649,4,1,0,70,0,1
69458,-64.1025641025641,4,1,0,70,0,1
69731,-63.2911392405063,4,1,0,70,0,1
70003,-62.5,4,1,0,70,0,1
86367,-63.2911392405063,4,1,0,70,0,1
86640,-64.1025641025641,4,1,0,70,0,1
86912,-64.9350649350649,4,1,0,70,0,1
87185,-65.7894736842105,4,1,0,70,0,1
87458,-66.6666666666667,4,1,0,70,0,1
87503,-66.6666666666667,4,1,0,60,0,0
102912,-68.9655172413793,4,1,0,60,0,0
103731,-71.4285714285714,4,1,0,60,0,0
104003,-73.5294117647059,4,1,0,60,0,0
104367,-74.6268656716418,4,1,0,60,0,0
104640,-75.7575757575758,4,1,0,60,0,0
104958,-76.9230769230769,4,1,0,50,0,0
139821,-76.3358778625954,4,1,0,60,0,0
140094,-75.7575757575758,4,1,0,60,0,0
140367,-75.187969924812,4,1,0,60,0,0
140640,-74.6268656716418,4,1,0,60,0,0
140912,-74.0740740740741,4,1,0,60,0,0
141185,-73.5294117647059,4,1,0,60,0,0
141458,-72.992700729927,4,1,0,60,0,0
141731,-72.463768115942,4,1,0,60,0,0
142003,-71.9424460431655,4,1,0,60,0,0
142276,-71.4285714285714,4,1,0,60,0,0
142549,-70.9219858156028,4,1,0,60,0,0
142821,-70.4225352112676,4,1,0,60,0,0
143094,-69.9300699300699,4,1,0,60,0,0
143367,-69.4444444444444,4,1,0,60,0,0
143640,-68.9655172413793,4,1,0,60,0,0
143912,-68.4931506849315,4,1,0,60,0,0
144185,-68.0272108843537,4,1,0,60,0,0
144458,-67.5675675675676,4,1,0,60,0,0
144731,-67.1140939597315,4,1,0,60,0,0
145003,-66.6666666666667,4,1,0,60,0,0
145276,-66.2251655629139,4,1,0,60,0,0
145549,-65.7894736842105,4,1,0,60,0,0
145821,-65.359477124183,4,1,0,60,0,0
146094,-64.9350649350649,4,1,0,60,0,0
146367,-64.5161290322581,4,1,0,60,0,0
146640,-64.1025641025641,4,1,0,60,0,0
146912,-63.6942675159236,4,1,0,60,0,0
147185,-63.2911392405063,4,1,0,60,0,0
147458,-62.8930817610063,4,1,0,60,0,0
147731,-62.5,4,1,0,60,0,0
148003,-62.111801242236,4,1,0,60,0,0
148276,-61.7283950617284,4,1,0,60,0,0
148549,-60.9756097560976,4,1,0,65,0,0
148821,-60.2409638554217,4,1,0,65,0,0
149094,-59.5238095238095,4,1,0,65,0,0
149367,-58.8235294117647,4,1,0,65,0,0
149640,-58.1395348837209,4,1,0,65,0,0
149912,-57.4712643678161,4,1,0,65,0,0
150185,-56.8181818181818,4,1,0,65,0,0
150458,-56.1797752808989,4,1,0,65,0,0
150731,-55.5555555555556,4,1,0,65,0,0
151003,-54.9450549450549,4,1,0,65,0,0
151276,-54.3478260869565,4,1,0,65,0,0
151549,-53.763440860215,4,1,0,65,0,0
151821,-53.1914893617021,4,1,0,65,0,0
152094,-52.6315789473684,4,1,0,65,0,0
152367,-52.0833333333333,4,1,0,65,0,0
152640,-51.5463917525773,4,1,0,65,0,0
152912,-50.761421319797,4,1,0,70,0,0
153185,-50,4,1,0,70,0,0
153458,-49.2610837438424,4,1,0,70,0,0
153731,-48.5436893203883,4,1,0,70,0,0
154003,-47.8468899521531,4,1,0,70,0,0
154276,-47.1698113207547,4,1,0,70,0,0
154549,-46.5116279069767,4,1,0,70,0,0
154731,-45.8715596330275,4,1,0,70,0,0
154912,-45.2488687782805,4,1,0,70,0,0
155094,-44.6428571428571,4,1,0,70,0,0
155958,-66.6666666666667,4,1,0,60,0,0
157321,-66.6666666666667,4,1,0,70,0,1
173640,-65.7894736842105,4,1,0,70,0,1
173912,-64.9350649350649,4,1,0,70,0,1
174185,-64.1025641025641,4,1,0,70,0,1
174458,-63.2911392405063,4,1,0,70,0,1
174731,-62.5,4,1,0,70,0,1
191094,-63.2911392405063,4,1,0,70,0,1
191321,-64.1025641025641,4,1,0,70,0,1
191640,-64.9350649350649,4,1,0,70,0,1
191912,-65.7894736842105,4,1,0,70,0,1
192185,-65.7894736842105,4,1,0,70,0,1
192231,-66.6666666666667,4,1,0,60,0,0

[HitObjects]
256,128,231,5,0,0:0:0:0:
256,128,503,1,0,0:0:0:0:
256,128,1231,1,8,0:0:0:0:
256,128,1503,1,8,0:0:0:0:
256,128,2321,1,0,0:0:0:0:
256,128,2594,1,0,0:0:0:0:
256,128,3231,1,8,0:0:0:0:
256,128,3503,1,8,0:0:0:0:
256,128,3958,1,8,0:0:0:0:
256,128,4321,1,8,0:0:0:0:
256,128,4594,1,0,0:0:0:0:
256,128,4867,1,0,0:0:0:0:
256,128,5594,1,8,0:0:0:0:
256,128,5867,1,8,0:0:0:0:
256,128,6685,1,0,0:0:0:0:
256,128,6958,1,0,0:0:0:0:
256,128,7776,1,8,0:0:0:0:
256,128,8049,1,8,0:0:0:0:
256,128,8321,1,0,0:0:0:0:
256,128,8412,1,0,0:0:0:0:
256,128,8594,1,0,0:0:0:0:
256,128,8685,1,0,0:0:0:0:
256,128,8958,1,0,0:0:0:0:
256,128,9231,1,0,0:0:0:0:
256,128,9503,1,8,0:0:0:0:
256,128,9958,1,8,0:0:0:0:
256,128,10231,1,8,0:0:0:0:
256,128,10594,1,0,0:0:0:0:
256,128,11049,1,0,0:0:0:0:
256,128,11321,1,0,0:0:0:0:
256,128,11685,1,8,0:0:0:0:
256,128,11958,1,0,0:0:0:0:
256,128,12231,1,8,0:0:0:0:
256,128,12685,1,8,0:0:0:0:
256,128,13049,1,8,0:0:0:0:
256,128,13321,1,0,0:0:0:0:
256,128,13594,1,0,0:0:0:0:
256,128,13867,1,8,0:0:0:0:
256,128,14321,1,8,0:0:0:0:
256,128,14594,1,8,0:0:0:0:
256,128,14958,1,0,0:0:0:0:
256,128,15412,1,0,0:0:0:0:
256,128,15685,1,0,0:0:0:0:
256,128,16049,1,8,0:0:0:0:
256,128,16503,1,8,0:0:0:0:
256,128,16776,1,8,0:0:0:0:
256,128,17685,1,0,0:0:0:0:
256,128,18231,1,0,0:0:0:0:
256,128,18503,1,0,0:0:0:0:
256,128,18776,1,8,0:0:0:0:
256,128,19321,1,8,0:0:0:0:
256,128,19594,1,8,0:0:0:0:
256,128,19867,1,0,0:0:0:0:
256,128,20412,1,8,0:0:0:0:
256,128,20958,1,8,0:0:0:0:
256,128,21231,1,8,0:0:0:0:
256,128,21503,1,8,0:0:0:0:
256,128,22049,1,0,0:0:0:0:
256,128,22321,1,8,0:0:0:0:
256,128,22867,1,8,0:0:0:0:
256,128,23140,1,0,0:0:0:0:
256,128,23685,1,8,0:0:0:0:
256,128,24231,1,0,0:0:0:0:
256,128,24503,1,0,0:0:0:0:
256,128,24776,1,8,0:0:0:0:
256,128,25049,1,0,0:0:0:0:
256,128,25594,1,0,0:0:0:0:
256,128,25867,1,8,0:0:0:0:
256,128,26140,1,8,0:0:0:0:
256,128,26412,1,0,0:0:0:0:
256,128,26958,1,0,0:0:0:0:
256,128,27231,1,0,0:0:0:0:
256,128,27503,1,8,0:0:0:0:
256,128,28049,1,8,0:0:0:0:
256,128,28321,1,8,0:0:0:0:
256,128,28594,1,0,0:0:0:0:
256,128,29140,1,8,0:0:0:0:
256,128,29685,1,8,0:0:0:0:
256,128,29958,1,8,0:0:0:0:
256,128,30231,1,8,0:0:0:0:
256,128,30776,1,0,0:0:0:0:
256,128,31049,1,8,0:0:0:0:
256,128,31867,1,8,0:0:0:0:
256,128,32140,1,0,0:0:0:0:
256,128,32685,1,0,0:0:0:0:
256,128,32958,1,0,0:0:0:0:
256,192,33776,12,0,34867,0:0:0:0:
256,128,35140,5,0,0:0:0:0:
256,128,35412,1,0,0:0:0:0:
256,128,35685,1,8,0:0:0:0:
256,128,36140,1,8,0:0:0:0:
256,128,36412,1,8,0:0:0:0:
256,128,36776,1,0,0:0:0:0:
256,128,37231,1,0,0:0:0:0:
256,128,37503,1,0,0:0:0:0:
256,128,37867,1,8,0:0:0:0:
256,128,38140,1,0,0:0:0:0:
256,128,38412,1,8,0:0:0:0:
256,128,38867,1,8,0:0:0:0:
256,128,39140,1,0,0:0:0:0:
256,128,39231,1,0,0:0:0:0:
256,128,39503,1,0,0:0:0:0:
256,128,39776,1,0,0:0:0:0:
256,128,40049,1,8,0:0:0:0:
256,128,40503,1,8,0:0:0:0:
256,128,40776,1,8,0:0:0:0:
256,128,41140,1,0,0:0:0:0:
256,128,41594,1,0,0:0:0:0:
256,128,41867,1,0,0:0:0:0:
256,128,42231,1,8,0:0:0:0:
256,128,42685,1,0,0:0:0:0:
256,128,42958,1,0,0:0:0:0:
256,128,43231,1,0,0:0:0:0:
256,128,43594,1,8,0:0:0:0:
256,128,43867,1,0,0:0:0:0:
256,128,44140,1,0,0:0:0:0:
256,128,44412,1,8,0:0:0:0:
256,128,44867,1,8,0:0:0:0:
256,128,45140,1,8,0:0:0:0:
256,128,45503,1,0,0:0:0:0:
256,128,45958,1,0,0:0:0:0:
256,128,46231,1,0,0:0:0:0:
256,128,46594,1,8,0:0:0:0:
256,128,46867,1,0,0:0:0:0:
256,128,47140,1,8,0:0:0:0:
256,128,47594,1,8,0:0:0:0:
256,128,47867,1,0,0:0:0:0:
256,128,47958,1,0,0:0:0:0:
256,128,48231,1,0,0:0:0:0:
256,128,48503,1,0,0:0:0:0:
256,128,48776,1,8,0:0:0:0:
256,128,49049,1,8,0:0:0:0:
256,128,49321,1,0,0:0:0:0:
256,128,49594,1,0,0:0:0:0:
256,128,49867,1,8,0:0:0:0:
256,128,50049,1,8,0:0:0:0:
256,128,50231,1,8,0:0:0:0:
256,128,50412,1,0,0:0:0:0:
256,192,51231,12,0,52321,0:0:0:0:
256,128,52594,5,4,0:0:0:0:
256,128,52867,1,0,0:0:0:0:
256,128,53140,1,8,0:0:0:0:
256,128,53321,1,0,0:0:0:0:
256,128,53412,1,0,0:0:0:0:
256,128,53594,1,8,0:0:0:0:
256,128,53867,1,8,0:0:0:0:
256,128,54140,1,8,0:0:0:0:
256,128,54685,1,0,0:0:0:0:
256,128,54958,1,0,0:0:0:0:
256,128,55321,1,8,0:0:0:0:
256,128,55594,1,0,0:0:0:0:
256,128,55867,1,8,0:0:0:0:
256,128,56321,1,8,0:0:0:0:
256,128,56685,1,8,0:0:0:0:
256,128,56958,1,0,0:0:0:0:
256,128,57231,1,0,0:0:0:0:
256,128,57503,1,8,0:0:0:0:
256,128,57685,1,0,0:0:0:0:
256,128,57776,1,0,0:0:0:0:
256,128,57958,1,8,0:0:0:0:
256,128,58231,1,8,0:0:0:0:
256,128,58503,1,8,0:0:0:0:
256,128,59049,1,0,0:0:0:0:
256,128,59321,1,0,0:0:0:0:
256,128,59685,1,8,0:0:0:0:
256,128,59958,1,0,0:0:0:0:
256,128,60139,1,0,0:0:0:0:
256,128,60230,1,0,0:0:0:0:
256,128,60412,1,8,0:0:0:0:
256,128,60503,1,8,0:0:0:0:
256,128,60685,1,0,0:0:0:0:
256,128,60776,1,0,0:0:0:0:
256,128,61049,1,8,0:0:0:0:
256,128,61321,1,0,0:0:0:0:
256,128,61594,1,0,0:0:0:0:
256,128,61867,1,8,0:0:0:0:
256,128,62049,1,0,0:0:0:0:
256,128,62140,1,0,0:0:0:0:
256,128,62321,1,8,0:0:0:0:
256,128,62594,1,8,0:0:0:0:
256,128,62867,1,8,0:0:0:0:
256,128,63412,1,0,0:0:0:0:
256,128,63685,1,0,0:0:0:0:
256,128,64049,1,8,0:0:0:0:
256,128,64321,1,0,0:0:0:0:
256,128,64594,1,8,0:0:0:0:
256,128,65049,1,8,0:0:0:0:
256,128,65412,1,8,0:0:0:0:
256,128,65685,1,0,0:0:0:0:
256,128,65958,1,0,0:0:0:0:
256,128,66231,1,8,0:0:0:0:
256,128,66412,1,0,0:0:0:0:
256,128,66503,1,0,0:0:0:0:
256,128,66685,1,8,0:0:0:0:
256,128,66958,1,8,0:0:0:0:
256,128,67231,1,8,0:0:0:0:
256,128,67776,1,0,0:0:0:0:
256,128,68049,1,0,0:0:0:0:
256,128,68412,1,8,0:0:0:0:
256,128,68685,1,8,0:0:0:0:
256,128,68958,1,0,0:0:0:0:
256,128,69140,1,8,0:0:0:0:
256,128,69231,1,0,0:0:0:0:
256,128,69503,1,12,0:0:0:0:
256,128,70049,1,0,0:0:0:0:
256,128,70321,1,0,0:0:0:0:
256,128,70594,1,12,0:0:0:0:
256,128,71049,1,8,0:0:0:0:
256,128,71321,1,0,0:0:0:0:
256,128,71412,1,0,0:0:0:0:
256,128,71685,1,8,0:0:0:0:
256,128,71867,1,8,0:0:0:0:
256,128,72140,1,0,0:0:0:0:
256,128,72412,1,0,0:0:0:0:
256,128,72776,1,12,0:0:0:0:
256,128,73049,1,0,0:0:0:0:
256,128,73321,1,0,0:0:0:0:
256,128,73594,1,8,0:0:0:0:
256,128,73867,1,8,0:0:0:0:
256,128,74049,1,8,0:0:0:0:
256,128,74140,1,8,0:0:0:0:
256,128,74412,1,0,0:0:0:0:
256,128,74685,1,0,0:0:0:0:
256,128,74958,1,12,0:0:0:0:
256,128,75412,1,8,0:0:0:0:
256,128,75685,1,0,0:0:0:0:
256,128,75776,1,0,0:0:0:0:
256,128,76049,1,8,0:0:0:0:
256,128,76231,1,8,0:0:0:0:
256,128,76503,1,0,0:0:0:0:
256,128,76776,1,0,0:0:0:0:
256,128,77140,1,12,0:0:0:0:
256,128,77412,1,0,0:0:0:0:
256,128,77594,1,0,0:0:0:0:
256,128,77685,1,0,0:0:0:0:
256,128,77867,1,8,0:0:0:0:
256,128,77958,1,8,0:0:0:0:
256,128,78140,1,0,0:0:0:0:
256,128,78231,1,0,0:0:0:0:
256,128,78503,1,8,0:0:0:0:
256,128,78776,1,0,0:0:0:0:
256,128,79049,1,0,0:0:0:0:
256,128,79322,1,12,0:0:0:0:
256,128,79777,1,8,0:0:0:0:
256,128,80049,1,0,0:0:0:0:
256,128,80140,1,0,0:0:0:0:
256,128,80413,1,8,0:0:0:0:
256,128,80595,1,8,0:0:0:0:
256,128,80868,1,0,0:0:0:0:
256,128,81140,1,0,0:0:0:0:
256,128,81504,1,12,0:0:0:0:
256,128,81777,1,0,0:0:0:0:
256,128,82049,1,0,0:0:0:0:
256,128,82322,1,8,0:0:0:0:
256,128,82595,1,8,0:0:0:0:
256,128,82777,1,8,0:0:0:0:
256,128,82868,1,8,0:0:0:0:
256,128,83140,1,0,0:0:0:0:
256,128,83413,1,0,0:0:0:0:
256,128,83686,1,12,0:0:0:0:
256,128,84140,1,8,0:0:0:0:
256,128,84413,1,0,0:0:0:0:
256,128,84504,1,0,0:0:0:0:
256,128,84777,1,8,0:0:0:0:
256,128,84959,1,8,0:0:0:0:
256,128,85231,1,0,0:0:0:0:
256,128,85504,1,0,0:0:0:0:
256,192,86412,12,0,87230,0:0:0:0:
256,128,87504,5,0,0:0:0:0:
256,128,87776,1,0,0:0:0:0:
256,128,88049,1,8,0:0:0:0:
256,128,88504,1,8,0:0:0:0:
256,128,88776,1,8,0:0:0:0:
256,128,88867,1,8,0:0:0:0:
256,128,89140,1,0,0:0:0:0:
256,128,89595,1,0,0:0:0:0:
256,128,89867,1,0,0:0:0:0:
256,128,89958,1,0,0:0:0:0:
256,128,90231,1,8,0:0:0:0:
256,128,90504,1,0,0:0:0:0:
256,128,90776,1,8,0:0:0:0:
256,128,91231,1,8,0:0:0:0:
256,128,91321,1,8,0:0:0:0:
256,128,91504,1,0,0:0:0:0:
256,128,91595,1,0,0:0:0:0:
256,128,91867,1,0,0:0:0:0:
256,128,92140,1,0,0:0:0:0:
256,128,92413,1,8,0:0:0:0:
256,128,92867,1,8,0:0:0:0:
256,128,93140,1,8,0:0:0:0:
256,128,93231,1,8,0:0:0:0:
256,128,93504,1,0,0:0:0:0:
256,128,93958,1,0,0:0:0:0:
256,128,94231,1,0,0:0:0:0:
256,128,94321,1,0,0:0:0:0:
256,128,94595,1,8,0:0:0:0:
256,128,95049,1,0,0:0:0:0:
256,128,95140,1,0,0:0:0:0:
256,128,95322,1,8,0:0:0:0:
256,128,95413,1,8,0:0:0:0:
256,128,95595,1,0,0:0:0:0:
256,128,95685,1,0,0:0:0:0:
256,128,95958,1,8,0:0:0:0:
256,128,96231,1,0,0:0:0:0:
256,128,96504,1,0,0:0:0:0:
256,128,96776,1,8,0:0:0:0:
256,128,97231,1,8,0:0:0:0:
256,128,97504,1,8,0:0:0:0:
256,128,97594,1,8,0:0:0:0:
256,128,97867,1,0,0:0:0:0:
256,128,98322,1,0,0:0:0:0:
256,128,98595,1,0,0:0:0:0:
256,128,98685,1,0,0:0:0:0:
256,128,98958,1,8,0:0:0:0:
256,128,99231,1,0,0:0:0:0:
256,128,99504,1,8,0:0:0:0:
256,128,99958,1,8,0:0:0:0:
256,128,100049,1,8,0:0:0:0:
256,128,100231,1,0,0:0:0:0:
256,128,100322,1,0,0:0:0:0:
256,128,100595,1,0,0:0:0:0:
256,128,100867,1,0,0:0:0:0:
256,128,101140,1,8,0:0:0:0:
256,128,101594,1,0,0:0:0:0:
256,128,101867,1,8,0:0:0:0:
256,128,101958,1,8,0:0:0:0:
256,128,102231,1,8,0:0:0:0:
256,128,102503,1,8,0:0:0:0:
256,128,102776,1,0,0:0:0:0:
256,192,103594,12,0,104685,0:0:0:0:
256,128,104958,5,0,0:0:0:0:
256,128,105231,1,8,0:0:0:0:
256,128,105958,1,8,0:0:0:0:
256,128,106231,1,8,0:0:0:0:
256,128,107049,1,8,0:0:0:0:
256,128,107321,1,8,0:0:0:0:
256,128,107958,1,8,0:0:0:0:
256,128,108231,1,8,0:0:0:0:
256,128,108685,1,8,0:0:0:0:
256,128,109049,1,8,0:0:0:0:
256,128,109321,1,8,0:0:0:0:
256,128,109594,1,8,0:0:0:0:
256,128,110321,1,8,0:0:0:0:
256,128,110594,1,8,0:0:0:0:
256,128,111412,1,8,0:0:0:0:
256,128,111685,1,8,0:0:0:0:
256,128,112503,1,8,0:0:0:0:
256,128,112776,1,8,0:0:0:0:
256,128,113049,1,8,0:0:0:0:
256,128,113685,1,8,0:0:0:0:
256,128,113958,1,8,0:0:0:0:
256,128,114685,1,8,0:0:0:0:
256,128,114958,1,8,0:0:0:0:
256,128,115776,1,8,0:0:0:0:
256,128,116049,1,8,0:0:0:0:
256,128,116685,1,8,0:0:0:0:
256,128,116958,1,8,0:0:0:0:
256,128,117412,1,8,0:0:0:0:
256,128,117776,1,8,0:0:0:0:
256,128,118049,1,8,0:0:0:0:
256,128,118321,1,8,0:0:0:0:
256,128,119049,1,8,0:0:0:0:
256,128,119321,1,8,0:0:0:0:
256,128,120140,1,8,0:0:0:0:
256,128,120412,1,8,0:0:0:0:
256,128,121231,1,8,0:0:0:0:
256,128,121503,1,8,0:0:0:0:
256,128,121776,1,8,0:0:0:0:
256,128,122412,1,0,0:0:0:0:
256,128,122958,1,0,0:0:0:0:
256,128,123231,1,8,0:0:0:0:
256,128,123412,1,0,0:0:0:0:
256,128,123503,1,0,0:0:0:0:
256,128,123685,1,0,0:0:0:0:
256,128,123776,1,0,0:0:0:0:
256,128,123958,1,8,0:0:0:0:
256,128,124231,1,0,0:0:0:0:
256,128,124503,1,0,0:0:0:0:
256,128,125049,1,8,0:0:0:0:
256,128,125140,1,8,0:0:0:0:
256,128,125321,1,0,0:0:0:0:
256,128,125412,1,0,0:0:0:0:
256,128,125685,1,8,0:0:0:0:
256,128,126140,1,0,0:0:0:0:
256,128,126412,1,8,0:0:0:0:
256,128,126503,1,8,0:0:0:0:
256,128,126685,1,0,0:0:0:0:
256,128,127321,1,8,0:0:0:0:
256,128,127594,1,0,0:0:0:0:
256,128,127776,1,8,0:0:0:0:
256,128,127867,1,8,0:0:0:0:
256,128,128049,1,8,0:0:0:0:
256,128,128140,1,8,0:0:0:0:
256,128,128321,1,0,0:0:0:0:
256,128,128594,1,8,0:0:0:0:
256,128,129140,1,8,0:0:0:0:
256,128,129412,1,8,0:0:0:0:
256,128,129503,1,8,0:0:0:0:
256,128,129685,1,0,0:0:0:0:
256,128,129776,1,0,0:0:0:0:
256,128,130049,1,8,0:0:0:0:
256,128,130231,1,0,0:0:0:0:
256,128,130321,1,0,0:0:0:0:
256,128,130503,1,8,0:0:0:0:
256,160,130867,1,8,0:0:0:0:
256,160,131140,1,0,0:0:0:0:
256,128,131685,1,0,0:0:0:0:
256,128,131958,1,8,0:0:0:0:
256,128,132139,1,0,0:0:0:0:
256,128,132230,1,0,0:0:0:0:
256,128,132412,1,0,0:0:0:0:
256,128,132503,1,0,0:0:0:0:
256,128,132685,1,8,0:0:0:0:
256,128,132958,1,0,0:0:0:0:
256,128,133230,1,0,0:0:0:0:
256,128,133776,1,8,0:0:0:0:
256,128,133867,1,8,0:0:0:0:
256,128,134048,1,0,0:0:0:0:
256,128,134139,1,0,0:0:0:0:
256,128,134412,1,8,0:0:0:0:
256,128,134867,1,0,0:0:0:0:
256,128,135139,1,8,0:0:0:0:
256,128,135230,1,8,0:0:0:0:
256,128,135412,1,0,0:0:0:0:
256,128,136048,1,8,0:0:0:0:
256,128,136321,1,0,0:0:0:0:
256,128,136503,1,8,0:0:0:0:
256,128,136594,1,8,0:0:0:0:
256,128,136776,1,8,0:0:0:0:
256,128,136867,1,8,0:0:0:0:
256,128,137048,1,0,0:0:0:0:
256,128,137321,1,8,0:0:0:0:
256,128,137867,1,8,0:0:0:0:
256,128,138139,1,8,0:0:0:0:
256,128,138230,1,8,0:0:0:0:
256,128,138412,1,0,0:0:0:0:
256,128,138503,1,0,0:0:0:0:
256,128,138776,1,8,0:0:0:0:
256,128,138958,1,0,0:0:0:0:
256,128,139048,1,0,0:0:0:0:
256,128,139230,1,8,0:0:0:0:
256,160,139867,1,0,0:0:0:0:
256,160,140140,1,8,0:0:0:0:
256,128,140321,1,0,0:0:0:0:
256,128,140412,1,0,0:0:0:0:
256,128,140685,1,8,0:0:0:0:
256,128,140867,1,0,0:0:0:0:
256,128,141231,1,0,0:0:0:0:
256,128,141412,1,8,0:0:0:0:
256,128,141503,1,8,0:0:0:0:
256,128,141776,1,0,0:0:0:0:
256,128,141958,1,8,0:0:0:0:
256,128,142321,1,8,0:0:0:0:
256,128,142503,1,0,0:0:0:0:
256,128,142594,1,0,0:0:0:0:
256,128,142867,1,8,0:0:0:0:
256,128,143049,1,0,0:0:0:0:
256,128,143412,1,8,0:0:0:0:
256,128,143594,1,0,0:0:0:0:
256,128,143685,1,0,0:0:0:0:
256,128,143867,1,8,0:0:0:0:
256,128,143958,1,8,0:0:0:0:
256,128,144140,1,0,0:0:0:0:
256,128,144231,1,0,0:0:0:0:
256,160,144503,1,8,0:0:0:0:
256,128,144684,1,0,0:0:0:0:
256,128,144775,1,0,0:0:0:0:
256,128,145048,1,8,0:0:0:0:
256,128,145230,1,0,0:0:0:0:
256,128,145594,1,0,0:0:0:0:
256,128,145775,1,8,0:0:0:0:
256,128,145866,1,8,0:0:0:0:
256,128,146139,1,0,0:0:0:0:
256,128,146321,1,8,0:0:0:0:
256,128,146684,1,8,0:0:0:0:
256,128,146866,1,0,0:0:0:0:
256,128,146957,1,0,0:0:0:0:
256,128,147230,1,8,0:0:0:0:
256,128,147412,1,0,0:0:0:0:
256,128,147775,1,8,0:0:0:0:
256,128,147957,1,0,0:0:0:0:
256,128,148048,1,0,0:0:0:0:
256,128,148230,1,8,0:0:0:0:
256,128,148321,1,8,0:0:0:0:
256,128,148503,1,0,0:0:0:0:
256,128,148594,1,0,0:0:0:0:
256,160,148867,1,8,0:0:0:0:
256,128,149048,1,0,0:0:0:0:
256,128,149139,1,0,0:0:0:0:
256,128,149412,1,8,0:0:0:0:
256,128,149594,1,0,0:0:0:0:
256,128,149958,1,0,0:0:0:0:
256,128,150139,1,8,0:0:0:0:
256,128,150230,1,8,0:0:0:0:
256,128,150503,1,0,0:0:0:0:
256,128,150685,1,8,0:0:0:0:
256,128,151048,1,8,0:0:0:0:
256,128,151230,1,0,0:0:0:0:
256,128,151321,1,0,0:0:0:0:
256,128,151594,1,8,0:0:0:0:
256,128,151776,1,0,0:0:0:0:
256,128,152139,1,8,0:0:0:0:
256,128,152321,1,0,0:0:0:0:
256,128,152412,1,0,0:0:0:0:
256,128,152594,1,8,0:0:0:0:
256,128,152685,1,8,0:0:0:0:
256,128,152867,1,0,0:0:0:0:
256,128,152958,1,0,0:0:0:0:
256,192,153231,12,0,155140,0:0:0:0:
256,192,155958,12,0,157049,0:0:0:0:
256,128,157321,5,4,0:0:0:0:
256,128,157594,1,0,0:0:0:0:
256,128,157867,1,8,0:0:0:0:
256,128,158048,1,0,0:0:0:0:
256,128,158139,1,0,0:0:0:0:
256,128,158321,1,8,0:0:0:0:
256,128,158594,1,8,0:0:0:0:
256,128,158867,1,8,0:0:0:0:
256,128,159503,1,0,0:0:0:0:
256,128,159685,1,8,0:0:0:0:
256,128,159776,1,8,0:0:0:0:
256,128,160048,1,8,0:0:0:0:
256,128,160231,1,0,0:0:0:0:
256,128,160594,1,8,0:0:0:0:
256,128,161048,1,8,0:0:0:0:
256,128,161412,1,8,0:0:0:0:
256,128,161685,1,0,0:0:0:0:
256,128,161958,1,0,0:0:0:0:
256,128,162230,1,8,0:0:0:0:
256,128,162412,1,0,0:0:0:0:
256,128,162503,1,0,0:0:0:0:
256,128,162685,1,8,0:0:0:0:
256,128,162958,1,8,0:0:0:0:
256,128,163230,1,8,0:0:0:0:
256,128,163867,1,0,0:0:0:0:
256,128,164048,1,8,0:0:0:0:
256,128,164140,1,8,0:0:0:0:
256,128,164412,1,8,0:0:0:0:
256,128,164594,1,0,0:0:0:0:
256,128,164866,1,0,0:0:0:0:
256,128,164957,1,0,0:0:0:0:
256,128,165139,1,8,0:0:0:0:
256,128,165230,1,8,0:0:0:0:
256,128,165412,1,0,0:0:0:0:
256,128,165503,1,0,0:0:0:0:
256,128,165776,1,8,0:0:0:0:
256,128,166048,1,0,0:0:0:0:
256,128,166321,1,0,0:0:0:0:
256,128,166594,1,8,0:0:0:0:
256,128,166776,1,0,0:0:0:0:
256,128,166867,1,0,0:0:0:0:
256,128,167048,1,8,0:0:0:0:
256,128,167321,1,8,0:0:0:0:
256,128,167594,1,8,0:0:0:0:
256,128,168231,1,0,0:0:0:0:
256,128,168412,1,8,0:0:0:0:
256,128,168503,1,8,0:0:0:0:
256,128,168776,1,8,0:0:0:0:
256,128,168958,1,0,0:0:0:0:
256,128,169321,1,8,0:0:0:0:
256,128,169776,1,8,0:0:0:0:
256,128,170139,1,8,0:0:0:0:
256,128,170412,1,0,0:0:0:0:
256,128,170685,1,0,0:0:0:0:
256,128,170958,1,8,0:0:0:0:
256,128,171139,1,0,0:0:0:0:
256,128,171230,1,0,0:0:0:0:
256,128,171412,1,8,0:0:0:0:
256,128,171685,1,8,0:0:0:0:
256,128,171958,1,8,0:0:0:0:
256,128,172594,1,0,0:0:0:0:
256,128,172776,1,8,0:0:0:0:
256,128,172867,1,8,0:0:0:0:
256,128,173139,1,8,0:0:0:0:
256,128,173321,1,0,0:0:0:0:
256,128,173685,1,12,0:0:0:0:
256,128,174776,1,0,0:0:0:0:
256,128,175048,1,0,0:0:0:0:
256,128,175321,1,12,0:0:0:0:
256,128,175776,1,8,0:0:0:0:
256,128,176048,1,0,0:0:0:0:
256,128,176139,1,0,0:0:0:0:
256,128,176412,1,8,0:0:0:0:
256,128,176594,1,8,0:0:0:0:
256,128,176867,1,0,0:0:0:0:
256,128,177139,1,0,0:0:0:0:
256,128,177503,1,12,0:0:0:0:
256,128,177776,1,0,0:0:0:0:
256,128,178048,1,0,0:0:0:0:
256,128,178321,1,8,0:0:0:0:
256,128,178594,1,8,0:0:0:0:
256,128,178776,1,8,0:0:0:0:
256,128,178867,1,8,0:0:0:0:
256,128,179139,1,0,0:0:0:0:
256,128,179412,1,0,0:0:0:0:
256,128,179685,1,12,0:0:0:0:
256,128,180139,1,8,0:0:0:0:
256,128,180412,1,0,0:0:0:0:
256,128,180503,1,0,0:0:0:0:
256,128,180776,1,8,0:0:0:0:
256,128,180958,1,8,0:0:0:0:
256,128,181230,1,0,0:0:0:0:
256,128,181503,1,0,0:0:0:0:
256,128,181867,1,12,0:0:0:0:
256,128,182139,1,0,0:0:0:0:
256,128,182321,1,0,0:0:0:0:
256,128,182412,1,0,0:0:0:0:
256,128,182594,1,8,0:0:0:0:
256,128,182685,1,8,0:0:0:0:
256,128,182867,1,0,0:0:0:0:
256,128,182958,1,0,0:0:0:0:
256,128,183230,1,8,0:0:0:0:
256,128,183503,1,0,0:0:0:0:
256,128,183776,1,0,0:0:0:0:
256,128,184049,1,12,0:0:0:0:
256,128,184504,1,8,0:0:0:0:
256,128,184776,1,0,0:0:0:0:
256,128,184867,1,0,0:0:0:0:
256,128,185140,1,8,0:0:0:0:
256,128,185322,1,8,0:0:0:0:
256,128,185595,1,0,0:0:0:0:
256,128,185867,1,0,0:0:0:0:
256,128,186231,1,12,0:0:0:0:
256,128,186504,1,0,0:0:0:0:
256,128,186776,1,0,0:0:0:0:
256,128,187049,1,8,0:0:0:0:
256,128,187322,1,8,0:0:0:0:
256,128,187504,1,8,0:0:0:0:
256,128,187595,1,8,0:0:0:0:
256,128,187867,1,0,0:0:0:0:
256,128,188140,1,0,0:0:0:0:
256,128,188413,1,12,0:0:0:0:
256,128,188867,1,8,0:0:0:0:
256,128,189140,1,0,0:0:0:0:
256,128,189231,1,0,0:0:0:0:
256,128,189504,1,8,0:0:0:0:
256,128,189686,1,8,0:0:0:0:
256,128,189958,1,0,0:0:0:0:
256,128,190231,1,0,0:0:0:0:
256,192,191140,12,0,191958,0:0:0:0:
256,128,192231,5,4,0:0:0:0:
256,128,192503,1,0,0:0:0:0:
256,128,192776,1,8,0:0:0:0:
256,128,193231,1,8,0:0:0:0:
256,128,193503,1,8,0:0:0:0:
256,128,193594,1,8,0:0:0:0:
256,128,193867,1,0,0:0:0:0:
256,128,194322,1,0,0:0:0:0:
256,128,194594,1,0,0:0:0:0:
256,128,194685,1,0,0:0:0:0:
256,128,194958,1,8,0:0:0:0:
256,128,195231,1,0,0:0:0:0:
256,128,195503,1,8,0:0:0:0:
256,128,195958,1,8,0:0:0:0:
256,128,196048,1,8,0:0:0:0:
256,128,196231,1,0,0:0:0:0:
256,128,196322,1,0,0:0:0:0:
256,128,196594,1,0,0:0:0:0:
256,128,196867,1,0,0:0:0:0:
256,128,197140,1,8,0:0:0:0:
256,128,197594,1,8,0:0:0:0:
256,128,197867,1,8,0:0:0:0:
256,128,197958,1,8,0:0:0:0:
256,128,198231,1,0,0:0:0:0:
256,128,198685,1,0,0:0:0:0:
256,128,198958,1,0,0:0:0:0:
256,128,199048,1,0,0:0:0:0:
256,128,199322,1,8,0:0:0:0:
256,128,199776,1,0,0:0:0:0:
256,128,199867,1,0,0:0:0:0:
256,128,200049,1,8,0:0:0:0:
256,128,200140,1,8,0:0:0:0:
256,128,200322,1,0,0:0:0:0:
256,128,200412,1,0,0:0:0:0:
256,128,200685,1,8,0:0:0:0:
256,128,200958,1,0,0:0:0:0:
256,128,201231,1,0,0:0:0:0:
256,128,201503,1,8,0:0:0:0:
256,128,201958,1,8,0:0:0:0:
256,128,202231,1,8,0:0:0:0:
256,128,202321,1,8,0:0:0:0:
256,128,202594,1,0,0:0:0:0:
256,128,203049,1,0,0:0:0:0:
256,128,203322,1,0,0:0:0:0:
256,128,203412,1,0,0:0:0:0:
256,128,203685,1,8,0:0:0:0:
256,128,203958,1,0,0:0:0:0:
256,128,204231,1,8,0:0:0:0:
256,128,204685,1,8,0:0:0:0:
256,128,204776,1,8,0:0:0:0:
256,128,204958,1,0,0:0:0:0:
256,128,205049,1,0,0:0:0:0:
256,128,205322,1,0,0:0:0:0:
256,128,205594,1,0,0:0:0:0:
256,128,205867,1,8,0:0:0:0:
256,128,206321,1,0,0:0:0:0:
256,128,206594,1,8,0:0:0:0:
256,128,206685,1,8,0:0:0:0:
256,128,206958,1,8,0:0:0:0:
256,128,207230,1,8,0:0:0:0:
256,128,207503,1,0,0:0:0:0:
256,192,208321,12,0,209412,0:0:0:0:
256,128,209685,5,0,0:0:0:0:
256,128,209958,1,0,0:0:0:0:
256,128,210231,1,8,0:0:0:0:
256,128,210686,1,8,0:0:0:0:
256,128,210958,1,8,0:0:0:0:
256,128,211322,1,0,0:0:0:0:
256,128,211777,1,0,0:0:0:0:
256,128,212049,1,0,0:0:0:0:
256,128,212413,1,8,0:0:0:0:
256,128,212686,1,0,0:0:0:0:
256,128,212958,1,8,0:0:0:0:
256,128,213413,1,8,0:0:0:0:
256,128,213686,1,8,0:0:0:0:
256,128,213777,1,8,0:0:0:0:
256,128,214049,1,0,0:0:0:0:
256,128,214322,1,0,0:0:0:0:
256,128,214595,1,8,0:0:0:0:
256,128,215049,1,8,0:0:0:0:
256,128,215322,1,8,0:0:0:0:
256,128,215686,1,0,0:0:0:0:
256,128,216140,1,0,0:0:0:0:
256,128,216413,1,0,0:0:0:0:
256,128,216777,1,8,0:0:0:0:
256,128,217231,1,0,0:0:0:0:
256,128,217504,1,0,0:0:0:0:
256,128,217777,1,0,0:0:0:0:
256,128,218140,1,8,0:0:0:0:
256,128,218413,1,0,0:0:0:0:
256,128,218686,1,0,0:0:0:0:
256,128,218958,1,8,0:0:0:0:
256,128,219413,1,8,0:0:0:0:
256,128,219686,1,8,0:0:0:0:
256,128,220049,1,0,0:0:0:0:
256,128,220504,1,0,0:0:0:0:
256,128,220777,1,0,0:0:0:0:
256,128,221140,1,8,0:0:0:0:
256,128,221413,1,0,0:0:0:0:
256,128,221686,1,8,0:0:0:0:
256,128,222140,1,8,0:0:0:0:
256,128,222503,1,8,0:0:0:0:
256,128,222777,1,0,0:0:0:0:
256,128,223049,1,0,0:0:0:0:
256,128,223322,1,8,0:0:0:0:
256,128,223776,1,8,0:0:0:0:
256,128,224049,1,8,0:0:0:0:
256,128,224413,1,0,0:0:0:0:
256,128,224867,1,0,0:0:0:0:
256,128,225140,1,0,0:0:0:0:
256,128,225503,1,8,0:0:0:0:
256,128,225958,1,0,0:0:0:0:
256,128,226231,1,0,0:0:0:0:
256,128,226503,1,0,0:0:0:0:
256,128,226867,1,8,0:0:0:0:
256,192,227140,12,0,231503,0:0:0:0:
