osu file format v14

[General]
AudioFilename: audio.mp3
AudioLeadIn: 0
PreviewTime: 37632
Countdown: 0
SampleSet: Normal
StackLeniency: 0.7
Mode: 0
LetterboxInBreaks: 0
WidescreenStoryboard: 0

[Editor]
Bookmarks: 1111,9458,17806,21980,41806,45980,50154,54328,58502,61632,62676,64763,68937,69980,74154,78328,82502,86676,90850,95024,99197,103371,105458,107545,108719,109828
DistanceSpacing: 0.8
BeatDivisor: 4
GridSize: 8
TimelineZoom: 2.2

[Metadata]
Title:Invitation from Mr.C
TitleUnicode:Invitation from Mr.C
Artist:C-Show
ArtistUnicode:C-Show
Creator:TheArchist
Version:Welcome
Source:SOUND VOLTEX III GRAVITY WARS
Tags:shiguma beatmania iidx 22 pendual
BeatmapID:986195
BeatmapSetID:460493

[Difficulty]
HPDrainRate:6
CircleSize:4
OverallDifficulty:9.3
ApproachRate:9.9
SliderMultiplier:1.4
SliderTickRate:1

[Events]
//Background and Video events
0,0,"long-exposure-photography-90.jpg",0,0
//Break Periods
//Storyboard Layer 0 (Background)
//Storyboard Layer 1 (Fail)
//Storyboard Layer 2 (Pass)
//Storyboard Layer 3 (Foreground)
//Storyboard Sound Samples

[TimingPoints]
1111,260.869565217391,4,1,0,100,1,0
1111,-58.8235294117647,4,1,0,100,0,0
5284,-50,4,1,0,100,0,0
9197,-200,4,2,0,30,0,0
9458,-50,4,1,0,100,0,0
16893,-50,4,2,0,100,0,0
17545,-50,4,1,0,100,0,0
17806,-66.6666666666667,4,1,0,100,0,0
19893,-66.6666666666667,4,3,0,100,0,0
21980,-100,4,1,0,100,0,0
23545,-50,4,1,0,100,0,0
24067,-100,4,1,0,100,0,0
25632,-50,4,1,0,100,0,0
26154,-50,4,1,0,100,0,0
26545,-66.6666666666667,4,1,0,100,0,0
26937,-100,4,1,0,100,0,0
27328,-200,4,1,0,100,0,0
27719,-50,4,1,0,100,0,0
28241,-200,4,1,0,100,0,0
29741,-125,4,1,0,100,0,0
30067,-25,4,1,0,100,0,0
30328,-66.6666666666667,4,1,0,100,0,0
34502,-50,4,3,0,100,0,0
36589,-166.666666666667,4,3,0,100,0,0
37632,-76.9230769230769,4,1,0,100,0,0
39197,-66.6666666666667,4,1,0,100,0,0
39719,-76.9230769230769,4,1,0,100,0,0
39980,-50,4,1,0,100,0,0
40763,-66.6666666666667,4,1,0,100,0,0
41284,-125,4,1,0,100,0,0
41806,-50,4,1,0,100,0,0
43371,-133.333333333333,4,1,0,100,0,0
43632,-50,4,1,0,100,0,0
44937,-100,4,1,0,100,0,0
45197,-50,4,1,0,100,0,0
45980,-50,4,1,0,100,0,1
48197,-100,4,1,0,100,0,1
48458,-50,4,1,0,100,0,1
52371,-100,4,1,0,100,0,1
52632,-50,4,1,0,100,0,1
61632,-50,4,1,0,5,0,0
62676,-50,4,1,0,100,0,0
63719,-76.9230769230769,4,1,0,100,0,0
68937,-200,4,1,0,100,0,0
69980,-76.9230769230769,4,1,0,100,0,0
73110,-58.8235294117647,4,1,0,100,0,0
73241,-58.8235294117647,4,2,0,5,0,0
73371,-58.8235294117647,4,1,0,100,0,0
73502,-58.8235294117647,4,2,0,5,0,0
73632,-58.8235294117647,4,1,0,100,0,0
73763,-58.8235294117647,4,2,0,5,0,0
73893,-58.8235294117647,4,1,0,100,0,0
74024,-58.8235294117647,4,2,0,5,0,0
74154,-76.9230769230769,4,1,0,100,0,0
86676,-76.9230769230769,4,1,0,100,0,1
92154,-58.8235294117647,4,1,0,100,0,1
92937,-76.9230769230769,4,1,0,100,0,1
100502,-58.8235294117647,4,1,0,100,0,1
101284,-76.9230769230769,4,1,0,100,0,1
103371,-76.9230769230769,4,1,0,100,0,0
106502,-50,4,1,0,100,0,0
106763,-66.6666666666667,4,1,0,100,0,0
107024,-100,4,1,0,100,0,0
107284,-200,4,1,0,100,0,0
107545,-100,4,1,0,100,0,0
107937,-117.647058823529,4,1,0,100,0,0
108328,-76.9230769230769,4,1,0,100,0,0

[Colours]
Combo1 : 232,175,0
Combo2 : 252,249,218
Combo3 : 253,147,1
Combo4 : 219,53,1

[HitObjects]
176,168,1111,6,0,P|164:120|176:76,1,59.5000011348725
176,44,1241,2,0,P|188:92|176:136,1,59.5000011348725
72,112,1371,6,0,P|120:100|164:112,1,59.5000011348725
240,120,1502,5,0,0:0:0:0:
338,63,1763,1,0,0:0:0:0:
448,104,2024,1,0,0:0:0:0:
432,176,2284,6,0,L|360:208,1,59.5000011348725
400,288,2545,1,0,0:0:0:0:
312,336,2676,1,0,0:0:0:0:
240,272,2806,1,0,0:0:0:0:
72,168,2937,5,0,0:0:0:0:
144,120,3067,1,0,0:0:0:0:
176,200,3197,6,0,P|208:216|256:216,1,59.5000011348725
336,224,3328,2,0,P|296:200|264:208,1,59.5000011348725
256,328,3458,5,0,0:0:0:0:
256,328,3589,1,0,0:0:0:0:
256,328,3850,1,0,0:0:0:0:
112,72,4110,6,0,B|40:104|40:104|72:152,1,119.000002269745
80,232,4371,5,0,0:0:0:0:
296,232,4502,2,0,B|256:256|256:256|168:256,1,119.000002269745
200,192,4763,2,0,B|272:192|272:192|300:235,1,119.000002269745
248,328,5024,6,0,B|216:344|216:344|104:328,1,119.000002269745
112,96,5284,6,0,L|192:128,1,70
232,144,5415,2,0,L|320:120,1,70
352,104,5545,1,0,0:0:0:0:
432,56,5676,5,0,0:0:0:0:
440,80,5937,1,0,0:0:0:0:
440,104,6197,1,0,0:0:0:0:
352,168,6458,6,0,L|264:176,1,70
392,272,6719,1,0,0:0:0:0:
216,280,6850,5,0,0:0:0:0:
208,128,6980,1,0,0:0:0:0:
80,192,7110,1,0,0:0:0:0:
168,208,7241,5,0,0:0:0:0:
24,224,7371,6,0,B|8:192|8:192|32:104,1,70
219,57,7502,2,0,B|252:66|252:66|272:96,1,70
272,320,7632,2,0,B|247:344|247:344|212:346,1,70
80,192,7763,5,0,0:0:0:0:
208,128,8024,1,0,0:0:0:0:
208,280,8284,1,0,0:0:0:0:
160,200,8545,5,0,0:0:0:0:
248,200,8806,5,0,0:0:0:0:
328,336,8937,1,0,0:0:0:0:
400,200,9067,1,0,0:0:0:0:
240,48,9197,6,0,L|273:36,1,35
227,250,9458,5,0,0:0:0:0:
293,157,9719,1,0,0:0:0:0:
156,255,9980,5,0,0:0:0:0:
366,160,10241,1,0,0:0:0:0:
90,235,10502,5,0,0:0:0:0:
425,204,10763,1,0,0:0:0:0:
15,192,11024,5,0,0:0:0:0:
496,191,11284,1,0,0:0:0:0:
96,296,11545,5,0,0:0:0:0:
128,264,11806,1,0,0:0:0:0:
132,220,12067,1,0,0:0:0:0:
104,184,12328,1,0,0:0:0:0:
416,88,12589,5,0,0:0:0:0:
384,120,12850,1,0,0:0:0:0:
380,164,13111,1,0,0:0:0:0:
408,200,13372,1,0,0:0:0:0:
64,128,13632,6,0,L|112:304,1,140
176,140,13893,5,0,0:0:0:0:
192,248,14024,1,0,0:0:0:0:
264,152,14154,5,0,0:0:0:0:
272,220,14284,1,0,0:0:0:0:
372,160,14415,5,0,0:0:0:0:
376,196,14545,1,0,0:0:0:0:
104,40,14676,5,0,0:0:0:0:
16,109,14806,1,0,0:0:0:0:
27,220,14937,1,0,0:0:0:0:
118,283,15067,1,0,0:0:0:0:
336,328,15197,5,0,0:0:0:0:
224,328,15328,1,0,0:0:0:0:
392,256,15458,5,0,0:3:0:0:
407,224,15524,1,0,0:3:0:0:
418,191,15589,1,0,0:3:0:0:
416,72,15719,6,0,B|344:96|344:96|304:16|280:8|280:8|232:8|144:32,1,280
176,272,16110,1,0,0:0:0:0:
56,144,16371,1,0,0:0:0:0:
232,88,16632,1,0,0:0:0:0:
180,300,16763,5,0,0:0:0:0:
384,272,16893,1,0,0:0:0:0:
384,272,16958,1,0,0:0:0:0:
384,272,17024,1,0,0:0:0:0:
384,272,17089,1,0,0:0:0:0:
384,272,17154,1,0,0:0:0:0:
180,300,17284,5,0,0:0:0:0:
72,168,17545,1,0,0:0:0:0:
376,56,17806,5,0,0:0:0:0:
360,72,17937,2,0,P|324:80|240:72,1,105.000004005432
96,152,18197,5,0,0:0:0:0:
112,168,18328,2,0,P|152:160|232:168,1,105.000004005432
440,216,18589,5,0,0:0:0:0:
424,232,18720,2,0,P|392:248|304:232,1,105.000004005432
72,304,18980,5,0,0:0:0:0:
88,320,19111,2,0,P|140:340|208:320,1,105.000004005432
448,224,19371,5,0,0:0:0:0:
208,220,19502,1,0,0:0:0:0:
360,120,19632,1,0,0:0:0:0:
120,116,19763,1,0,0:0:0:0:
80,264,19893,6,0,L|208:264,1,105.000004005432
352,296,20154,2,0,P|408:264|424:216,1,105.000004005432
392,56,20415,2,0,L|320:144,1,105.000004005432
120,56,20676,2,0,L|192:144,1,105.000004005432
256,288,20937,5,0,0:0:0:0:
256,32,21197,2,0,B|184:72|184:72|256:112,1,157.500006008148
256,160,21458,2,0,B|328:200|328:200|256:240,1,157.500006008148
204,288,21719,6,0,L|152:288,2,52.5000020027161
432,288,21980,6,0,L|272:288,1,140
80,216,22371,2,0,L|240:216,1,140
432,152,22763,6,0,L|272:152,1,140
80,80,23154,2,0,L|240:80,1,140
432,288,23545,6,0,L|432:120,1,140
80,80,23806,2,0,L|80:248,1,140
160,280,24067,6,0,L|127:189,1,70
332,74,24328,2,0,L|356:140,1,70
280,285,24589,5,0,0:0:0:0:
207,66,24719,2,0,L|141:89,1,70
352,144,24980,1,0,0:0:0:0:
251,177,25110,5,0,3:0:0:0:
231,162,25176,1,0,3:0:0:0:
212,147,25241,1,0,3:0:0:0:
194,133,25306,1,0,3:0:0:0:
175,119,25371,1,0,3:0:0:0:
157,103,25437,1,0,3:0:0:0:
141,90,25502,1,4,3:0:0:0:
208,344,25632,6,0,B|263:383|263:383|337:353,1,140
456,104,25893,2,0,B|423:42|423:42|344:35,1,140
16,32,26154,6,0,L|48:320,1,280
128,272,26545,6,0,L|144:32,1,210.000008010865
224,96,26937,6,0,L|240:256,1,140
320,192,27328,6,0,L|336:112,1,70
336,32,27719,6,0,B|400:32|400:32|480:80,1,140
176,352,27980,6,0,B|112:352|112:352|32:304,1,140
176,256,28241,6,0,L|104:256,1,70
176,128,28632,2,0,L|104:128,1,70
336,128,29024,2,0,L|408:128,1,70
336,256,29415,2,0,L|408:256,1,70
136,224,29806,6,0,L|120:280,1,56
56,240,30067,6,0,P|96:352|192:272,1,280
192,107,30328,6,0,L|88:83,2,105.000004005432
320,107,30719,2,0,L|424:83,2,105.000004005432
192,277,31111,6,0,L|88:301,2,105.000004005432
320,277,31502,2,0,L|424:301,2,105.000004005432
170,215,31893,5,0,0:0:0:0:
248,106,32023,1,0,0:0:0:0:
314,215,32153,1,0,0:0:0:0:
170,215,32284,5,0,0:0:0:0:
256,192,32415,12,0,34371,0:0:0:0:
104,232,34502,6,0,L|80:312,3,70
192,272,34763,2,0,L|184:352,3,70
326,341,35024,2,0,L|320:272,3,70
428,299,35284,2,0,L|408:232,3,70
445,158,35545,5,0,0:0:0:0:
422,164,35610,1,0,0:0:0:0:
399,168,35676,1,0,0:0:0:0:
376,171,35741,1,0,0:0:0:0:
353,170,35806,1,0,0:0:0:0:
330,166,35871,1,0,0:0:0:0:
308,158,35937,1,0,0:0:0:0:
287,147,36002,1,0,0:0:0:0:
267,135,36067,1,0,0:0:0:0:
247,123,36132,1,0,0:0:0:0:
226,112,36197,1,0,0:0:0:0:
205,103,36263,1,0,0:0:0:0:
183,97,36328,1,0,0:0:0:0:
160,93,36393,1,0,0:0:0:0:
136,93,36458,1,0,0:0:0:0:
113,96,36524,1,0,0:0:0:0:
96,96,36589,6,0,B|32:96|32:96|57:212|57:212|88:136,1,251.999992309571
152,304,37632,6,0,L|248:304,1,90.9999958343508
368,248,37893,2,0,L|288:200,1,90.9999958343508
56,64,38154,6,0,P|56:120|88:168,1,90.9999958343508
152,88,38415,2,0,P|204:113|262:107,1,90.9999958343508
152,248,38676,5,0,0:0:0:0:
152,248,38741,1,0,0:0:0:0:
152,248,38807,1,0,0:0:0:0:
168,344,38937,6,0,P|216:328|248:280,1,90.9999958343508
326,184,39197,6,0,B|382:121|382:121|389:72|389:72|347:65|347:65|340:114|340:114|347:128,1,210.000008010865
344,112,39589,1,0,0:0:0:0:
368,304,39719,6,0,L|248:256,1,90.9999958343508
80,136,39980,2,0,B|184:72|184:72|184:96,1,140
360,108,40241,5,0,0:0:0:0:
288,384,40371,1,0,0:0:0:0:
462,282,40502,1,0,0:0:0:0:
186,208,40632,1,0,0:0:0:0:
96,48,40763,6,0,P|128:72|152:144,1,105.000004005432
416,48,41024,2,0,P|384:72|360:144,1,105.000004005432
200,280,41284,6,0,P|200:312|184:344,1,56
324,332,41545,2,0,P|312:307|312:280,1,56
408,304,41806,5,0,0:0:0:0:
240,152,41937,1,0,0:0:0:0:
424,72,42067,1,0,0:0:0:0:
424,72,42197,1,0,0:0:0:0:
330,229,42328,5,0,0:0:0:0:
425,168,42458,1,0,0:0:0:0:
315,130,42589,1,0,0:0:0:0:
315,130,42719,1,0,0:0:0:0:
56,48,42850,5,0,0:0:0:0:
96,200,42980,1,0,0:0:0:0:
76,25,43110,1,0,0:0:0:0:
75,222,43240,1,0,0:0:0:0:
168,336,43371,6,0,L|232:336,1,52.5000020027161
392,336,43632,2,0,B|368:272|368:272|232:272,1,140
176,64,43893,6,0,B|72:64|72:64|16:152,1,140
80,224,44154,6,0,B|120:240|128:208|168:224,1,70
363,219,44284,1,0,0:0:0:0:
390,144,44415,6,0,B|352:160|344:128|323:139,1,70
188,139,44545,1,0,0:0:0:0:
336,344,44676,6,0,P|312:312|304:248,1,70
176,344,44806,2,0,P|200:312|208:248,1,70
112,184,44937,6,0,P|152:160|184:96,1,105
240,159,45197,6,0,P|208:43|104:104,1,280
64,344,45589,1,0,0:0:0:0:
64,104,45719,1,0,0:0:0:0:
256,232,45850,1,0,0:0:0:0:
328,64,45980,6,0,B|432:64|432:64|488:152,1,140
424,192,46241,2,0,B|392:136|392:136|272:136,1,140
296,208,46502,2,0,B|352:208|352:208|352:360,1,140
280,344,46763,2,0,B|256:336|256:280|256:280|256:336|208:368,1,140
160,320,47024,5,0,0:0:0:0:
80,256,47154,1,0,0:0:0:0:
80,152,47284,1,0,0:0:0:0:
160,72,47415,1,0,0:0:0:0:
136,42,47545,5,0,0:0:0:0:
36,142,47676,1,0,0:0:0:0:
36,271,47806,1,0,0:0:0:0:
136,351,47936,1,0,0:0:0:0:
320,216,48067,5,0,0:0:0:0:
312,40,48197,2,0,L|344:144,1,105
344,144,48458,2,0,L|216:144,4,70
200,152,48850,2,0,B|168:216|168:216|256:216,1,140
448,208,49110,5,0,0:0:0:0:
448,368,49241,1,0,0:0:0:0:
312,216,49371,1,0,0:0:0:0:
312,376,49502,1,0,0:0:0:0:
16,216,49763,5,0,0:0:0:0:
88,264,49893,1,0,0:0:0:0:
88,344,50024,1,0,0:0:0:0:
184,64,50154,6,0,B|80:64|80:64|24:152,1,140
88,192,50415,2,0,B|120:136|120:136|240:136,1,140
216,208,50676,2,0,B|160:208|160:208|160:360,1,140
235,342,50937,2,0,B|256:336|256:280|256:280|256:336|280:344,1,140
352,320,51197,5,0,0:0:0:0:
432,256,51327,1,0,0:0:0:0:
432,152,51457,1,0,0:0:0:0:
352,72,51588,1,0,0:0:0:0:
375,42,51718,5,0,0:0:0:0:
475,142,51849,1,0,0:0:0:0:
475,271,51979,1,0,0:0:0:0:
375,351,52109,1,0,0:0:0:0:
192,216,52241,5,0,0:0:0:0:
200,40,52371,2,0,L|168:144,1,105
168,144,52632,2,0,L|296:144,4,70
312,152,53024,2,0,B|344:216|344:216|256:216,1,140
144,304,53284,6,0,P|96:336|120:248,1,210
105,243,53545,2,0,P|81:190|189:202,1,210
187,183,53806,6,0,L|400:152,1,210
394,152,54067,2,0,B|432:120|432:72|408:32|368:8|264:48,1,210
152,16,54328,6,0,P|80:48|48:128,1,140
144,112,54589,1,0,0:0:0:0:
144,328,54719,1,0,0:0:0:0:
72,216,54850,5,0,0:0:0:0:
33,344,54980,1,0,0:0:0:0:
212,209,55110,1,0,0:0:0:0:
251,344,55241,1,0,0:0:0:0:
472,256,55371,6,0,L|376:248,1,70
312,240,55502,1,0,0:0:0:0:
368,136,55632,6,0,L|272:144,1,70
208,152,55763,1,0,0:0:0:0:
90,207,55893,5,0,0:0:0:0:
175,247,56024,1,0,0:0:0:0:
134,333,56154,1,0,0:0:0:0:
49,292,56284,1,0,0:0:0:0:
176,40,56415,6,0,B|232:80|232:80|312:80,1,140
408,136,56676,2,0,B|440:160|440:160|392:184,1,70
408,208,56806,2,0,B|376:232|376:232|424:256,1,70
392,296,56937,1,0,0:0:0:0:
374,325,57002,1,0,0:0:0:0:
343,341,57067,1,0,0:0:0:0:
200,368,57197,6,0,L|104:368,1,70
48,288,57328,2,0,L|128:288,1,70
144,224,57458,6,0,P|160:176|168:56,1,140
368,224,57719,2,0,P|347:157|341:87,1,140
256,24,57980,6,0,L|256:96,1,70
144,296,58110,2,0,L|208:232,1,70
392,160,58241,1,0,0:0:0:0:
120,160,58371,1,0,0:0:0:0:
368,296,58502,6,0,L|318:246,1,70
184,88,58632,1,0,0:0:0:0:
80,48,58763,5,0,0:0:0:0:
188,26,58893,1,8,0:0:0:0:
296,24,59024,2,4,B|376:24|376:24|432:48,1,140
384,120,59284,6,0,B|312:96|312:96|296:160,1,140
215,225,59545,2,0,B|200:288|200:288|128:264,1,140
8,184,59806,5,0,0:0:0:0:
80,320,59937,1,0,0:0:0:0:
192,208,60067,1,0,0:0:0:0:
285,333,60197,1,0,0:0:0:0:
464,184,60328,1,0,0:0:0:0:
427,332,60458,1,0,0:0:0:0:
464,184,60589,6,0,L|477:116,1,70,0|0,3:2|3:2,3:2:0:0:
429,36,60719,2,0,L|377:83,1,70,0|0,3:2|3:2,3:2:0:0:
320,144,60850,5,0,3:1:0:0:
307,114,60915,1,0,3:1:0:0:
289,88,60980,1,0,3:1:0:0:
265,67,61045,1,0,3:1:0:0:
237,51,61110,1,0,3:1:0:0:
207,42,61176,1,0,3:1:0:0:
176,39,61241,1,0,3:1:0:0:
144,43,61306,1,0,3:1:0:0:
114,54,61371,1,0,3:1:0:0:
87,71,61436,1,0,3:1:0:0:
65,93,61502,1,0,3:1:0:0:
47,120,61567,1,4,3:1:0:0:
48,144,61632,6,0,B|72:304|72:304|48:128|80:64|168:88|192:192|80:208|224:312,1,560
328,128,62284,2,0,B|328:104|352:88|392:88|416:112|416:144|328:264|328:264|456:248,1,350
48,56,62676,6,0,L|208:56,1,140
128,168,62937,1,0,0:0:0:0:
152,304,63197,1,0,0:0:0:0:
248,200,63458,1,0,0:0:0:0:
448,272,63719,6,0,B|402:315|402:315|368:240|368:240|320:288|248:288,1,272.999987503052
432,104,64763,6,0,L|312:112,1,90.9999958343508
384,192,65024,2,0,L|264:200,1,90.9999958343508
80,104,65284,6,0,L|200:112,1,90.9999958343508
128,192,65545,2,0,L|248:200,1,90.9999958343508
296,272,65806,5,0,0:0:0:0:
216,272,65937,1,0,0:0:0:0:
344,208,66067,1,0,0:0:0:0:
168,208,66197,1,0,0:0:0:0:
344,128,66328,1,0,0:0:0:0:
168,128,66458,1,0,0:0:0:0:
288,72,66589,1,0,0:0:0:0:
224,72,66719,1,0,0:0:0:0:
256,40,66850,5,0,0:0:0:0:
248,40,66915,1,0,0:0:0:0:
248,32,66980,1,0,0:0:0:0:
256,32,67045,1,0,0:0:0:0:
264,40,67110,1,0,0:0:0:0:
256,48,67176,5,0,0:0:0:0:
229,72,67241,1,0,0:0:0:0:
224,107,67306,1,0,0:0:0:0:
243,137,67371,1,0,0:0:0:0:
264,167,67436,1,0,0:0:0:0:
265,203,67502,1,0,0:0:0:0:
255,238,67567,1,0,0:0:0:0:
257,274,67632,1,0,0:0:0:0:
271,307,67697,1,0,0:0:0:0:
275,343,67762,1,0,0:0:0:0:
248,365,67828,1,0,0:0:0:0:
148,278,67893,6,0,L|92:275,1,45.4999979171754
126,254,68024,2,0,L|70:251,1,45.4999979171754
80,132,68154,6,0,L|126:130,1,45.4999979171754
102,108,68285,2,0,L|148:106,1,45.4999979171754
320,144,68415,5,0,0:0:0:0:
362,159,68480,1,0,0:0:0:0:
405,175,68545,1,0,0:0:0:0:
447,191,68610,1,0,0:0:0:0:
406,210,68675,1,0,0:0:0:0:
364,228,68741,1,0,0:0:0:0:
323,246,68806,1,0,0:0:0:0:
216,192,68937,6,0,L|64:192,1,140
48,96,69980,6,0,L|144:96,1,90.9999958343508
76,136,70241,2,0,L|172:136,1,90.9999958343508
120,240,70502,5,0,0:0:0:0:
208,352,70632,1,0,0:0:0:0:
288,240,70763,1,0,0:0:0:0:
211,208,70893,5,0,0:0:0:0:
315,144,71023,1,0,0:0:0:0:
423,203,71154,1,0,0:0:0:0:
451,88,71284,5,0,0:0:0:0:
347,32,71415,1,0,0:0:0:0:
244,87,71545,1,0,0:0:0:0:
120,88,71676,6,0,B|2:88|2:88|66:152,1,181.999991668702
40,240,72067,5,0,0:0:0:0:
57,352,72197,1,0,0:0:0:0:
152,288,72328,2,0,L|264:272,1,90.9999958343508
424,352,72589,2,0,L|320:320,1,90.9999958343508
448,256,72850,1,0,0:0:0:0:
336,224,72980,1,0,0:0:0:0:
208,192,73110,6,0,B|184:280|184:280|144:192,1,178.500003404617
147,200,73371,2,0,B|59:176|59:176|147:136,1,178.500003404617
138,139,73632,2,0,B|162:51|162:51|202:139,1,178.500003404617
198,130,73893,2,0,B|286:154|286:154|198:194,1,178.500003404617
464,96,74154,6,0,L|368:96,1,90.9999958343508
436,136,74415,2,0,L|340:136,1,90.9999958343508
392,240,74676,5,0,0:0:0:0:
304,352,74806,1,0,0:0:0:0:
224,240,74937,1,0,0:0:0:0:
301,208,75067,5,0,0:0:0:0:
197,144,75197,1,0,0:0:0:0:
89,203,75328,1,0,0:0:0:0:
61,88,75458,5,0,0:0:0:0:
165,32,75589,1,0,0:0:0:0:
268,87,75719,1,0,0:0:0:0:
392,88,75850,6,0,B|510:88|510:88|446:152,1,181.999991668702
472,240,76241,5,0,0:0:0:0:
455,352,76371,1,0,0:0:0:0:
360,288,76502,2,0,L|248:272,1,90.9999958343508
88,352,76763,2,0,L|192:320,1,90.9999958343508
64,256,77024,1,0,0:0:0:0:
176,224,77154,1,0,0:0:0:0:
128,64,77284,6,0,P|128:96|168:144,1,90.9999958343508
208,80,77545,2,0,L|312:80,1,90.9999958343508
376,64,77806,2,0,P|376:96|336:144,1,90.9999958343508
256,160,78067,1,0,0:0:0:0:
256,224,78197,1,0,0:0:0:0:
344,336,78328,6,0,B|312:336|312:336|288:272,1,90.9999958343508
368,264,78589,2,0,B|400:264|400:264|424:200,1,90.9999958343508
288,192,78850,1,0,0:0:0:0:
168,336,79371,6,0,B|200:336|200:336|224:272,1,90.9999958343508
144,264,79632,2,0,B|112:264|112:264|88:200,1,90.9999958343508
224,192,79893,1,0,0:0:0:0:
160,56,80415,6,0,P|112:56|64:88,2,90.9999958343508
208,128,80806,2,0,P|192:184|128:192,1,90.9999958343508
128,128,81067,1,0,0:0:0:0:
288,128,81197,2,0,L|392:128,1,90.9999958343508
472,168,81458,6,0,B|472:216|472:216|400:216,1,90.9999958343508
272,336,81719,2,0,B|230:359|230:359|194:297,1,90.9999958343508
160,96,81980,2,0,B|160:48|160:48|232:48,2,90.9999958343508
432,128,82502,6,0,L|336:128,1,90.9999958343508
192,192,82763,2,0,L|288:192,1,90.9999958343508
424,215,83024,5,0,0:0:0:0:
372,62,83154,1,0,0:0:0:0:
226,126,83284,1,0,0:0:0:0:
88,44,83415,1,0,0:0:0:0:
72,184,83545,5,0,0:0:0:0:
192,224,83676,1,0,0:0:0:0:
320,264,83806,1,0,0:0:0:0:
320,264,83937,1,0,0:0:0:0:
0,264,84067,5,0,0:0:0:0:
120,304,84198,1,0,0:0:0:0:
248,344,84328,1,0,0:0:0:0:
248,344,84459,1,0,0:0:0:0:
256,304,84589,5,0,3:0:0:0:
281,285,84654,1,0,3:0:0:0:
312,285,84719,1,0,3:0:0:0:
339,300,84784,1,0,3:0:0:0:
368,311,84849,1,0,3:0:0:0:
400,312,84915,1,0,3:0:0:0:
431,309,84980,1,0,3:0:0:0:
462,302,85045,1,0,3:0:0:0:
486,281,85110,1,0,3:0:0:0:
505,255,85175,1,0,3:0:0:0:
505,222,85241,1,0,3:0:0:0:
496,191,85306,1,0,3:0:0:0:
479,163,85371,1,0,3:0:0:0:
453,143,85436,1,0,3:0:0:0:
422,133,85502,1,0,3:0:0:0:
390,127,85567,1,0,3:0:0:0:
358,128,85632,1,12,3:0:0:0:
395,280,86676,6,0,L|304:280,1,90.9999958343508
224,352,86937,1,0,0:0:0:0:
128,248,87067,1,0,0:0:0:0:
288,109,87197,2,0,L|288:200,1,90.9999958343508
201,117,87458,5,0,0:0:0:0:
368,176,87589,1,0,0:0:0:0:
424,40,87719,5,0,0:0:0:0:
304,88,87850,1,0,0:0:0:0:
192,24,87980,2,0,L|120:24,2,45.4999979171754
72,72,88241,5,0,0:0:0:0:
160,144,88371,1,0,0:0:0:0:
72,200,88502,1,0,0:0:0:0:
160,272,88632,1,0,0:0:0:0:
296,368,88763,6,0,L|392:360,1,90.9999958343508
464,224,89024,1,0,0:0:0:0:
208,248,89154,2,0,B|176:272|160:328|160:328|168:272|144:232,1,181.999991668702
280,184,89545,5,0,0:0:0:0:
40,320,89676,1,0,0:0:0:0:
80,48,89806,5,0,0:0:0:0:
40,192,89937,1,8,0:0:0:0:
192,168,90067,1,4,0:0:0:0:
136,112,90197,5,0,0:0:0:0:
96,256,90328,1,8,0:0:0:0:
248,232,90458,1,4,0:0:0:0:
152,312,90589,5,0,0:0:0:0:
304,288,90719,1,8,0:0:0:0:
440,56,90850,6,0,L|352:80,1,90.9999958343508
240,96,91110,1,0,0:0:0:0:
32,56,91241,2,0,B|88:56|88:56|112:104,1,90.9999958343508
96,208,91502,1,0,0:0:0:0:
224,208,91632,2,0,L|336:208,1,90.9999958343508
456,224,91893,6,0,L|400:304,1,90.9999958343508
312,360,92154,6,0,P|296:320|328:264,1,59.5000011348725
320,232,92284,2,0,P|336:272|304:328,1,59.5000011348725
360,336,92415,5,0,0:0:0:0:
248,280,92545,1,0,0:0:0:0:
144,288,92676,1,0,0:0:0:0:
64,216,92806,1,0,0:0:0:0:
336,200,92937,5,0,0:0:0:0:
176,160,93067,1,0,0:0:0:0:
248,216,93197,6,0,L|256:120,1,90.9999958343508
456,96,93458,2,0,L|400:88,2,45.4999979171754
304,56,93719,1,0,0:0:0:0:
214,42,93849,1,0,0:0:0:0:
168,280,93980,5,0,0:0:0:0:
256,360,94110,1,0,0:0:0:0:
352,280,94241,1,0,0:0:0:0:
112,192,94371,5,0,0:0:0:0:
255,279,94501,1,0,0:0:0:0:
399,192,94632,1,0,0:0:0:0:
208,104,94763,5,0,0:0:0:0:
304,104,94893,1,0,0:0:0:0:
117,104,95024,6,0,L|208:104,1,90.9999958343508
288,32,95285,1,0,0:0:0:0:
384,136,95415,1,0,0:0:0:0:
224,275,95545,2,0,L|224:184,1,90.9999958343508
311,267,95806,5,0,0:0:0:0:
144,208,95937,1,0,0:0:0:0:
88,344,96067,5,0,0:0:0:0:
208,296,96198,1,0,0:0:0:0:
320,360,96328,2,0,L|392:360,2,45.4999979171754
440,312,96589,5,0,0:0:0:0:
352,240,96719,1,0,0:0:0:0:
440,184,96850,1,0,0:0:0:0:
352,112,96980,1,0,0:0:0:0:
216,16,97111,6,0,L|120:24,1,90.9999958343508
48,160,97372,1,0,0:0:0:0:
304,136,97502,2,0,B|336:112|352:56|352:56|344:112|368:152,1,181.999991668702
232,200,97893,5,0,0:0:0:0:
472,64,98024,1,0,0:0:0:0:
432,336,98154,5,0,0:0:0:0:
472,192,98285,1,8,0:0:0:0:
320,216,98415,1,4,0:0:0:0:
376,272,98545,5,0,0:0:0:0:
416,128,98676,5,8,0:0:0:0:
264,152,98806,1,4,0:0:0:0:
360,72,98937,5,0,0:0:0:0:
208,96,99067,1,8,0:0:0:0:
72,328,99198,6,0,L|160:304,1,90.9999958343508
272,288,99458,1,0,0:0:0:0:
480,328,99589,2,0,B|424:328|424:328|400:280,1,90.9999958343508
416,176,99850,1,0,0:0:0:0:
288,176,99980,2,0,L|176:176,1,90.9999958343508
56,160,100241,6,0,L|112:80,1,90.9999958343508
200,24,100502,6,0,P|216:64|184:120,1,59.5000011348725
192,152,100632,2,0,P|176:112|208:56,1,59.5000011348725
152,48,100763,5,0,0:0:0:0:
264,104,100893,1,0,0:0:0:0:
368,96,101024,1,0,0:0:0:0:
448,168,101154,1,0,0:0:0:0:
176,184,101285,5,0,0:0:0:0:
336,224,101415,1,0,0:0:0:0:
264,168,101545,6,0,L|256:264,1,90.9999958343508
56,288,101806,2,0,L|112:296,2,45.4999979171754
208,328,102067,1,0,0:0:0:0:
298,342,102197,1,0,0:0:0:0:
344,104,102328,5,0,0:0:0:0:
256,24,102458,1,0,0:0:0:0:
160,104,102589,1,0,0:0:0:0:
400,192,102719,5,0,0:0:0:0:
257,105,102849,1,0,0:0:0:0:
113,192,102980,5,0,0:0:0:0:
304,280,103111,5,0,0:0:0:0:
208,280,103241,1,0,0:0:0:0:
0,88,103371,5,0,0:0:0:0:
88,160,103502,1,0,0:0:0:0:
176,80,103632,1,0,0:0:0:0:
256,168,103763,1,0,0:0:0:0:
360,72,103893,1,0,0:0:0:0:
408,192,104024,1,0,0:0:0:0:
477,34,104154,5,0,0:0:0:0:
289,229,104285,1,0,0:0:0:0:
419,77,104415,6,0,B|424:40|424:40|496:32,1,90.9999958343508
348,186,104676,2,0,B|343:223|343:223|290:229,1,90.9999958343508
48,272,104937,2,0,L|93:278,2,45.4999979171754
424,328,105197,2,0,L|333:322,1,90.9999958343508
192,328,105458,5,0,0:0:0:0:
191,204,105588,1,0,0:0:0:0:
170,83,105718,1,0,0:0:0:0:
77,27,105849,1,0,0:0:0:0:
50,134,105979,1,0,0:0:0:0:
163,161,106110,1,0,0:0:0:0:
284,134,106240,1,0,0:0:0:0:
402,99,106371,1,0,0:0:0:0:
424,304,106502,6,0,L|400:112,1,140
312,200,106763,6,0,L|296:344,1,105.000004005432
208,296,107024,6,0,L|192:200,1,70
104,248,107284,6,0,L|96:296,1,35
72,96,107545,6,0,L|232:88,1,140
368,168,107937,6,0,L|240:184,1,119.000002269745
160,200,108328,6,0,B|112:168|64:200|56:232|56:272|104:312|104:312|128:240,1,272.999987503052
