osu file format v14

[General]
AudioFilename: basic.mp3
AudioLeadIn: 0
PreviewTime: 45394
Countdown: 0
SampleSet: Soft
StackLeniency: 0.3
Mode: 0
LetterboxInBreaks: 0
WidescreenStoryboard: 1

[Editor]
Bookmarks: 17807,19894,21981,24068,26155,37633,69981
DistanceSpacing: 1.6
BeatDivisor: 4
GridSize: 4
TimelineZoom: 2.799999

[Metadata]
Title:Invitation from Mr.C
TitleUnicode:Invitation from Mr.C
Artist:C-Show
ArtistUnicode:C-Show
Creator:Ovoui
Version:ADVANCED
Source:SOUND VOLTEX III GRAVITY WARS
Tags:The 4th KAC Original Song Contest sdvx MAD†HOLIC Konami Arcade Championship Senzzen
BeatmapID:1284347
BeatmapSetID:480686

[Difficulty]
HPDrainRate:4
CircleSize:3.5
OverallDifficulty:5
ApproachRate:8
SliderMultiplier:1
SliderTickRate:1

[Events]
//Background and Video events
0,0,"cs.png",0,0
//Break Periods
//Storyboard Layer 0 (Background)
//Storyboard Layer 1 (Fail)
//Storyboard Layer 2 (Pass)
//Storyboard Layer 3 (Foreground)
//Storyboard Sound Samples

[TimingPoints]
1112,260.869565217391,4,2,1,79,1,0
45981,-90.9090909090909,4,2,1,100,0,1
61372,-100,4,2,1,79,0,0
86677,-90.9090909090909,4,2,1,79,0,1
103372,-100,4,2,1,79,0,0

[HitObjects]
144,244,1112,6,0,P|192:247|248:244,1,100
288,180,1503,1,0,0:0:0:0:
160,84,1764,1,0,0:0:0:0:
144,244,2025,1,0,0:0:0:0:
288,180,2285,1,0,0:0:0:0:
160,84,2546,5,0,0:0:0:0:
160,84,2677,2,0,L|100:76,1,50
84,152,2938,2,0,L|144:160,1,50
196,208,3198,6,0,P|208:240|208:316,1,100
148,356,3590,1,0,0:0:0:0:
40,236,3851,1,0,0:0:0:0:
196,208,4111,1,0,0:0:0:0:
256,60,4372,1,0,0:0:0:0:
316,208,4633,2,0,P|356:232|440:168,1,150
284,140,5285,6,0,P|236:144|176:164,1,100
156,232,5677,1,0,0:0:0:0:
304,292,5938,1,0,0:0:0:0:
284,140,6198,1,0,0:0:0:0:
156,232,6459,1,0,0:0:0:0:
304,292,6720,5,0,0:0:0:0:
304,292,6851,2,0,L|364:284,1,50
336,364,7112,2,0,L|286:370,1,50
208,372,7372,6,0,P|152:376|108:364,1,100
60,300,7764,1,0,0:0:0:0:
192,212,8025,1,0,0:0:0:0:
208,372,8285,1,0,0:0:0:0:
60,300,8546,1,0,0:0:0:0:
192,212,8807,5,0,0:0:0:0:
192,212,8938,2,0,P|248:208|296:216,1,100
424,308,9459,6,0,L|444:208,1,100
344,84,9981,2,0,L|364:184,1,100
271,312,10503,2,0,L|291:212,1,100
191,88,11025,2,0,L|211:188,1,100
120,320,11546,6,0,P|88:288|84:216,1,100
208,140,12068,2,0,L|316:140,1,100
433,235,12590,2,0,P|425:284|392:320,2,100
308,140,13372,1,0,0:0:0:0:
308,140,13633,6,0,L|272:96,1,50
236,168,13894,2,0,L|204:206,1,50
168,136,14155,2,0,L|132:92,1,50
96,164,14416,2,0,L|64:202,1,50
104,272,14677,6,0,L|140:228,1,50
176,300,14938,2,0,L|207:338,1,50
244,268,15199,2,0,L|280:224,1,50
316,296,15460,2,0,L|347:334,1,50
416,292,15720,6,0,P|432:244|420:176,1,100
396,124,16111,1,0,0:0:0:0:
275,229,16372,1,0,0:0:0:0:
416,292,16633,1,0,0:0:0:0:
416,292,16764,5,0,0:0:0:0:
416,292,17807,6,0,L|468:292,1,50
356,176,18198,2,0,L|328:236,1,50
174,221,18590,2,0,L|152:175,1,50
46,292,18981,2,0,L|96:292,1,50
256,312,19372,2,0,L|256:248,1,50
256,180,19633,2,0,L|256:116,1,50
256,48,19894,6,0,P|288:36|368:40,1,100
420,84,20285,1,0,0:0:0:0:
400,160,20416,2,0,P|392:196|408:264,1,100
460,316,20807,1,0,0:0:0:0:
380,328,20938,2,0,B|324:324|324:324|272:288,1,100
256,224,21329,1,0,0:0:0:0:
256,224,21720,2,0,L|256:160,1,50
200,116,21981,6,0,L|136:84,1,50
312,116,22372,2,0,L|356:93,1,50
336,252,22764,2,0,L|336:302,1,50
175,302,23155,2,0,L|175:252,1,50
256,112,23546,2,0,L|256:168,1,50
256,244,23807,2,0,L|256:304,1,50
256,376,24068,5,0,0:0:0:0:
175,237,24329,1,0,0:0:0:0:
335,237,24590,1,0,0:0:0:0:
256,96,24851,1,0,0:0:0:0:
175,237,25111,2,0,P|128:240|68:208,1,100
229,158,25633,1,0,0:0:0:0:
229,158,25894,2,0,L|293:158,1,50
340,208,26155,6,0,P|340:232|333:256,1,50
172,256,26546,2,0,P|164:232|165:207,1,50
256,72,26938,2,0,L|256:136,1,50
324,268,27329,2,0,P|328:300|352:340,1,50
174,316,27720,2,0,P|182:292|184:267,1,50
232,202,27981,2,0,L|288:202,1,50
364,196,28242,6,0,L|416:168,1,50
327,34,28633,2,0,L|339:90,1,50
176,82,29025,2,0,L|186:33,1,50
103,172,29416,2,0,L|148:196,1,50
232,332,29807,2,0,P|260:336|284:332,1,50
256,256,30068,2,0,L|256:200,1,50
256,124,30329,6,0,P|264:84|320:56,1,100
392,68,30720,2,0,L|420:188,1,100
436,244,31111,2,0,L|420:348,1,100
348,380,31503,2,0,P|320:384|240:376,1,100
172,352,31894,2,0,L|120:312,1,50
180,256,32155,2,0,L|172:188,1,50
108,160,32416,6,0,P|140:132|208:132,1,100
316,232,32938,2,0,L|324:336,1,100
452,236,33459,2,0,L|444:136,1,100
316,232,33981,2,0,P|264:240|204:228,1,100
64,192,34503,6,0,L|52:152,3,25
80,136,34764,2,0,L|64:96,3,25
104,88,35025,2,0,L|92:48,3,25
120,32,35286,2,0,L|104:-8,3,25
176,32,35546,6,0,L|185:8,3,25
192,88,35807,2,0,L|199:64,3,25
216,136,36068,2,0,L|225:112,3,25
232,192,36329,2,0,L|239:168,3,25
248,248,36590,6,0,P|368:320|416:200,1,300
332,72,37633,6,0,L|224:72,1,100
152,92,38025,1,0,0:0:0:0:
204,152,38155,2,0,P|216:188|200:260,1,100
108,376,38677,2,0,L|92:264,1,100
84,196,39068,1,0,0:0:0:0:
108,120,39198,2,0,P|132:80|188:52,1,100
308,152,39720,6,0,L|322:250,1,100
376,312,40111,1,0,0:0:0:0:
400,236,40242,2,0,L|385:137,1,100
252,48,40764,2,0,P|208:88|192:144,1,100
204,204,41155,1,0,0:0:0:0:
216,284,41285,2,0,P|196:329|157:360,1,100
64,228,41807,6,0,L|52:128,1,100
80,52,42198,1,0,0:0:0:0:
144,104,42329,2,0,P|180:112|260:96,1,100
376,16,42851,2,0,L|376:116,1,100
336,184,43242,1,0,0:0:0:0:
416,184,43372,2,0,P|448:148|452:96,1,100
300,44,43894,6,0,L|196:44,1,100
132,84,44285,1,0,0:0:0:0:
196,132,44416,2,0,P|212:180|196:244,1,100
84,332,44938,1,0,0:0:0:0:
52,176,45198,1,0,0:0:0:0:
204,227,45459,2,0,P|260:236|312:224,1,100
460,148,45981,6,0,L|407:130,1,55.0000016784668
324,104,46242,1,0,0:0:0:0:
240,128,46372,2,0,L|187:145,1,55.0000016784668
104,172,46633,2,0,L|51:154,2,55.0000016784668
168,236,47025,6,0,P|184:285|148:352,1,110.000003356934
96,280,47416,1,0,0:0:0:0:
45,209,47546,2,0,L|53:137,1,55.0000016784668
104,84,47807,1,0,0:0:0:0:
236,200,48068,6,0,L|296:200,1,55.0000016784668
380,192,48329,2,0,P|404:140|376:80,1,110.000003356934
308,60,48720,1,0,0:0:0:0:
220,76,48851,2,0,L|152:64,1,55.0000016784668
116,140,49111,6,0,L|170:149,1,55.0000016784668
112,216,49372,2,0,L|44:204,1,55.0000016784668
188,328,49764,2,0,L|242:337,2,55.0000016784668
240,256,50155,6,0,L|294:265,1,55.0000016784668
380,280,50416,1,0,0:0:0:0:
428,208,50546,2,0,L|464:152,1,55.0000016784668
468,76,50807,2,0,L|468:16,2,55.0000016784668
388,108,51199,6,0,P|324:116|256:100,1,110.000003356934
200,68,51590,1,0,0:0:0:0:
208,156,51720,2,0,L|200:228,1,55.0000016784668
160,288,51981,1,0,0:0:0:0:
84,128,52242,6,0,L|72:60,1,55.0000016784668
152,28,52503,2,0,P|204:40|268:24,1,110.000003356934
334,74,52894,1,0,0:0:0:0:
420,52,53025,2,0,L|410:106,1,55.0000016784668
337,154,53285,6,0,L|327:208,1,55.0000016784668
244,237,53546,2,0,L|234:291,1,55.0000016784668
60,316,53938,2,0,L|50:370,2,55.0000016784668
72,228,54329,6,0,P|72:192|60:156,1,55.0000016784668
8,108,54590,1,0,0:0:0:0:
96,92,54720,2,0,L|168:92,1,55.0000016784668
232,56,54981,2,0,L|232:-4,2,55.0000016784668
220,144,55372,6,0,P|228:200|292:236,1,110.000003356934
352,256,55764,1,0,0:0:0:0:
436,232,55894,2,0,L|452:168,1,55.0000016784668
400,104,56155,1,0,0:0:0:0:
252,4,56416,6,0,L|238:57,1,55.0000016784668
220,144,56677,2,0,P|168:160|88:152,1,110.000003356934
28,140,57068,1,0,0:0:0:0:
52,224,57198,2,0,L|56:288,1,55.0000016784668
136,312,57459,6,0,L|132:257,1,55.0000016784668
216,284,57720,2,0,L|220:348,1,55.0000016784668
296,296,57981,2,0,B|348:280|348:280|404:296,1,110.000003356934
500,148,58503,6,0,L|443:133,1,55.0000016784668
396,64,58764,1,0,0:0:0:0:
360,144,58894,2,0,L|368:208,1,55.0000016784668
284,172,59155,2,0,L|276:100,2,55.0000016784668
200,140,59546,6,0,B|148:128|148:128|80:152,1,110.000003356934
60,224,59938,1,0,0:0:0:0:
148,228,60068,2,0,L|216:244,1,55.0000016784668
272,292,60329,1,0,0:0:0:0:
396,168,60590,6,0,L|396:92,2,55.0000016784668
208,356,61242,1,0,0:0:0:0:
208,356,61372,2,0,L|208:292,1,50
208,224,61633,6,0,P|196:176|140:264,1,250
372,308,62677,6,0,B|388:260|388:260|372:200,1,100
316,64,63198,1,0,0:0:0:0:
216,188,63459,1,0,0:0:0:0:
375,212,63720,1,0,0:0:0:0:
256,192,64764,12,0,68938,0:0:0:0:
136,196,69981,6,0,L|128:132,1,50
208,136,70242,2,0,L|216:192,1,50
276,236,70503,2,0,P|323:246|384:220,1,100
400,156,70894,1,0,0:0:0:0:
460,208,71025,6,0,L|472:276,1,50
492,332,71285,1,0,0:0:0:0:
412,316,71416,2,0,L|348:340,1,50
204,328,71807,1,0,0:0:0:0:
280,188,72068,6,0,P|288:136|272:76,1,100
216,40,72459,1,0,0:0:0:0:
152,88,72590,2,0,L|36:64,1,100
4,132,72981,1,0,0:0:0:0:
36,204,73111,6,0,L|56:260,1,50
132,248,73372,2,0,L|152:304,1,50
208,348,73633,2,0,P|256:360|312:344,1,100
372,308,74025,1,0,0:0:0:0:
424,248,74155,6,0,L|416:188,1,50
340,184,74416,2,0,L|346:233,1,50
272,264,74677,2,0,B|224:276|224:276|160:260,1,100
96,244,75068,1,0,0:0:0:0:
20,228,75198,6,0,L|0:172,1,50
80,160,75459,1,0,0:0:0:0:
156,144,75589,2,0,L|176:88,1,50
312,16,75981,1,0,0:0:0:0:
436,116,76242,6,0,L|452:232,1,100
436,296,76633,1,0,0:0:0:0:
376,244,76764,2,0,P|332:236|268:252,1,100
212,296,77155,1,0,0:0:0:0:
136,272,77285,6,0,L|100:216,1,50
168,176,77546,2,0,L|132:120,1,50
88,72,77807,2,0,P|132:52|192:76,1,100
244,116,78198,1,0,0:0:0:0:
316,152,78329,6,0,L|376:136,1,50
404,208,78590,2,0,L|355:220,1,50
408,284,78851,1,0,0:0:0:0:
252,320,79111,1,0,0:0:0:0:
196,168,79372,6,0,L|176:104,1,50
104,140,79633,2,0,L|118:187,1,50
100,268,79894,2,0,L|114:315,2,50
256,300,80416,6,0,L|312:304,1,50
316,224,80677,2,0,L|266:220,1,50
196,180,80938,2,0,L|152:136,2,50
340,108,81459,6,0,L|404:108,1,50
392,28,81720,2,0,L|336:28,1,50
272,68,81981,2,0,P|204:72|184:60,1,75
164,48,82242,2,0,P|124:36|88:44,1,75
68,72,82503,6,0,P|44:144|56:184,1,100
136,300,83025,2,0,L|252:300,1,100
376,224,83546,2,0,L|264:224,1,100
416,144,84068,2,0,P|464:188|464:240,1,100
344,120,84590,6,0,L|324:88,3,25
292,104,84851,2,0,L|272:72,3,25
240,88,85111,2,0,L|220:56,3,25
188,72,85372,2,0,L|168:40,3,25
136,56,85633,6,0,L|76:56,1,50
64,132,85894,2,0,L|128:132,1,50
176,184,86155,1,0,0:0:0:0:
336,184,86416,1,0,0:0:0:0:
256,340,86677,6,0,L|180:344,1,55.0000016784668
116,316,86938,1,0,0:0:0:0:
80,236,87068,2,0,L|76:172,1,55.0000016784668
128,108,87329,2,0,L|124:53,2,55.0000016784668
196,164,87720,6,0,P|256:172|324:152,1,110.000003356934
376,112,88111,1,0,0:0:0:0:
440,172,88242,2,0,L|504:180,1,55.0000016784668
440,248,88503,2,0,L|376:256,1,55.0000016784668
320,316,88764,6,0,L|244:324,1,55.0000016784668
176,336,89025,2,0,P|112:316|84:268,1,110.000003356934
60,108,89546,2,0,L|48:36,1,55.0000016784668
140,56,89807,6,0,L|149:110,1,55.0000016784668
228,148,90068,2,0,L|292:148,1,55.0000016784668
362,110,90329,2,0,L|372:56,1,55.0000016784668
461,53,90590,2,0,L|452:108,1,55.0000016784668
408,184,90851,6,0,P|408:224|420:248,1,55.0000016784668
468,304,91111,1,0,0:0:0:0:
384,328,91242,2,0,P|348:332|312:324,1,55.0000016784668
248,296,91503,2,0,L|168:296,2,55.0000016784668
204,220,91894,6,0,L|72:220,1,110.000003356934
28,160,92285,1,0,0:0:0:0:
112,132,92416,2,0,L|176:120,1,55.0000016784668
254,121,92677,2,0,L|308:131,1,55.0000016784668
388,164,92938,6,0,P|396:128|384:96,1,55.0000016784668
328,52,93198,2,0,B|255:37|255:37|207:54,1,110.000003356934
140,208,93720,2,0,L|132:280,1,55.0000016784668
124,352,93981,6,0,L|196:328,1,55.0000016784668
256,296,94242,2,0,L|212:264,1,55.0000016784668
140,208,94503,2,0,L|212:184,1,55.0000016784668
272,152,94764,2,0,L|264:224,1,55.0000016784668
256,296,95025,6,0,P|292:296|316:284,1,55.0000016784668
360,216,95285,1,0,0:0:0:0:
404,292,95416,2,0,L|396:346,1,55.0000016784668
480,316,95677,2,0,L|488:256,2,55.0000016784668
396,346,96068,6,0,B|348:372|348:372|272:372,1,110.000003356934
216,324,96459,1,0,0:0:0:0:
178,243,96590,2,0,L|124:240,1,55.0000016784668
77,316,96851,2,0,L|132:320,1,55.0000016784668
216,324,97111,6,0,L|280:280,1,55.0000016784668
328,236,97372,2,0,B|368:196|368:196|368:128,1,110.000003356934
218,40,97894,2,0,L|154:32,1,55.0000016784668
104,102,98155,2,0,L|158:108,1,55.0000016784668
228,166,98416,2,0,L|296:166,1,55.0000016784668
350,108,98677,2,0,L|404:101,1,55.0000016784668
349,33,98938,2,0,L|294:39,1,55.0000016784668
208,28,99198,6,0,L|152:28,1,55.0000016784668
64,20,99459,1,0,0:0:0:0:
100,100,99590,2,0,P|108:128|100:168,1,55.0000016784668
72,236,99851,2,0,P|64:264|68:292,2,55.0000016784668
160,232,100242,2,0,P|216:244|264:296,1,110.000003356934
304,356,100633,1,0,0:0:0:0:
340,276,100764,2,0,L|348:212,1,55.0000016784668
416,168,101025,2,0,L|408:104,1,55.0000016784668
332,68,101285,2,0,L|340:4,1,55.0000016784668
256,40,101546,2,0,P|256:92|308:144,1,110.000003356934
404,272,102068,2,0,P|368:308|348:312,1,55.0000016784668
292,356,102329,2,0,L|284:296,1,55.0000016784668
280,212,102590,2,0,B|308:208|308:208|340:220,1,55.0000016784668
404,272,102851,2,0,P|436:276|464:268,1,55.0000016784668
500,192,103111,2,0,L|500:128,1,55.0000016784668
456,68,103372,6,0,P|404:56|352:72,1,100
300,120,103764,1,0,0:0:0:0:
240,172,103894,2,0,P|191:183|143:171,1,100
68,28,104416,6,0,L|72:144,1,100
68,208,104807,1,0,0:0:0:0:
132,256,104938,2,0,L|200:260,1,50
252,296,105198,1,0,0:0:0:0:
400,236,105459,6,0,L|416:168,1,50
344,144,105720,2,0,L|332:192,1,50
264,148,105981,2,0,L|280:80,2,50
212,208,106372,1,0,0:0:0:0:
136,236,106503,6,0,P|104:240|72:236,1,50
28,184,106764,2,0,P|24:156|32:124,1,50
76,72,107025,2,0,B|112:60|112:60|164:72,1,75
188,76,107285,2,0,L|260:76,1,50
312,108,107546,5,0,0:0:0:0:
252,340,107938,5,0,0:0:0:0:
88,164,108329,5,0,0:0:0:0:
