osu file format v14

[General]
AudioFilename: audio.mp3
AudioLeadIn: 0
PreviewTime: 45463
Countdown: 1
SampleSet: Normal
StackLeniency: 0.7
Mode: 1
LetterboxInBreaks: 0
WidescreenStoryboard: 1

[Editor]
DistanceSpacing: 0.8
BeatDivisor: 4
GridSize: 32
TimelineZoom: 2.7

[Metadata]
Title:Invitation from Mr.C
TitleUnicode:Invitation from Mr.C
Artist:C-Show
ArtistUnicode:C-Show
Creator:Endymion
Version:Muzukashii
Source:SOUND VOLTEX III GRAVITY WARS
Tags:_DUSK_ Taikocracy incandescence Poii eiri- Ayyri beatmania IIDX 22 PENDUAL MÚSECA 1+1/2 MUSECA The 4th KAC Original Song Contest SDVX MAD†HOLIC Konami Arcade Championship
BeatmapID:1591110
BeatmapSetID:749426

[Difficulty]
HPDrainRate:5
CircleSize:2
OverallDifficulty:5
ApproachRate:10
SliderMultiplier:1.39999984645843
SliderTickRate:4

[Events]
//Background and Video events
0,0,"mrc.jpg",0,0
//Break Periods
//Storyboard Layer 0 (Background)
//Storyboard Layer 1 (Fail)
//Storyboard Layer 2 (Pass)
//Storyboard Layer 3 (Foreground)
//Storyboard Sound Samples

[TimingPoints]
72,260.869565217391,4,1,0,100,1,0
45985,-100,4,1,0,100,0,1
61637,-100,4,1,0,100,0,0
86680,-100,4,1,0,100,0,1
103376,-100,4,1,0,100,0,0

[HitObjects]
256,192,593,5,0,0:0:0:0:
256,192,854,1,0,0:0:0:0:
256,192,1115,1,8,0:0:0:0:
256,192,1245,1,0,0:0:0:0:
256,192,1311,1,0,0:0:0:0:
256,192,1376,1,0,0:0:0:0:
256,192,1506,1,0,0:0:0:0:
256,192,1767,1,8,0:0:0:0:
256,192,2028,1,0,0:0:0:0:
256,192,2289,1,8,0:0:0:0:
256,192,2550,1,0,0:0:0:0:
256,192,2680,1,8,0:0:0:0:
256,192,2811,1,8,0:0:0:0:
256,192,2941,1,0,0:0:0:0:
256,192,3202,1,8,0:0:0:0:
256,192,3332,1,0,0:0:0:0:
256,192,3463,1,0,0:0:0:0:
256,192,3593,1,0,0:0:0:0:
256,192,3854,1,8,0:0:0:0:
256,192,4115,1,0,0:0:0:0:
256,192,4376,1,8,0:0:0:0:
256,192,4637,1,0,0:0:0:0:
256,192,5028,1,0,0:0:0:0:
256,192,5289,1,8,0:0:0:0:
256,192,5419,1,0,0:0:0:0:
256,192,5485,1,0,0:0:0:0:
256,192,5550,1,0,0:0:0:0:
256,192,5680,1,0,0:0:0:0:
256,192,5941,1,8,0:0:0:0:
256,192,6202,1,0,0:0:0:0:
256,192,6463,1,8,0:0:0:0:
256,192,6724,1,0,0:0:0:0:
256,192,6854,1,8,0:0:0:0:
256,192,6985,1,8,0:0:0:0:
256,192,7115,1,0,0:0:0:0:
256,192,7376,1,8,0:0:0:0:
256,192,7506,1,0,0:0:0:0:
256,192,7637,1,0,0:0:0:0:
256,192,7767,1,8,0:0:0:0:
256,192,8028,1,0,0:0:0:0:
256,192,8289,1,8,0:0:0:0:
256,192,8550,1,8,0:0:0:0:
256,192,8811,1,8,0:0:0:0:
256,192,9202,1,12,0:0:0:0:
256,192,9463,1,8,0:0:0:0:
256,192,9593,1,0,0:0:0:0:
256,192,9659,1,0,0:0:0:0:
256,192,9724,1,0,0:0:0:0:
256,192,9854,1,0,0:0:0:0:
256,192,10115,1,8,0:0:0:0:
256,192,10376,1,0,0:0:0:0:
256,192,10637,1,8,0:0:0:0:
256,192,10898,1,0,0:0:0:0:
256,192,11028,1,8,0:0:0:0:
256,192,11159,1,8,0:0:0:0:
256,192,11289,1,0,0:0:0:0:
256,192,11550,1,8,0:0:0:0:
256,192,11680,1,0,0:0:0:0:
256,192,11811,1,0,0:0:0:0:
256,192,11941,1,0,0:0:0:0:
256,192,12202,1,8,0:0:0:0:
256,192,12463,1,0,0:0:0:0:
256,192,12724,1,8,0:0:0:0:
256,192,12985,1,0,0:0:0:0:
256,192,13376,1,0,0:0:0:0:
256,192,13637,1,8,0:0:0:0:
256,192,13767,1,0,0:0:0:0:
256,192,13833,1,0,0:0:0:0:
256,192,13898,1,0,0:0:0:0:
256,192,14028,1,0,0:0:0:0:
256,192,14158,1,8,0:0:0:0:
256,192,14419,1,0,0:0:0:0:
256,192,14550,1,0,0:0:0:0:
256,192,14680,1,0,0:0:0:0:
256,192,14811,1,8,0:0:0:0:
256,192,14941,1,0,0:0:0:0:
256,192,15202,1,0,0:0:0:0:
256,192,15332,1,0,0:0:0:0:
256,192,15463,1,8,0:0:0:0:
256,192,15724,1,8,0:0:0:0:
256,192,15854,1,8,0:0:0:0:
256,192,16115,1,0,0:0:0:0:
256,192,16376,1,0,0:0:0:0:
256,192,16637,1,8,0:0:0:0:
256,192,16767,1,0,0:0:0:0:
256,192,16898,1,0,0:0:0:0:
256,192,16962,1,0,0:0:0:0:
256,192,17028,1,0,0:0:0:0:
256,192,17158,1,0,0:0:0:0:
256,192,17289,1,0,0:0:0:0:
256,192,17550,1,12,0:0:0:0:
256,192,17811,1,12,0:0:0:0:
256,192,18202,1,4,0:0:0:0:
256,192,18593,1,12,0:0:0:0:
256,192,18985,1,4,0:0:0:0:
256,192,19376,1,12,0:0:0:0:
256,192,19637,1,12,0:0:0:0:
256,192,19898,1,12,0:0:0:0:
256,192,20158,1,0,0:0:0:0:
256,192,20289,1,0,0:0:0:0:
256,192,20419,1,8,0:0:0:0:
256,192,20680,1,8,0:0:0:0:
256,192,20811,1,8,0:0:0:0:
256,192,20941,1,0,0:0:0:0:
256,192,21202,1,0,0:0:0:0:
256,192,21332,1,8,0:0:0:0:
256,192,21593,1,0,0:0:0:0:
256,192,21723,1,8,0:0:0:0:
256,192,21985,1,12,0:0:0:0:
256,192,22376,1,4,0:0:0:0:
256,192,22767,1,4,0:0:0:0:
256,192,23158,1,12,0:0:0:0:
256,192,23550,1,12,0:0:0:0:
256,192,23811,1,12,0:0:0:0:
256,192,24071,1,0,0:0:0:0:
256,192,24332,1,0,0:0:0:0:
256,192,24593,1,0,0:0:0:0:
256,192,24724,1,0,0:0:0:0:
256,192,24985,1,0,0:0:0:0:
256,192,25115,1,0,0:0:0:0:
256,192,25245,1,8,0:0:0:0:
256,192,25311,1,8,0:0:0:0:
256,192,25376,1,8,0:0:0:0:
256,192,25506,1,0,0:0:0:0:
256,192,25637,1,0,0:0:0:0:
256,192,26158,1,12,0:0:0:0:
256,192,26549,1,4,0:0:0:0:
256,192,26940,1,12,0:0:0:0:
256,192,27332,1,12,0:0:0:0:
256,192,27723,1,4,0:0:0:0:
256,192,27985,1,4,0:0:0:0:
256,192,28245,1,12,0:0:0:0:
256,192,28636,1,12,0:0:0:0:
256,192,29028,1,4,0:0:0:0:
256,192,29419,1,4,0:0:0:0:
256,192,29810,1,12,0:0:0:0:
256,192,30332,1,12,0:0:0:0:
256,192,30723,1,4,0:0:0:0:
256,192,31114,1,4,0:0:0:0:
256,192,31506,1,12,0:0:0:0:
256,192,31897,1,12,0:0:0:0:
256,192,32158,1,12,0:0:0:0:
256,192,32419,1,12,0:0:0:0:
256,192,32680,1,0,0:0:0:0:
256,192,32811,1,0,0:0:0:0:
256,192,33071,1,0,0:0:0:0:
256,192,33202,1,0,0:0:0:0:
256,192,33332,1,0,0:0:0:0:
256,192,33463,1,8,0:0:0:0:
256,192,33724,1,0,0:0:0:0:
256,192,33854,1,0,0:0:0:0:
256,192,34115,1,0,0:0:0:0:
256,192,34245,1,0,0:0:0:0:
256,192,34376,1,0,0:0:0:0:
256,192,34506,1,8,0:0:0:0:
256,192,34767,1,0,0:0:0:0:
256,192,34898,1,0,0:0:0:0:
256,192,35028,1,8,0:0:0:0:
256,192,35550,1,0,0:0:0:0:
256,192,35811,1,0,0:0:0:0:
256,192,35941,1,8,0:0:0:0:
256,192,36071,1,0,0:0:0:0:
256,192,36332,1,8,0:0:0:0:
256,192,36463,1,8,0:0:0:0:
256,192,36724,1,8,0:0:0:0:
256,192,36854,1,0,0:0:0:0:
256,192,36985,1,0,0:0:0:0:
256,192,37115,1,8,0:0:0:0:
256,192,37637,1,0,0:0:0:0:
256,192,37702,1,0,0:0:0:0:
256,192,37767,1,0,0:0:0:0:
256,192,37898,1,8,0:0:0:0:
256,192,38028,1,8,0:0:0:0:
256,192,38158,1,8,0:0:0:0:
256,192,38419,1,8,0:0:0:0:
256,192,38550,1,8,0:0:0:0:
256,192,38680,1,8,0:0:0:0:
256,192,38811,1,8,0:0:0:0:
256,192,38941,1,8,0:0:0:0:
256,192,39202,1,0,0:0:0:0:
256,192,39463,1,8,0:0:0:0:
256,192,39724,1,0,0:0:0:0:
256,192,39789,1,0,0:0:0:0:
256,192,39854,1,0,0:0:0:0:
256,192,39985,1,8,0:0:0:0:
256,192,40115,1,8,0:0:0:0:
256,192,40245,1,8,0:0:0:0:
256,192,40506,1,8,0:0:0:0:
256,192,40637,1,8,0:0:0:0:
256,192,40767,1,8,0:0:0:0:
256,192,40898,1,8,0:0:0:0:
256,192,41028,1,0,0:0:0:0:
256,192,41158,1,0,0:0:0:0:
256,192,41289,1,0,0:0:0:0:
256,192,41550,1,0,0:0:0:0:
256,192,41811,1,0,0:0:0:0:
256,192,41876,1,0,0:0:0:0:
256,192,41941,1,0,0:0:0:0:
256,192,42071,1,8,0:0:0:0:
256,192,42202,1,8,0:0:0:0:
256,192,42332,1,8,0:0:0:0:
256,192,42593,1,8,0:0:0:0:
256,192,42724,1,8,0:0:0:0:
256,192,42854,1,8,0:0:0:0:
256,192,42985,1,8,0:0:0:0:
256,192,43115,1,8,0:0:0:0:
256,192,43376,1,8,0:0:0:0:
256,192,43637,1,0,0:0:0:0:
256,192,43898,1,0,0:0:0:0:
256,192,43963,1,0,0:0:0:0:
256,192,44028,1,0,0:0:0:0:
256,192,44158,1,8,0:0:0:0:
256,192,44289,1,8,0:0:0:0:
256,192,44419,1,8,0:0:0:0:
256,192,44680,1,8,0:0:0:0:
256,192,44811,1,0,0:0:0:0:
256,192,44941,1,0,0:0:0:0:
256,192,45071,1,8,0:0:0:0:
256,192,45202,1,8,0:0:0:0:
256,192,45332,1,8,0:0:0:0:
256,192,45463,1,0,0:0:0:0:
256,192,45724,1,0,0:0:0:0:
256,192,45985,1,0,0:0:0:0:
256,192,46115,1,8,0:0:0:0:
256,192,46245,1,8,0:0:0:0:
256,192,46376,1,8,0:0:0:0:
256,192,46637,1,0,0:0:0:0:
256,192,46768,1,8,0:0:0:0:
256,192,46898,1,8,0:0:0:0:
256,192,47158,1,8,0:0:0:0:
256,192,47289,1,0,0:0:0:0:
256,192,47419,1,0,0:0:0:0:
256,192,47550,1,8,0:0:0:0:
256,192,47680,1,8,0:0:0:0:
256,192,47811,1,0,0:0:0:0:
256,192,47941,1,0,0:0:0:0:
256,192,48071,1,8,0:0:0:0:
256,192,48202,1,8,0:0:0:0:
256,192,48463,1,8,0:0:0:0:
256,192,48724,1,8,0:0:0:0:
256,192,48854,1,8,0:0:0:0:
256,192,48985,1,8,0:0:0:0:
256,192,49115,1,0,0:0:0:0:
256,192,49245,1,0,0:0:0:0:
256,192,49376,1,8,0:0:0:0:
256,192,49506,1,8,0:0:0:0:
256,192,49767,1,0,0:0:0:0:
256,192,49898,1,8,0:0:0:0:
256,192,50028,1,0,0:0:0:0:
256,192,50158,1,0,0:0:0:0:
256,192,50289,1,8,0:0:0:0:
256,192,50550,1,8,0:0:0:0:
256,192,50811,1,8,0:0:0:0:
256,192,50941,1,0,0:0:0:0:
256,192,51071,1,8,0:0:0:0:
256,192,51332,1,0,0:0:0:0:
256,192,51463,1,8,0:0:0:0:
256,192,51593,1,0,0:0:0:0:
256,192,51854,1,8,0:0:0:0:
256,192,51984,1,8,0:0:0:0:
256,192,52115,1,0,0:0:0:0:
256,192,52245,1,0,0:0:0:0:
256,192,52376,1,8,0:0:0:0:
256,192,52637,1,8,0:0:0:0:
256,192,52898,1,8,0:0:0:0:
256,192,53028,1,0,0:0:0:0:
256,192,53158,1,8,0:0:0:0:
256,192,53289,1,8,0:0:0:0:
256,192,53419,1,0,0:0:0:0:
256,192,53550,1,8,0:0:0:0:
256,192,53680,1,0,0:0:0:0:
256,192,53811,1,0,0:0:0:0:
256,192,54071,1,0,0:0:0:0:
256,192,54332,1,0,0:0:0:0:
256,192,54462,1,8,0:0:0:0:
256,192,54592,1,8,0:0:0:0:
256,192,54723,1,8,0:0:0:0:
256,192,54984,1,0,0:0:0:0:
256,192,55115,1,8,0:0:0:0:
256,192,55245,1,8,0:0:0:0:
256,192,55505,1,8,0:0:0:0:
256,192,55636,1,0,0:0:0:0:
256,192,55766,1,0,0:0:0:0:
256,192,55897,1,8,0:0:0:0:
256,192,56027,1,8,0:0:0:0:
256,192,56158,1,0,0:0:0:0:
256,192,56288,1,0,0:0:0:0:
256,192,56418,1,8,0:0:0:0:
256,192,56549,1,8,0:0:0:0:
256,192,56810,1,8,0:0:0:0:
256,192,57071,1,8,0:0:0:0:
256,192,57201,1,8,0:0:0:0:
256,192,57332,1,8,0:0:0:0:
256,192,57462,1,0,0:0:0:0:
256,192,57592,1,0,0:0:0:0:
256,192,57723,1,8,0:0:0:0:
256,192,57853,1,8,0:0:0:0:
256,192,58114,1,0,0:0:0:0:
256,192,58245,1,8,0:0:0:0:
256,192,58375,1,0,0:0:0:0:
256,192,58505,1,0,0:0:0:0:
256,192,58636,1,8,0:0:0:0:
256,192,58897,1,8,0:0:0:0:
256,192,59158,1,8,0:0:0:0:
256,192,59288,1,0,0:0:0:0:
256,192,59418,1,8,0:0:0:0:
256,192,59679,1,0,0:0:0:0:
256,192,59810,1,8,0:0:0:0:
256,192,59940,1,0,0:0:0:0:
256,192,60071,1,8,0:0:0:0:
256,192,60201,1,8,0:0:0:0:
256,192,60332,1,0,0:0:0:0:
256,192,60593,1,8,0:0:0:0:
256,192,60724,1,0,0:0:0:0:
256,192,60854,1,0,0:0:0:0:
256,192,60919,1,0,0:0:0:0:
256,192,60985,1,0,0:0:0:0:
256,192,61115,1,0,0:0:0:0:
256,192,61245,1,8,0:0:0:0:
256,192,61376,1,0,0:0:0:0:
256,192,61506,1,0,0:0:0:0:
256,192,61637,1,4,0:0:0:0:
256,192,62289,1,12,0:0:0:0:
256,192,62680,12,0,64506,0:0:0:0:
256,192,64767,5,12,0:0:0:0:
256,192,65028,1,0,0:0:0:0:
256,192,65158,1,0,0:0:0:0:
256,192,65289,1,0,0:0:0:0:
256,192,65419,1,0,0:0:0:0:
256,192,65550,1,0,0:0:0:0:
256,192,65680,1,0,0:0:0:0:
256,192,65811,1,0,0:0:0:0:
256,192,66071,1,0,0:0:0:0:
256,192,66202,1,8,0:0:0:0:
256,192,66332,1,0,0:0:0:0:
256,192,66463,1,8,0:0:0:0:
256,192,66593,1,0,0:0:0:0:
256,192,66724,1,8,0:0:0:0:
256,192,66854,1,0,0:0:0:0:
256,192,67115,1,0,0:0:0:0:
256,192,67245,1,0,0:0:0:0:
256,192,67376,1,0,0:0:0:0:
256,192,67506,1,0,0:0:0:0:
256,192,67637,1,0,0:0:0:0:
256,192,67767,1,0,0:0:0:0:
256,192,67898,1,8,0:0:0:0:
256,192,68158,1,0,0:0:0:0:
256,192,68289,1,0,0:0:0:0:
256,192,68419,1,0,0:0:0:0:
256,192,68550,1,8,0:0:0:0:
256,192,68680,1,0,0:0:0:0:
256,192,68811,1,8,0:0:0:0:
256,192,68941,1,0,0:0:0:0:
256,192,69202,1,0,0:0:0:0:
256,192,69332,1,0,0:0:0:0:
256,192,69463,1,0,0:0:0:0:
256,192,69724,1,0,0:0:0:0:
256,192,69985,1,4,0:0:0:0:
256,192,70245,1,4,0:0:0:0:
256,192,70637,1,8,0:0:0:0:
256,192,70768,1,0,0:0:0:0:
256,192,70898,1,0,0:0:0:0:
256,192,71029,1,8,0:0:0:0:
256,192,71159,1,0,0:0:0:0:
256,192,71289,1,0,0:0:0:0:
256,192,71420,1,8,0:0:0:0:
256,192,71811,1,0,0:0:0:0:
256,192,72071,1,0,0:0:0:0:
256,192,72332,1,0,0:0:0:0:
256,192,72593,1,0,0:0:0:0:
256,192,72724,1,8,0:0:0:0:
256,192,72985,1,8,0:0:0:0:
256,192,73115,1,0,0:0:0:0:
256,192,73376,1,0,0:0:0:0:
256,192,73506,1,0,0:0:0:0:
256,192,73767,1,8,0:0:0:0:
256,192,73898,1,8,0:0:0:0:
256,192,74028,1,8,0:0:0:0:
256,192,74158,1,4,0:0:0:0:
256,192,74419,1,4,0:0:0:0:
256,192,74811,1,8,0:0:0:0:
256,192,74942,1,0,0:0:0:0:
256,192,75072,1,0,0:0:0:0:
256,192,75202,1,8,0:0:0:0:
256,192,75333,1,0,0:0:0:0:
256,192,75463,1,0,0:0:0:0:
256,192,75594,1,8,0:0:0:0:
256,192,75985,1,0,0:0:0:0:
256,192,76245,1,0,0:0:0:0:
256,192,76506,1,8,0:0:0:0:
256,192,76767,1,0,0:0:0:0:
256,192,76898,1,8,0:0:0:0:
256,192,77158,1,8,0:0:0:0:
256,192,77289,1,0,0:0:0:0:
256,192,77550,1,0,0:0:0:0:
256,192,77680,1,0,0:0:0:0:
256,192,78071,1,8,0:0:0:0:
256,192,78202,1,8,0:0:0:0:
256,192,78332,1,0,0:0:0:0:
256,192,78463,1,0,0:0:0:0:
256,192,78593,1,8,0:0:0:0:
256,192,78724,1,0,0:0:0:0:
256,192,78854,1,8,0:0:0:0:
256,192,79115,1,8,0:0:0:0:
256,192,79376,1,0,0:0:0:0:
256,192,79506,1,0,0:0:0:0:
256,192,79637,1,8,0:0:0:0:
256,192,79767,1,8,0:0:0:0:
256,192,79898,1,0,0:0:0:0:
256,192,80158,1,0,0:0:0:0:
256,192,80419,1,8,0:0:0:0:
256,192,80550,1,8,0:0:0:0:
256,192,80680,1,0,0:0:0:0:
256,192,80811,1,8,0:0:0:0:
256,192,80941,1,0,0:0:0:0:
256,192,81202,1,0,0:0:0:0:
256,192,81463,1,0,0:0:0:0:
256,192,81593,1,0,0:0:0:0:
256,192,81724,1,8,0:0:0:0:
256,192,81854,1,8,0:0:0:0:
256,192,81985,1,8,0:0:0:0:
256,192,82245,1,0,0:0:0:0:
256,192,82506,1,12,0:0:0:0:
256,192,82767,1,0,0:0:0:0:
256,192,83028,1,0,0:0:0:0:
256,192,83289,1,0,0:0:0:0:
256,192,83550,1,0,0:0:0:0:
256,192,83811,1,8,0:0:0:0:
256,192,84071,1,0,0:0:0:0:
256,192,84332,1,8,0:0:0:0:
256,192,84593,1,0,0:0:0:0:
256,192,84724,1,0,0:0:0:0:
256,192,84854,1,8,0:0:0:0:
256,192,84985,1,8,0:0:0:0:
256,192,85115,1,0,0:0:0:0:
256,192,85245,1,0,0:0:0:0:
256,192,85376,1,8,0:0:0:0:
256,192,85506,1,8,0:0:0:0:
256,192,85898,1,8,0:0:0:0:
256,192,86028,1,0,0:0:0:0:
256,192,86158,1,8,0:0:0:0:
256,192,86419,1,0,0:0:0:0:
256,192,86680,1,0,0:0:0:0:
256,192,86810,1,8,0:0:0:0:
256,192,86940,1,8,0:0:0:0:
256,192,87071,1,8,0:0:0:0:
256,192,87332,1,8,0:0:0:0:
256,192,87463,1,0,0:0:0:0:
256,192,87593,1,8,0:0:0:0:
256,192,87853,1,8,0:0:0:0:
256,192,87984,1,0,0:0:0:0:
256,192,88114,1,0,0:0:0:0:
256,192,88245,1,8,0:0:0:0:
256,192,88375,1,8,0:0:0:0:
256,192,88506,1,0,0:0:0:0:
256,192,88636,1,0,0:0:0:0:
256,192,88766,1,8,0:0:0:0:
256,192,88897,1,8,0:0:0:0:
256,192,89158,1,8,0:0:0:0:
256,192,89419,1,0,0:0:0:0:
256,192,89549,1,8,0:0:0:0:
256,192,89680,1,0,0:0:0:0:
256,192,89811,1,8,0:0:0:0:
256,192,89941,1,8,0:0:0:0:
256,192,90071,1,0,0:0:0:0:
256,192,90332,1,0,0:0:0:0:
256,192,90464,1,8,0:0:0:0:
256,192,90593,1,0,0:0:0:0:
256,192,90854,1,0,0:0:0:0:
256,192,90984,1,8,0:0:0:0:
256,192,91245,1,8,0:0:0:0:
256,192,91506,1,8,0:0:0:0:
256,192,91636,1,0,0:0:0:0:
256,192,91766,1,8,0:0:0:0:
256,192,92027,1,0,0:0:0:0:
256,192,92158,1,8,0:0:0:0:
256,192,92288,1,0,0:0:0:0:
256,192,92419,1,8,0:0:0:0:
256,192,92549,1,8,0:0:0:0:
256,192,92680,1,0,0:0:0:0:
256,192,92940,1,0,0:0:0:0:
256,192,93071,1,8,0:0:0:0:
256,192,93332,1,8,0:0:0:0:
256,192,93593,1,8,0:0:0:0:
256,192,93723,1,0,0:0:0:0:
256,192,93853,1,8,0:0:0:0:
256,192,93984,1,8,0:0:0:0:
256,192,94114,1,0,0:0:0:0:
256,192,94245,1,8,0:0:0:0:
256,192,94375,1,0,0:0:0:0:
256,192,94506,1,0,0:0:0:0:
256,192,94767,1,8,0:0:0:0:
256,192,94898,1,8,0:0:0:0:
256,192,95027,1,0,0:0:0:0:
256,192,95289,1,8,0:0:0:0:
256,192,95550,1,8,0:0:0:0:
256,192,95811,1,0,0:0:0:0:
256,192,96071,1,8,0:0:0:0:
256,192,96331,1,0,0:0:0:0:
256,192,96592,1,8,0:0:0:0:
256,192,96724,1,8,0:0:0:0:
256,192,96853,1,0,0:0:0:0:
256,192,97115,1,8,0:0:0:0:
256,192,97376,1,0,0:0:0:0:
256,192,97637,1,8,0:0:0:0:
256,192,97767,1,0,0:0:0:0:
256,192,97898,1,0,0:0:0:0:
256,192,98028,1,0,0:0:0:0:
256,192,98158,1,8,0:0:0:0:
256,192,98419,1,0,0:0:0:0:
256,192,98680,1,8,0:0:0:0:
256,192,98941,1,0,0:0:0:0:
256,192,99202,1,0,0:0:0:0:
256,192,99331,1,8,0:0:0:0:
256,192,99463,1,0,0:0:0:0:
256,192,99593,1,0,0:0:0:0:
256,192,99724,1,8,0:0:0:0:
256,192,99854,1,0,0:0:0:0:
256,192,99984,1,8,0:0:0:0:
256,192,100245,1,0,0:0:0:0:
256,192,100376,1,8,0:0:0:0:
256,192,100506,1,0,0:0:0:0:
256,192,100637,1,8,0:0:0:0:
256,192,100767,1,8,0:0:0:0:
256,192,100898,1,0,0:0:0:0:
256,192,101028,1,0,0:0:0:0:
256,192,101289,1,0,0:0:0:0:
256,192,101419,1,0,0:0:0:0:
256,192,101550,1,0,0:0:0:0:
256,192,101811,1,0,0:0:0:0:
256,192,102071,1,0,0:0:0:0:
256,192,102202,1,0,0:0:0:0:
256,192,102332,1,8,0:0:0:0:
256,192,102463,1,8,0:0:0:0:
256,192,102593,1,0,0:0:0:0:
256,192,102724,1,0,0:0:0:0:
256,192,102854,1,8,0:0:0:0:
256,192,102985,1,8,0:0:0:0:
256,192,103115,1,0,0:0:0:0:
256,192,103376,1,0,0:0:0:0:
256,192,103441,1,0,0:0:0:0:
256,192,103506,1,0,0:0:0:0:
256,192,103637,1,8,0:0:0:0:
256,192,103767,1,8,0:0:0:0:
256,192,103898,1,8,0:0:0:0:
256,192,104158,1,8,0:0:0:0:
256,192,104289,1,8,0:0:0:0:
256,192,104419,1,8,0:0:0:0:
256,192,104550,1,8,0:0:0:0:
256,192,104680,1,8,0:0:0:0:
256,192,104941,1,0,0:0:0:0:
256,192,105202,1,8,0:0:0:0:
256,192,105463,1,0,0:0:0:0:
256,192,105528,1,0,0:0:0:0:
256,192,105593,1,0,0:0:0:0:
256,192,105724,1,8,0:0:0:0:
256,192,105854,1,8,0:0:0:0:
256,192,105985,1,8,0:0:0:0:
256,192,106245,1,8,0:0:0:0:
256,192,106376,1,8,0:0:0:0:
256,192,106506,1,8,0:0:0:0:
256,192,106637,1,8,0:0:0:0:
256,192,106767,1,8,0:0:0:0:
256,192,106898,1,0,0:0:0:0:
256,192,107028,1,0,0:0:0:0:
256,192,107289,1,0,0:0:0:0:
256,192,107550,1,12,0:0:0:0:
256,192,107941,1,12,0:0:0:0:
256,192,108332,1,12,0:0:0:0:
