osu file format v14

[General]
AudioFilename: audio.mp3
AudioLeadIn: 0
PreviewTime: 36039
Countdown: 0
SampleSet: Normal
StackLeniency: 0.7
Mode: 1
LetterboxInBreaks: 0
WidescreenStoryboard: 1

[Editor]
DistanceSpacing: 0.8
BeatDivisor: 4
GridSize: 32
TimelineZoom: 2.899999

[Metadata]
Title:ERROR CODE
TitleUnicode:ERROR CODE
Artist:C-Show
ArtistUnicode:C-Show
Creator:incandescence
Version:Muzukashii
Source:SOUND VOLTEX III GRAVITY WARS
Tags:SDVX KONAMI BEMANI ULTIMATE TRACKS -FLOOR ANTHEM- EP.01 OzzyOzrock taikocracy
BeatmapID:1506522
BeatmapSetID:712757

[Difficulty]
HPDrainRate:5
CircleSize:2
OverallDifficulty:5
ApproachRate:10
SliderMultiplier:1.4
SliderTickRate:1

[Events]
//Background and Video events
0,0,"maxresdefault.jpg",0,50
//Break Periods
//Storyboard Layer 0 (Background)
//Storyboard Layer 1 (Fail)
//Storyboard Layer 2 (Pass)
//Storyboard Layer 3 (Foreground)
//Storyboard Sound Samples

[TimingPoints]
1130,272.727272727273,4,1,0,100,1,0
88402,-100,4,1,0,100,0,1
104766,-100,4,1,0,100,0,0
105857,-100,4,1,0,100,0,1
123175,-100,4,1,0,100,0,0

[HitObjects]
256,192,1130,5,4,0:0:0:0:
256,192,1675,1,8,0:0:0:0:
256,192,2766,1,8,0:0:0:0:
256,192,3857,1,8,0:0:0:0:
256,192,4948,1,12,0:0:0:0:
256,192,5084,1,12,0:0:0:0:
256,192,5493,1,4,0:0:0:0:
256,192,6039,1,8,0:0:0:0:
256,192,7130,1,8,0:0:0:0:
256,192,7675,1,4,0:0:0:0:
256,192,8220,1,8,0:0:0:0:
256,192,8766,1,8,0:0:0:0:
256,192,9039,1,0,0:0:0:0:
256,192,9311,1,8,0:0:0:0:
256,192,9720,1,4,0:0:0:0:
256,192,10130,1,0,0:0:0:0:
256,192,10402,1,8,0:0:0:0:
256,192,10675,1,8,0:0:0:0:
256,192,10948,1,0,0:0:0:0:
256,192,11084,1,0,0:0:0:0:
256,192,11220,1,8,0:0:0:0:
256,192,11493,1,8,0:0:0:0:
256,192,11630,1,0,0:0:0:0:
256,192,12039,1,0,0:0:0:0:
256,192,12311,1,0,0:0:0:0:
256,192,12448,1,0,0:0:0:0:
256,192,12584,1,8,0:0:0:0:
256,192,12857,1,0,0:0:0:0:
256,192,13130,1,8,0:0:0:0:
256,192,13266,1,8,0:0:0:0:
256,192,13402,1,0,0:0:0:0:
256,192,13539,1,0,0:0:0:0:
256,192,13675,1,8,0:0:0:0:
256,192,13811,1,0,0:0:0:0:
256,192,14220,1,4,0:0:0:0:
256,192,14493,1,0,0:0:0:0:
256,192,14630,1,8,0:0:0:0:
256,192,14902,1,8,0:0:0:0:
256,192,15039,1,0,0:0:0:0:
256,192,15311,1,8,0:0:0:0:
256,192,15448,1,8,0:0:0:0:
256,192,15584,1,0,0:0:0:0:
256,192,15857,1,8,0:0:0:0:
256,192,15993,1,0,0:0:0:0:
256,192,16402,1,0,0:0:0:0:
256,192,16675,1,0,0:0:0:0:
256,192,16811,1,0,0:0:0:0:
256,192,16948,1,8,0:0:0:0:
256,192,17220,1,0,0:0:0:0:
256,192,17493,1,8,0:0:0:0:
256,192,17630,1,0,0:0:0:0:
256,192,17766,1,0,0:0:0:0:
256,192,18039,1,8,0:0:0:0:
256,192,18175,1,8,0:0:0:0:
256,192,18311,1,8,0:0:0:0:
256,192,18448,5,4,0:0:0:0:
256,192,18857,1,4,0:0:0:0:
256,192,19130,1,8,0:0:0:0:
256,192,20220,1,8,0:0:0:0:
256,192,20630,1,4,0:0:0:0:
256,192,21039,1,4,0:0:0:0:
256,192,21311,1,8,0:0:0:0:
256,192,22402,1,8,0:0:0:0:
256,192,22811,1,4,0:0:0:0:
256,192,23220,1,4,0:0:0:0:
256,192,23493,1,8,0:0:0:0:
256,192,24584,1,8,0:0:0:0:
256,192,25130,1,4,0:0:0:0:
256,192,26220,1,4,0:0:0:0:
256,192,26630,1,12,0:0:0:0:
256,192,27039,1,4,0:0:0:0:
256,192,27311,1,12,0:0:0:0:
256,192,27584,1,0,0:0:0:0:
256,192,27857,1,8,0:0:0:0:
256,192,27993,1,0,0:0:0:0:
256,192,28061,1,0,0:0:0:0:
256,192,28130,1,0,0:0:0:0:
256,192,28266,1,8,0:0:0:0:
256,192,28402,1,0,0:0:0:0:
256,192,28675,1,8,0:0:0:0:
256,192,28948,1,0,0:0:0:0:
256,192,29084,1,0,0:0:0:0:
256,192,29220,1,8,0:0:0:0:
256,192,29357,1,8,0:0:0:0:
256,192,29493,1,4,0:0:0:0:
256,192,29766,1,4,0:0:0:0:
256,192,30039,1,8,0:0:0:0:
256,192,30175,1,0,0:0:0:0:
256,192,30243,1,0,0:0:0:0:
256,192,30311,1,0,0:0:0:0:
256,192,30448,1,8,0:0:0:0:
256,192,30584,1,0,0:0:0:0:
256,192,30857,1,0,0:0:0:0:
256,192,31130,1,8,0:0:0:0:
256,192,31266,1,8,0:0:0:0:
256,192,31402,1,0,0:0:0:0:
256,192,31539,1,8,0:0:0:0:
256,192,31675,1,0,0:0:0:0:
256,192,31948,1,0,0:0:0:0:
256,192,32220,1,8,0:0:0:0:
256,192,32493,1,8,0:0:0:0:
256,192,32766,1,0,0:0:0:0:
256,192,32902,1,0,0:0:0:0:
256,192,33039,1,8,0:0:0:0:
256,192,33175,1,8,0:0:0:0:
256,192,33311,1,0,0:0:0:0:
256,192,33448,1,0,0:0:0:0:
256,192,33516,1,0,0:0:0:0:
256,192,33584,1,0,0:0:0:0:
256,192,33720,1,8,0:0:0:0:
256,192,33857,1,0,0:0:0:0:
256,192,34948,1,0,0:0:0:0:
256,192,35084,1,0,0:0:0:0:
256,192,35357,1,0,0:0:0:0:
256,192,35493,1,8,0:0:0:0:
256,192,35630,1,8,0:0:0:0:
256,192,35766,1,0,0:0:0:0:
256,192,35902,1,8,0:0:0:0:
256,192,36039,1,4,0:0:0:0:
256,192,36584,1,8,0:0:0:0:
256,192,36720,1,0,0:0:0:0:
256,192,36789,1,0,0:0:0:0:
256,192,36857,1,0,0:0:0:0:
256,192,36993,1,8,0:0:0:0:
256,192,37130,1,0,0:0:0:0:
256,192,37402,1,8,0:0:0:0:
256,192,37675,1,0,0:0:0:0:
256,192,37948,1,8,0:0:0:0:
256,192,38084,1,8,0:0:0:0:
256,192,38220,1,0,0:0:0:0:
256,192,38357,1,8,0:0:0:0:
256,192,38425,1,8,0:0:0:0:
256,192,38493,1,8,0:0:0:0:
256,192,38630,1,0,0:0:0:0:
256,192,38766,1,8,0:0:0:0:
256,192,39039,1,8,0:0:0:0:
256,192,39311,1,0,0:0:0:0:
256,192,39584,1,8,0:0:0:0:
256,192,39720,1,0,0:0:0:0:
256,192,39857,1,12,0:0:0:0:
256,192,40402,1,4,0:0:0:0:
256,192,40948,1,0,0:0:0:0:
256,192,41084,1,0,0:0:0:0:
256,192,41152,1,0,0:0:0:0:
256,192,41220,1,0,0:0:0:0:
256,192,41357,1,8,0:0:0:0:
256,192,41493,1,0,0:0:0:0:
256,192,41766,1,8,0:0:0:0:
256,192,42039,1,8,0:0:0:0:
256,192,42311,1,0,0:0:0:0:
256,192,42448,1,8,0:0:0:0:
256,192,42584,1,0,0:0:0:0:
256,192,42720,1,8,0:0:0:0:
256,192,42789,1,8,0:0:0:0:
256,192,42857,1,8,0:0:0:0:
256,192,42993,1,0,0:0:0:0:
256,192,43130,1,8,0:0:0:0:
256,192,43402,1,8,0:0:0:0:
256,192,43675,1,0,0:0:0:0:
256,192,43948,1,8,0:0:0:0:
256,192,44084,1,8,0:0:0:0:
256,192,44220,1,4,0:0:0:0:
256,192,44630,1,4,0:0:0:0:
256,192,45039,1,4,0:0:0:0:
256,192,45311,1,8,0:0:0:0:
256,192,45448,1,0,0:0:0:0:
256,192,45516,1,0,0:0:0:0:
256,192,45584,1,0,0:0:0:0:
256,192,45720,1,8,0:0:0:0:
256,192,45857,1,0,0:0:0:0:
256,192,46130,1,8,0:0:0:0:
256,192,46402,1,0,0:0:0:0:
256,192,46539,1,0,0:0:0:0:
256,192,46675,1,8,0:0:0:0:
256,192,46948,1,0,0:0:0:0:
256,192,47084,1,8,0:0:0:0:
256,192,47152,1,8,0:0:0:0:
256,192,47220,1,8,0:0:0:0:
256,192,47357,1,0,0:0:0:0:
256,192,47493,1,8,0:0:0:0:
256,192,47766,1,8,0:0:0:0:
256,192,48039,1,0,0:0:0:0:
256,192,48311,1,0,0:0:0:0:
256,192,48448,1,0,0:0:0:0:
256,192,48584,1,12,0:0:0:0:
256,192,49130,1,4,0:0:0:0:
256,192,49675,1,0,0:0:0:0:
256,192,49811,1,0,0:0:0:0:
256,192,49880,1,0,0:0:0:0:
256,192,49948,1,0,0:0:0:0:
256,192,50084,1,8,0:0:0:0:
256,192,50220,1,0,0:0:0:0:
256,192,50493,1,8,0:0:0:0:
256,192,50766,1,0,0:0:0:0:
256,192,50902,1,0,0:0:0:0:
256,192,51039,1,8,0:0:0:0:
256,192,51175,1,8,0:0:0:0:
256,192,51311,1,0,0:0:0:0:
256,192,51448,1,8,0:0:0:0:
256,192,51516,1,8,0:0:0:0:
256,192,51584,1,8,0:0:0:0:
256,192,51720,1,0,0:0:0:0:
256,192,51857,1,8,0:0:0:0:
256,192,52130,1,8,0:0:0:0:
256,192,52402,1,0,0:0:0:0:
256,192,52539,1,0,0:0:0:0:
256,192,52811,1,0,0:0:0:0:
256,192,52948,1,8,0:0:0:0:
256,192,53084,1,8,0:0:0:0:
256,192,53220,1,0,0:0:0:0:
256,192,53493,1,4,0:0:0:0:
256,192,54039,1,8,0:0:0:0:
256,192,54175,1,0,0:0:0:0:
256,192,54243,1,0,0:0:0:0:
256,192,54311,1,0,0:0:0:0:
256,192,54448,1,8,0:0:0:0:
256,192,54584,1,0,0:0:0:0:
256,192,54857,1,8,0:0:0:0:
256,192,55130,1,0,0:0:0:0:
256,192,55266,1,0,0:0:0:0:
256,192,55402,1,8,0:0:0:0:
256,192,55539,1,8,0:0:0:0:
256,192,55675,1,0,0:0:0:0:
256,192,55811,1,0,0:0:0:0:
256,192,55880,1,0,0:0:0:0:
256,192,55948,1,0,0:0:0:0:
256,192,56084,1,8,0:0:0:0:
256,192,56220,1,0,0:0:0:0:
256,192,56493,1,8,0:0:0:0:
256,192,56766,1,0,0:0:0:0:
256,192,57039,1,8,0:0:0:0:
256,192,57175,1,0,0:0:0:0:
256,192,57311,1,12,0:0:0:0:
256,192,57857,1,4,0:0:0:0:
256,192,58402,1,0,0:0:0:0:
256,192,58539,1,0,0:0:0:0:
256,192,58607,1,0,0:0:0:0:
256,192,58675,1,0,0:0:0:0:
256,192,58811,1,8,0:0:0:0:
256,192,58948,1,0,0:0:0:0:
256,192,59220,1,8,0:0:0:0:
256,192,59493,1,0,0:0:0:0:
256,192,59630,1,0,0:0:0:0:
256,192,59766,1,8,0:0:0:0:
256,192,59902,1,8,0:0:0:0:
256,192,60039,1,0,0:0:0:0:
256,192,60175,1,8,0:0:0:0:
256,192,60243,1,8,0:0:0:0:
256,192,60311,1,8,0:0:0:0:
256,192,60448,1,0,0:0:0:0:
256,192,60584,1,8,0:0:0:0:
256,192,60857,1,8,0:0:0:0:
256,192,61130,1,0,0:0:0:0:
256,192,61402,1,8,0:0:0:0:
256,192,61539,1,8,0:0:0:0:
256,192,61675,1,4,0:0:0:0:
256,192,62084,1,4,0:0:0:0:
256,192,62493,1,4,0:0:0:0:
256,192,62766,1,8,0:0:0:0:
256,192,62902,1,0,0:0:0:0:
256,192,62970,1,0,0:0:0:0:
256,192,63039,1,0,0:0:0:0:
256,192,63175,1,8,0:0:0:0:
256,192,63311,1,0,0:0:0:0:
256,192,63584,1,8,0:0:0:0:
256,192,63857,1,0,0:0:0:0:
256,192,63993,1,0,0:0:0:0:
256,192,64130,1,8,0:0:0:0:
256,192,64402,1,0,0:0:0:0:
256,192,64539,1,0,0:0:0:0:
256,192,64607,1,0,0:0:0:0:
256,192,64675,1,0,0:0:0:0:
256,192,64811,1,8,0:0:0:0:
256,192,64948,1,0,0:0:0:0:
256,192,65220,1,8,0:0:0:0:
256,192,65493,1,0,0:0:0:0:
256,192,65766,1,0,0:0:0:0:
256,192,65902,1,0,0:0:0:0:
256,192,66039,1,12,0:0:0:0:
256,192,66584,1,4,0:0:0:0:
256,192,67130,1,0,0:0:0:0:
256,192,67266,1,0,0:0:0:0:
256,192,67334,1,0,0:0:0:0:
256,192,67402,1,0,0:0:0:0:
256,192,67539,1,8,0:0:0:0:
256,192,67675,1,0,0:0:0:0:
256,192,67948,1,8,0:0:0:0:
256,192,68220,1,0,0:0:0:0:
256,192,68357,1,0,0:0:0:0:
256,192,68493,1,8,0:0:0:0:
256,192,68630,1,8,0:0:0:0:
256,192,68766,1,0,0:0:0:0:
256,192,68902,1,8,0:0:0:0:
256,192,68970,1,8,0:0:0:0:
256,192,69039,1,8,0:0:0:0:
256,192,69175,1,0,0:0:0:0:
256,192,69311,1,8,0:0:0:0:
256,192,69584,1,8,0:0:0:0:
256,192,69857,1,0,0:0:0:0:
256,192,69993,1,8,0:0:0:0:
256,192,70130,1,8,0:0:0:0:
256,192,70266,1,8,0:0:0:0:
256,192,70402,1,0,0:0:0:0:
256,192,70811,1,4,0:0:0:0:
256,192,71220,1,4,0:0:0:0:
256,192,71493,1,8,0:0:0:0:
256,192,72584,1,8,0:0:0:0:
256,192,72993,1,4,0:0:0:0:
256,192,73402,1,4,0:0:0:0:
256,192,73675,1,8,0:0:0:0:
256,192,74766,1,8,0:0:0:0:
256,192,75175,1,4,0:0:0:0:
256,192,75584,1,4,0:0:0:0:
256,192,75857,1,8,0:0:0:0:
256,192,76948,1,8,0:0:0:0:
256,192,77493,1,4,0:0:0:0:
256,192,78584,1,4,0:0:0:0:
256,192,78993,1,12,0:0:0:0:
256,192,79402,1,4,0:0:0:0:
256,192,79675,1,12,0:0:0:0:
256,192,79948,1,0,0:0:0:0:
256,192,80220,1,8,0:0:0:0:
256,192,80493,1,0,0:0:0:0:
256,192,80630,1,0,0:0:0:0:
256,192,80766,1,8,0:0:0:0:
256,192,81039,1,0,0:0:0:0:
256,192,81311,1,8,0:0:0:0:
256,192,81584,1,8,0:0:0:0:
256,192,81720,1,8,0:0:0:0:
256,192,81857,1,4,0:0:0:0:
256,192,82130,1,4,0:0:0:0:
256,192,82402,1,8,0:0:0:0:
256,192,82675,1,0,0:0:0:0:
256,192,82811,1,0,0:0:0:0:
256,192,82948,1,8,0:0:0:0:
256,192,83220,1,0,0:0:0:0:
256,192,83493,1,8,0:0:0:0:
256,192,83766,1,8,0:0:0:0:
256,192,83902,1,8,0:0:0:0:
256,192,84039,1,0,0:0:0:0:
256,192,84311,1,0,0:0:0:0:
256,192,84584,1,8,0:0:0:0:
256,192,84857,1,8,0:0:0:0:
256,192,85130,1,0,0:0:0:0:
256,192,85266,1,0,0:0:0:0:
256,192,85402,1,8,0:0:0:0:
256,192,85539,1,0,0:0:0:0:
256,192,85675,1,8,0:0:0:0:
256,192,85811,1,0,0:0:0:0:
256,192,85880,1,0,0:0:0:0:
256,192,85948,1,0,0:0:0:0:
256,192,86084,1,8,0:0:0:0:
256,192,86220,1,0,0:0:0:0:
256,192,87311,1,8,0:0:0:0:
256,192,87448,1,8,0:0:0:0:
256,192,87720,1,8,0:0:0:0:
256,192,87857,1,0,0:0:0:0:
256,192,87993,1,0,0:0:0:0:
256,192,88130,1,12,0:0:0:0:
256,192,88402,1,4,0:0:0:0:
256,192,88948,1,8,0:0:0:0:
256,192,89084,1,0,0:0:0:0:
256,192,89152,1,0,0:0:0:0:
256,192,89220,1,0,0:0:0:0:
256,192,89357,1,8,0:0:0:0:
256,192,89493,1,0,0:0:0:0:
256,192,89630,1,0,0:0:0:0:
256,192,89766,1,8,0:0:0:0:
256,192,90039,1,0,0:0:0:0:
256,192,90175,1,0,0:0:0:0:
256,192,90311,1,8,0:0:0:0:
256,192,90448,1,8,0:0:0:0:
256,192,90584,1,0,0:0:0:0:
256,192,90720,1,8,0:0:0:0:
256,192,90789,1,8,0:0:0:0:
256,192,90857,1,8,0:0:0:0:
256,192,90993,1,0,0:0:0:0:
256,192,91130,1,8,0:0:0:0:
256,192,91402,1,8,0:0:0:0:
256,192,91539,1,8,0:0:0:0:
256,192,91675,1,0,0:0:0:0:
256,192,91811,1,0,0:0:0:0:
256,192,91948,1,8,0:0:0:0:
256,192,92220,1,12,0:0:0:0:
256,192,92766,1,4,0:0:0:0:
256,192,93311,1,8,0:0:0:0:
256,192,93448,1,0,0:0:0:0:
256,192,93516,1,0,0:0:0:0:
256,192,93584,1,0,0:0:0:0:
256,192,93720,1,8,0:0:0:0:
256,192,93857,1,0,0:0:0:0:
256,192,93993,1,0,0:0:0:0:
256,192,94130,1,8,0:0:0:0:
256,192,94402,1,0,0:0:0:0:
256,192,94539,1,8,0:0:0:0:
256,192,94675,1,8,0:0:0:0:
256,192,94811,1,0,0:0:0:0:
256,192,94948,1,8,0:0:0:0:
256,192,95084,1,8,0:0:0:0:
256,192,95152,1,8,0:0:0:0:
256,192,95220,1,8,0:0:0:0:
256,192,95357,1,0,0:0:0:0:
256,192,95493,1,8,0:0:0:0:
256,192,95766,1,8,0:0:0:0:
256,192,96039,1,0,0:0:0:0:
256,192,96311,1,8,0:0:0:0:
256,192,96448,1,8,0:0:0:0:
256,192,96584,1,4,0:0:0:0:
256,192,96993,1,4,0:0:0:0:
256,192,97402,1,4,0:0:0:0:
256,192,97675,1,8,0:0:0:0:
256,192,97811,1,0,0:0:0:0:
256,192,97880,1,0,0:0:0:0:
256,192,97948,1,0,0:0:0:0:
256,192,98084,1,8,0:0:0:0:
256,192,98220,1,0,0:0:0:0:
256,192,98357,1,0,0:0:0:0:
256,192,98493,1,8,0:0:0:0:
256,192,98766,1,0,0:0:0:0:
256,192,98902,1,0,0:0:0:0:
256,192,99039,1,8,0:0:0:0:
256,192,99311,1,0,0:0:0:0:
256,192,99448,1,8,0:0:0:0:
256,192,99516,1,8,0:0:0:0:
256,192,99584,1,8,0:0:0:0:
256,192,99720,1,0,0:0:0:0:
256,192,99857,1,8,0:0:0:0:
256,192,99993,1,0,0:0:0:0:
256,192,100130,1,8,0:0:0:0:
256,192,100266,1,0,0:0:0:0:
256,192,100402,1,0,0:0:0:0:
256,192,100675,1,0,0:0:0:0:
256,192,100811,1,0,0:0:0:0:
256,192,100948,1,12,0:0:0:0:
256,192,101493,1,4,0:0:0:0:
256,192,102039,1,8,0:0:0:0:
256,192,102175,1,0,0:0:0:0:
256,192,102243,1,0,0:0:0:0:
256,192,102311,1,0,0:0:0:0:
256,192,102448,1,8,0:0:0:0:
256,192,102584,1,0,0:0:0:0:
256,192,102720,1,0,0:0:0:0:
256,192,102857,1,8,0:0:0:0:
256,192,103130,1,0,0:0:0:0:
256,192,103266,1,0,0:0:0:0:
256,192,103402,1,8,0:0:0:0:
256,192,103539,1,0,0:0:0:0:
256,192,103675,1,8,0:0:0:0:
256,192,103811,1,8,0:0:0:0:
256,192,103880,1,8,0:0:0:0:
256,192,103948,1,8,0:0:0:0:
256,192,104084,1,0,0:0:0:0:
256,192,104220,1,8,0:0:0:0:
256,192,104493,1,8,0:0:0:0:
256,192,104766,1,0,0:0:0:0:
256,192,104902,1,0,0:0:0:0:
256,192,105175,1,0,0:0:0:0:
256,192,105311,1,8,0:0:0:0:
256,192,105448,1,8,0:0:0:0:
256,192,105584,1,0,0:0:0:0:
256,192,105720,1,8,0:0:0:0:
256,192,105857,1,4,0:0:0:0:
256,192,106402,1,0,0:0:0:0:
256,192,106539,1,0,0:0:0:0:
256,192,106607,1,0,0:0:0:0:
256,192,106675,1,0,0:0:0:0:
256,192,106811,1,8,0:0:0:0:
256,192,106948,1,0,0:0:0:0:
256,192,107084,1,0,0:0:0:0:
256,192,107220,1,8,0:0:0:0:
256,192,107493,1,0,0:0:0:0:
256,192,107630,1,0,0:0:0:0:
256,192,107766,1,8,0:0:0:0:
256,192,107902,1,8,0:0:0:0:
256,192,108039,1,0,0:0:0:0:
256,192,108175,1,0,0:0:0:0:
256,192,108243,1,0,0:0:0:0:
256,192,108311,1,0,0:0:0:0:
256,192,108448,1,8,0:0:0:0:
256,192,108584,1,0,0:0:0:0:
256,192,108720,1,0,0:0:0:0:
256,192,108857,1,8,0:0:0:0:
256,192,109130,1,0,0:0:0:0:
256,192,109402,1,8,0:0:0:0:
256,192,109539,1,0,0:0:0:0:
256,192,109675,1,12,0:0:0:0:
256,192,110220,1,4,0:0:0:0:
256,192,110766,1,8,0:0:0:0:
256,192,110902,1,0,0:0:0:0:
256,192,110970,1,0,0:0:0:0:
256,192,111039,1,0,0:0:0:0:
256,192,111175,1,8,0:0:0:0:
256,192,111311,1,0,0:0:0:0:
256,192,111448,1,0,0:0:0:0:
256,192,111584,1,8,0:0:0:0:
256,192,111857,1,0,0:0:0:0:
256,192,111993,1,0,0:0:0:0:
256,192,112130,1,8,0:0:0:0:
256,192,112266,1,8,0:0:0:0:
256,192,112402,1,0,0:0:0:0:
256,192,112539,1,8,0:0:0:0:
256,192,112607,1,8,0:0:0:0:
256,192,112675,1,8,0:0:0:0:
256,192,112811,1,0,0:0:0:0:
256,192,112948,1,8,0:0:0:0:
256,192,113084,1,0,0:0:0:0:
256,192,113220,1,8,0:0:0:0:
256,192,113493,1,0,0:0:0:0:
256,192,113766,1,8,0:0:0:0:
256,192,113902,1,8,0:0:0:0:
256,192,114039,1,4,0:0:0:0:
256,192,114448,1,4,0:0:0:0:
256,192,114857,1,4,0:0:0:0:
256,192,115130,1,0,0:0:0:0:
256,192,115266,1,0,0:0:0:0:
256,192,115334,1,0,0:0:0:0:
256,192,115402,1,0,0:0:0:0:
256,192,115539,1,8,0:0:0:0:
256,192,115675,1,0,0:0:0:0:
256,192,115811,1,0,0:0:0:0:
256,192,115948,1,8,0:0:0:0:
256,192,116220,1,0,0:0:0:0:
256,192,116357,1,0,0:0:0:0:
256,192,116493,1,8,0:0:0:0:
256,192,116766,1,0,0:0:0:0:
256,192,116902,1,0,0:0:0:0:
256,192,116970,1,0,0:0:0:0:
256,192,117039,1,0,0:0:0:0:
256,192,117175,1,8,0:0:0:0:
256,192,117311,1,0,0:0:0:0:
256,192,117448,1,0,0:0:0:0:
256,192,117584,1,8,0:0:0:0:
256,192,117720,1,8,0:0:0:0:
256,192,117857,1,0,0:0:0:0:
256,192,118130,1,0,0:0:0:0:
256,192,118266,1,0,0:0:0:0:
256,192,118402,1,12,0:0:0:0:
256,192,118948,1,4,0:0:0:0:
256,192,119493,1,8,0:0:0:0:
256,192,119630,1,0,0:0:0:0:
256,192,119698,1,0,0:0:0:0:
256,192,119766,1,0,0:0:0:0:
256,192,119902,1,8,0:0:0:0:
256,192,120039,1,0,0:0:0:0:
256,192,120175,1,0,0:0:0:0:
256,192,120311,1,8,0:0:0:0:
256,192,120584,1,0,0:0:0:0:
256,192,120720,1,0,0:0:0:0:
256,192,120857,1,8,0:0:0:0:
256,192,120993,1,8,0:0:0:0:
256,192,121130,1,0,0:0:0:0:
256,192,121266,1,8,0:0:0:0:
256,192,121334,1,8,0:0:0:0:
256,192,121402,1,8,0:0:0:0:
256,192,121539,1,0,0:0:0:0:
256,192,121675,1,8,0:0:0:0:
256,192,121948,1,8,0:0:0:0:
256,192,122220,1,0,0:0:0:0:
256,192,122357,1,8,0:0:0:0:
256,192,122493,1,8,0:0:0:0:
256,192,122630,1,8,0:0:0:0:
256,192,122766,1,0,0:0:0:0:
256,192,123175,1,4,0:0:0:0:
256,192,123584,1,4,0:0:0:0:
