osu file format v14

[General]
AudioFilename: audio.mp3
AudioLeadIn: 0
PreviewTime: 36039
Countdown: 0
SampleSet: Normal
StackLeniency: 0.7
Mode: 1
LetterboxInBreaks: 0
WidescreenStoryboard: 1

[Editor]
DistanceSpacing: 0.8
BeatDivisor: 4
GridSize: 32
TimelineZoom: 1.699999

[Metadata]
Title:ERROR CODE
TitleUnicode:ERROR CODE
Artist:C-Show
ArtistUnicode:C-Show
Creator:incandescence
Version:Ozzy's Inner Oni
Source:SOUND VOLTEX III GRAVITY WARS
Tags:SDVX KONAMI BEMANI ULTIMATE TRACKS -FLOOR ANTHEM- EP.01 OzzyOzrock taikocracy
BeatmapID:1507328
BeatmapSetID:712757

[Difficulty]
HPDrainRate:6
CircleSize:5
OverallDifficulty:6
ApproachRate:6
SliderMultiplier:1.4
SliderTickRate:1

[Events]
//Background and Video events
0,0,"maxresdefault.jpg",0,50
//Break Periods
//Storyboard Layer 0 (Background)
//Storyboard Layer 1 (Fail)
//Storyboard Layer 2 (Pass)
//Storyboard Layer 3 (Foreground)
//Storyboard Sound Samples

[TimingPoints]
1130,272.727272727273,4,1,0,100,1,0
88402,-100,4,1,0,100,0,1
104766,-100,4,1,0,100,0,0
105857,-100,4,1,0,100,0,1
123175,-100,4,1,0,100,0,0

[HitObjects]
0,256,1130,5,0,0:0:0:0:
128,288,1402,1,0,0:0:0:0:
352,256,1539,1,8,0:0:0:0:
128,288,1811,1,0,0:0:0:0:
128,288,1948,1,0,0:0:0:0:
352,256,2220,1,8,0:0:0:0:
352,288,2357,1,8,0:0:0:0:
352,288,2493,1,8,0:0:0:0:
352,288,2766,1,8,0:0:0:0:
160,288,2902,1,0,0:0:0:0:
64,256,3311,1,0,0:0:0:0:
128,288,3448,1,0,0:0:0:0:
128,288,3584,1,0,0:0:0:0:
384,288,3720,1,8,0:0:0:0:
160,288,3993,1,0,0:0:0:0:
160,288,4130,1,0,0:0:0:0:
320,224,4402,1,8,0:0:0:0:
352,256,4539,1,8,0:0:0:0:
352,256,4675,1,8,0:0:0:0:
32,256,4811,1,0,0:0:0:0:
352,128,4948,1,12,0:0:0:0:
128,128,5084,1,4,0:0:0:0:
64,256,5493,1,0,0:0:0:0:
128,288,5766,1,0,0:0:0:0:
352,288,5902,1,8,0:0:0:0:
96,288,6175,1,0,0:0:0:0:
128,288,6311,1,0,0:0:0:0:
320,288,6584,1,8,0:0:0:0:
320,256,6720,1,8,0:0:0:0:
320,256,6857,1,8,0:0:0:0:
320,256,7130,1,8,0:0:0:0:
128,288,7266,1,0,0:0:0:0:
64,288,7675,1,0,0:0:0:0:
64,288,7811,1,0,0:0:0:0:
128,224,7948,1,0,0:0:0:0:
384,288,8084,1,8,0:0:0:0:
128,288,8357,1,0,0:0:0:0:
128,288,8493,1,0,0:0:0:0:
352,288,8766,1,8,0:0:0:0:
352,288,8902,1,8,0:0:0:0:
352,288,9039,1,8,0:0:0:0:
64,256,9175,1,0,0:0:0:0:
352,288,9311,1,8,0:0:0:0:
320,288,9448,1,8,0:0:0:0:
160,288,9584,1,0,0:0:0:0:
128,288,9720,1,4,0:0:0:0:
160,288,10130,1,0,0:0:0:0:
384,256,10266,1,8,0:0:0:0:
192,288,10402,1,0,0:0:0:0:
192,288,10539,1,0,0:0:0:0:
384,256,10675,1,8,0:0:0:0:
160,288,10948,1,0,0:0:0:0:
384,288,11084,1,8,0:0:0:0:
192,288,11220,1,0,0:0:0:0:
384,288,11493,1,8,0:0:0:0:
160,288,11630,1,0,0:0:0:0:
160,288,11766,1,0,0:0:0:0:
384,288,11902,1,8,0:0:0:0:
160,288,12039,1,0,0:0:0:0:
160,288,12175,1,0,0:0:0:0:
160,288,12311,1,0,0:0:0:0:
384,288,12448,1,8,0:0:0:0:
160,256,12720,1,0,0:0:0:0:
160,256,12857,1,0,0:0:0:0:
352,288,13130,1,8,0:0:0:0:
352,288,13266,1,8,0:0:0:0:
128,288,13402,1,0,0:0:0:0:
128,288,13539,1,0,0:0:0:0:
128,320,13675,1,0,0:0:0:0:
384,320,13811,1,8,0:0:0:0:
384,320,13948,1,8,0:0:0:0:
384,320,14084,1,8,0:0:0:0:
128,288,14220,1,0,0:0:0:0:
64,288,14493,1,0,0:0:0:0:
352,288,14630,1,8,0:0:0:0:
160,288,14766,1,0,0:0:0:0:
160,288,14902,1,0,0:0:0:0:
384,288,15039,1,8,0:0:0:0:
384,288,15311,1,8,0:0:0:0:
384,288,15448,1,8,0:0:0:0:
160,288,15584,1,0,0:0:0:0:
384,288,15857,1,8,0:0:0:0:
192,320,15993,1,0,0:0:0:0:
160,288,16130,1,0,0:0:0:0:
384,288,16266,1,8,0:0:0:0:
160,320,16402,1,0,0:0:0:0:
352,256,16539,1,8,0:0:0:0:
352,256,16675,1,8,0:0:0:0:
352,256,16811,1,8,0:0:0:0:
96,288,17084,1,0,0:0:0:0:
352,288,17220,1,8,0:0:0:0:
128,288,17493,5,0,0:0:0:0:
352,288,17630,1,8,0:0:0:0:
352,288,17766,1,8,0:0:0:0:
160,288,17902,1,0,0:0:0:0:
352,288,18039,1,8,0:0:0:0:
352,288,18175,1,8,0:0:0:0:
352,288,18311,1,8,0:0:0:0:
64,128,18448,5,4,0:0:0:0:
96,128,18857,1,4,0:0:0:0:
416,288,19130,1,8,0:0:0:0:
416,288,19675,1,8,0:0:0:0:
416,288,20220,1,8,0:0:0:0:
384,288,20493,1,8,0:0:0:0:
128,192,20630,1,4,0:0:0:0:
64,64,21039,1,4,0:0:0:0:
416,288,21311,1,8,0:0:0:0:
416,288,21857,1,8,0:0:0:0:
416,288,22402,1,8,0:0:0:0:
160,128,22811,1,4,0:0:0:0:
64,128,23220,1,4,0:0:0:0:
288,256,23494,1,8,0:0:0:0:
384,256,24039,1,8,0:0:0:0:
352,224,24584,1,8,0:0:0:0:
160,256,24857,1,0,0:0:0:0:
160,256,24925,1,0,0:0:0:0:
160,256,24993,1,0,0:0:0:0:
128,96,25130,1,4,0:0:0:0:
160,256,26084,1,0,0:0:0:0:
128,96,26220,1,4,0:0:0:0:
160,288,26493,1,0,0:0:0:0:
384,96,26630,1,12,0:0:0:0:
128,256,26902,1,0,0:0:0:0:
384,96,27039,1,12,0:0:0:0:
384,96,27175,1,8,0:0:0:0:
160,224,27311,1,4,0:0:0:0:
160,288,27584,1,0,0:0:0:0:
352,256,27857,1,8,0:0:0:0:
160,288,27993,1,0,0:0:0:0:
160,288,28061,1,0,0:0:0:0:
160,288,28130,1,0,0:0:0:0:
160,288,28266,1,0,0:0:0:0:
352,256,28402,1,8,0:0:0:0:
192,256,28539,1,0,0:0:0:0:
192,256,28675,1,0,0:0:0:0:
352,256,28811,1,8,0:0:0:0:
128,288,29084,1,0,0:0:0:0:
320,288,29357,1,8,0:0:0:0:
160,288,29493,1,0,0:0:0:0:
192,288,29630,1,0,0:0:0:0:
320,256,29766,1,8,0:0:0:0:
320,256,29902,1,8,0:0:0:0:
128,256,30039,1,0,0:0:0:0:
160,224,30175,1,0,0:0:0:0:
64,256,30243,1,0,0:0:0:0:
160,224,30311,1,0,0:0:0:0:
352,256,30448,1,8,0:0:0:0:
352,256,30584,1,8,0:0:0:0:
352,256,30652,1,8,0:0:0:0:
160,288,30720,1,0,0:0:0:0:
160,288,30857,1,0,0:0:0:0:
352,256,30993,1,8,0:0:0:0:
160,288,31266,1,0,0:0:0:0:
352,256,31402,1,8,0:0:0:0:
352,256,31470,1,8,0:0:0:0:
352,256,31539,1,8,0:0:0:0:
352,256,31607,1,8,0:0:0:0:
192,288,31675,1,0,0:0:0:0:
320,256,31811,1,8,0:0:0:0:
160,288,31948,1,0,0:0:0:0:
320,256,32084,1,8,0:0:0:0:
192,288,32220,1,0,0:0:0:0:
192,288,32289,1,0,0:0:0:0:
320,256,32357,1,8,0:0:0:0:
192,288,32493,1,0,0:0:0:0:
192,288,32561,1,0,0:0:0:0:
288,256,32630,1,8,0:0:0:0:
160,288,32766,1,0,0:0:0:0:
160,288,32834,1,0,0:0:0:0:
320,288,32902,1,8,0:0:0:0:
160,288,33039,1,0,0:0:0:0:
160,288,33107,1,0,0:0:0:0:
288,288,33175,1,8,0:0:0:0:
288,288,33243,1,8,0:0:0:0:
160,288,33311,1,0,0:0:0:0:
160,288,33380,1,0,0:0:0:0:
160,288,33448,1,0,0:0:0:0:
160,288,33516,1,0,0:0:0:0:
320,256,33584,1,8,0:0:0:0:
320,256,33652,1,8,0:0:0:0:
320,288,33720,1,8,0:0:0:0:
320,288,33789,1,8,0:0:0:0:
64,256,33857,1,0,0:0:0:0:
352,256,34948,1,8,0:0:0:0:
352,256,35084,1,8,0:0:0:0:
352,256,35357,1,8,0:0:0:0:
128,288,35493,1,0,0:0:0:0:
128,288,35630,1,0,0:0:0:0:
352,288,35766,1,8,0:0:0:0:
352,288,35902,1,8,0:0:0:0:
64,128,36039,1,4,0:0:0:0:
416,288,36584,1,8,0:0:0:0:
192,288,36720,1,0,0:0:0:0:
192,288,36789,1,0,0:0:0:0:
320,288,36857,1,8,0:0:0:0:
352,288,36993,1,8,0:0:0:0:
128,288,37130,1,0,0:0:0:0:
384,288,37266,1,8,0:0:0:0:
160,288,37402,1,0,0:0:0:0:
352,288,37539,1,8,0:0:0:0:
192,288,37675,1,0,0:0:0:0:
352,288,37811,1,8,0:0:0:0:
224,288,37879,1,0,0:0:0:0:
352,288,37947,1,8,0:0:0:0:
192,288,38016,1,0,0:0:0:0:
352,288,38084,1,8,0:0:0:0:
352,288,38220,1,8,0:0:0:0:
192,288,38357,1,0,0:0:0:0:
192,288,38425,1,0,0:0:0:0:
320,288,38493,1,8,0:0:0:0:
352,288,38630,1,8,0:0:0:0:
160,288,38766,1,0,0:0:0:0:
352,288,38902,1,8,0:0:0:0:
160,288,39039,1,0,0:0:0:0:
352,288,39175,1,8,0:0:0:0:
192,288,39311,1,0,0:0:0:0:
320,288,39448,1,8,0:0:0:0:
384,288,39516,1,8,0:0:0:0:
320,288,39584,1,8,0:0:0:0:
384,288,39720,1,8,0:0:0:0:
352,96,39857,1,12,0:0:0:0:
128,128,39993,1,4,0:0:0:0:
128,128,40402,1,4,0:0:0:0:
416,288,40948,1,8,0:0:0:0:
192,288,41084,1,0,0:0:0:0:
192,288,41153,1,0,0:0:0:0:
320,288,41221,1,8,0:0:0:0:
352,288,41357,1,8,0:0:0:0:
128,288,41494,1,0,0:0:0:0:
384,288,41630,1,8,0:0:0:0:
160,288,41766,1,0,0:0:0:0:
352,288,41903,1,8,0:0:0:0:
64,288,42039,1,0,0:0:0:0:
288,288,42107,1,8,0:0:0:0:
160,288,42175,1,0,0:0:0:0:
288,288,42243,1,8,0:0:0:0:
160,288,42311,1,0,0:0:0:0:
160,288,42448,1,0,0:0:0:0:
352,288,42584,1,8,0:0:0:0:
192,288,42721,1,0,0:0:0:0:
320,288,42789,1,8,0:0:0:0:
320,288,42857,1,8,0:0:0:0:
352,288,42994,1,8,0:0:0:0:
160,288,43130,1,0,0:0:0:0:
352,288,43266,1,8,0:0:0:0:
160,288,43403,1,0,0:0:0:0:
352,288,43539,1,8,0:0:0:0:
192,288,43675,1,0,0:0:0:0:
320,288,43812,1,8,0:0:0:0:
384,288,43880,1,8,0:0:0:0:
320,288,43948,1,8,0:0:0:0:
384,288,44084,1,8,0:0:0:0:
352,256,44220,1,8,0:0:0:0:
160,256,44357,1,0,0:0:0:0:
352,256,44493,1,8,0:0:0:0:
192,160,44630,1,4,0:0:0:0:
192,160,45039,1,4,0:0:0:0:
352,256,45311,1,8,0:0:0:0:
192,256,45448,1,0,0:0:0:0:
192,256,45516,1,0,0:0:0:0:
320,256,45584,1,8,0:0:0:0:
320,256,45720,1,8,0:0:0:0:
160,256,45857,1,0,0:0:0:0:
416,256,45993,1,8,0:0:0:0:
160,256,46130,1,0,0:0:0:0:
384,256,46266,1,8,0:0:0:0:
128,128,46402,1,4,0:0:0:0:
128,128,46539,1,4,0:0:0:0:
128,128,46675,1,4,0:0:0:0:
448,288,46948,1,8,0:0:0:0:
160,256,47084,1,0,0:0:0:0:
160,256,47152,1,0,0:0:0:0:
416,288,47220,1,8,0:0:0:0:
416,288,47357,1,8,0:0:0:0:
96,288,47493,1,0,0:0:0:0:
384,288,47630,1,8,0:0:0:0:
128,288,47766,1,0,0:0:0:0:
352,256,47902,1,8,0:0:0:0:
96,288,48039,1,0,0:0:0:0:
320,288,48175,1,8,0:0:0:0:
320,288,48243,1,8,0:0:0:0:
320,288,48311,1,8,0:0:0:0:
352,288,48448,1,8,0:0:0:0:
384,96,48584,1,12,0:0:0:0:
128,96,48720,1,4,0:0:0:0:
128,96,49130,1,4,0:0:0:0:
320,256,49675,1,8,0:0:0:0:
160,288,49811,1,0,0:0:0:0:
160,288,49880,1,0,0:0:0:0:
288,288,49948,1,8,0:0:0:0:
288,256,50084,1,8,0:0:0:0:
128,288,50220,1,0,0:0:0:0:
288,288,50357,1,8,0:0:0:0:
128,288,50493,1,0,0:0:0:0:
288,256,50630,1,8,0:0:0:0:
128,288,50766,1,0,0:0:0:0:
256,288,50834,1,8,0:0:0:0:
160,288,50902,1,0,0:0:0:0:
256,288,50970,1,8,0:0:0:0:
160,288,51039,1,0,0:0:0:0:
288,288,51107,1,8,0:0:0:0:
128,288,51175,1,0,0:0:0:0:
448,288,51311,1,8,0:0:0:0:
192,256,51448,1,0,0:0:0:0:
320,288,51516,1,8,0:0:0:0:
320,288,51584,1,8,0:0:0:0:
320,288,51720,1,8,0:0:0:0:
128,256,51857,1,0,0:0:0:0:
352,256,51993,1,8,0:0:0:0:
384,288,52061,1,8,0:0:0:0:
320,288,52130,1,8,0:0:0:0:
384,288,52266,1,8,0:0:0:0:
96,288,52402,1,0,0:0:0:0:
298,290,52539,1,8,0:0:0:0:
339,336,52811,1,8,0:0:0:0:
128,224,52948,1,0,0:0:0:0:
371,272,53084,1,8,0:0:0:0:
106,304,53220,1,0,0:0:0:0:
352,256,53357,1,8,0:0:0:0:
160,128,53493,1,4,0:0:0:0:
128,320,54039,1,0,0:0:0:0:
128,320,54175,1,0,0:0:0:0:
128,320,54243,1,0,0:0:0:0:
320,320,54311,1,8,0:0:0:0:
160,320,54448,1,0,0:0:0:0:
352,320,54584,1,8,0:0:0:0:
160,320,54720,1,0,0:0:0:0:
352,288,54857,1,8,0:0:0:0:
128,320,54993,1,0,0:0:0:0:
288,256,55130,1,8,0:0:0:0:
160,288,55198,1,0,0:0:0:0:
384,288,55266,1,8,0:0:0:0:
160,288,55334,1,0,0:0:0:0:
352,288,55402,1,8,0:0:0:0:
160,288,55470,1,0,0:0:0:0:
352,288,55538,1,8,0:0:0:0:
96,288,55675,1,0,0:0:0:0:
128,320,55811,1,0,0:0:0:0:
128,288,55880,1,0,0:0:0:0:
320,320,55948,1,8,0:0:0:0:
128,320,56084,1,0,0:0:0:0:
320,320,56220,1,8,0:0:0:0:
128,288,56357,1,0,0:0:0:0:
320,320,56493,1,8,0:0:0:0:
128,288,56630,1,0,0:0:0:0:
352,288,56766,1,8,0:0:0:0:
352,288,56902,1,8,0:0:0:0:
352,288,56970,1,8,0:0:0:0:
160,288,57039,1,0,0:0:0:0:
160,288,57107,1,0,0:0:0:0:
320,288,57175,1,8,0:0:0:0:
320,96,57311,1,12,0:0:0:0:
128,128,57448,1,4,0:0:0:0:
128,128,57857,1,4,0:0:0:0:
160,288,58402,1,0,0:0:0:0:
160,288,58539,1,0,0:0:0:0:
160,288,58607,1,0,0:0:0:0:
288,288,58675,1,8,0:0:0:0:
160,320,58811,1,0,0:0:0:0:
320,288,58948,1,8,0:0:0:0:
160,288,59084,1,0,0:0:0:0:
320,288,59220,1,8,0:0:0:0:
160,288,59357,1,0,0:0:0:0:
352,288,59493,1,8,0:0:0:0:
160,288,59561,1,0,0:0:0:0:
320,288,59630,1,8,0:0:0:0:
160,288,59698,1,0,0:0:0:0:
288,320,59766,1,8,0:0:0:0:
128,288,59834,1,0,0:0:0:0:
256,288,59902,1,8,0:0:0:0:
352,256,60039,1,8,0:0:0:0:
160,256,60175,1,0,0:0:0:0:
320,256,60243,1,8,0:0:0:0:
160,256,60311,1,0,0:0:0:0:
320,256,60448,1,8,0:0:0:0:
128,288,60584,1,0,0:0:0:0:
320,256,60720,1,8,0:0:0:0:
160,288,60857,1,0,0:0:0:0:
320,256,60993,1,8,0:0:0:0:
64,256,61130,1,0,0:0:0:0:
320,288,61266,1,8,0:0:0:0:
320,288,61334,1,8,0:0:0:0:
320,288,61402,1,8,0:0:0:0:
320,288,61539,1,8,0:0:0:0:
160,256,61675,1,0,0:0:0:0:
352,288,61811,1,8,0:0:0:0:
352,288,61948,1,8,0:0:0:0:
160,128,62084,1,4,0:0:0:0:
128,128,62493,1,4,0:0:0:0:
128,288,62766,1,0,0:0:0:0:
128,288,62902,1,0,0:0:0:0:
128,288,62970,1,0,0:0:0:0:
288,288,63039,1,8,0:0:0:0:
128,288,63175,1,0,0:0:0:0:
352,288,63311,1,8,0:0:0:0:
128,288,63448,1,0,0:0:0:0:
352,288,63584,1,8,0:0:0:0:
160,320,63720,1,0,0:0:0:0:
320,64,63857,1,12,0:0:0:0:
416,96,63993,1,12,0:0:0:0:
416,96,64130,1,12,0:0:0:0:
32,288,64402,1,0,0:0:0:0:
128,320,64539,1,0,0:0:0:0:
128,320,64607,1,0,0:0:0:0:
384,320,64675,1,8,0:0:0:0:
160,288,64811,1,0,0:0:0:0:
384,320,64948,1,8,0:0:0:0:
160,320,65084,1,0,0:0:0:0:
384,288,65220,1,8,0:0:0:0:
192,320,65357,1,0,0:0:0:0:
320,288,65493,1,8,0:0:0:0:
384,288,65630,1,8,0:0:0:0:
160,288,65698,1,0,0:0:0:0:
352,288,65766,1,8,0:0:0:0:
128,288,65834,1,0,0:0:0:0:
320,288,65902,1,8,0:0:0:0:
384,64,66039,1,12,0:0:0:0:
192,96,66175,1,4,0:0:0:0:
160,96,66584,1,4,0:0:0:0:
160,288,67130,1,0,0:0:0:0:
160,288,67266,1,0,0:0:0:0:
160,288,67334,1,0,0:0:0:0:
288,256,67402,1,8,0:0:0:0:
192,288,67539,1,0,0:0:0:0:
320,256,67675,1,8,0:0:0:0:
160,288,67811,1,0,0:0:0:0:
320,256,67948,1,8,0:0:0:0:
160,288,68084,1,0,0:0:0:0:
160,288,68220,1,0,0:0:0:0:
320,288,68289,1,8,0:0:0:0:
192,320,68357,1,0,0:0:0:0:
352,288,68425,1,8,0:0:0:0:
192,288,68493,1,0,0:0:0:0:
352,288,68561,1,8,0:0:0:0:
192,288,68630,1,0,0:0:0:0:
352,288,68766,1,8,0:0:0:0:
192,320,68902,1,0,0:0:0:0:
192,320,68970,1,0,0:0:0:0:
352,288,69039,1,8,0:0:0:0:
352,288,69175,1,8,0:0:0:0:
192,320,69311,1,0,0:0:0:0:
352,288,69448,1,8,0:0:0:0:
384,288,69516,1,8,0:0:0:0:
192,320,69584,1,0,0:0:0:0:
352,288,69720,1,8,0:0:0:0:
224,352,69857,1,0,0:0:0:0:
384,288,69993,1,8,0:0:0:0:
384,288,70061,1,8,0:0:0:0:
384,288,70130,1,8,0:0:0:0:
384,320,70266,1,8,0:0:0:0:
224,352,70402,1,0,0:0:0:0:
384,288,70539,1,8,0:0:0:0:
96,288,70675,1,0,0:0:0:0:
128,128,70811,1,4,0:0:0:0:
128,96,71220,1,4,0:0:0:0:
320,288,71493,1,8,0:0:0:0:
320,288,72039,1,8,0:0:0:0:
320,288,72584,1,8,0:0:0:0:
352,288,72857,1,8,0:0:0:0:
160,128,72993,1,4,0:0:0:0:
96,96,73402,1,4,0:0:0:0:
320,288,73675,1,8,0:0:0:0:
320,288,74220,1,8,0:0:0:0:
320,288,74766,1,8,0:0:0:0:
128,64,75175,1,4,0:0:0:0:
128,64,75584,1,4,0:0:0:0:
352,256,75857,1,8,0:0:0:0:
352,320,76402,1,8,0:0:0:0:
352,320,76948,1,8,0:0:0:0:
352,320,77220,1,8,0:0:0:0:
352,320,77289,1,8,0:0:0:0:
160,288,77357,1,0,0:0:0:0:
160,96,77493,1,4,0:0:0:0:
160,288,78448,1,0,0:0:0:0:
160,128,78584,1,4,0:0:0:0:
128,256,78857,1,0,0:0:0:0:
320,128,78993,1,12,0:0:0:0:
128,288,79266,1,0,0:0:0:0:
288,128,79402,1,12,0:0:0:0:
384,256,79539,1,8,0:0:0:0:
128,128,79675,1,4,0:0:0:0:
128,320,79811,1,0,0:0:0:0:
288,288,79948,1,8,0:0:0:0:
288,288,80084,1,8,0:0:0:0:
160,288,80220,1,0,0:0:0:0:
160,288,80357,1,0,0:0:0:0:
288,288,80493,1,8,0:0:0:0:
288,288,80630,1,8,0:0:0:0:
352,256,80698,1,8,0:0:0:0:
160,256,80766,1,0,0:0:0:0:
160,256,80902,1,0,0:0:0:0:
320,224,81039,1,8,0:0:0:0:
128,288,81175,1,0,0:0:0:0:
128,288,81243,1,0,0:0:0:0:
160,288,81311,1,0,0:0:0:0:
288,256,81448,1,8,0:0:0:0:
288,256,81516,1,8,0:0:0:0:
160,256,81584,1,0,0:0:0:0:
32,288,81652,1,0,0:0:0:0:
320,224,81720,1,8,0:0:0:0:
128,128,81857,1,4,0:0:0:0:
352,288,81993,1,8,0:0:0:0:
128,128,82130,1,4,0:0:0:0:
416,256,82266,1,8,0:0:0:0:
96,288,82402,1,0,0:0:0:0:
32,256,82470,1,0,0:0:0:0:
416,256,82539,1,8,0:0:0:0:
32,256,82675,1,0,0:0:0:0:
416,256,82811,1,8,0:0:0:0:
64,288,82880,1,0,0:0:0:0:
416,256,82948,1,8,0:0:0:0:
416,256,83016,1,8,0:0:0:0:
160,256,83084,1,0,0:0:0:0:
64,288,83220,1,0,0:0:0:0:
416,256,83357,1,8,0:0:0:0:
416,256,83425,1,8,0:0:0:0:
160,256,83493,1,0,0:0:0:0:
96,288,83630,1,0,0:0:0:0:
96,288,83698,1,0,0:0:0:0:
352,288,83766,1,8,0:0:0:0:
320,224,83834,1,8,0:0:0:0:
384,256,83902,1,8,0:0:0:0:
352,224,83970,1,8,0:0:0:0:
128,288,84039,1,0,0:0:0:0:
320,192,84175,1,8,0:0:0:0:
128,256,84311,1,0,0:0:0:0:
320,256,84448,1,8,0:0:0:0:
160,320,84584,1,0,0:0:0:0:
160,320,84652,1,0,0:0:0:0:
288,288,84720,1,8,0:0:0:0:
160,320,84857,1,0,0:0:0:0:
160,320,84925,1,0,0:0:0:0:
320,288,84993,1,8,0:0:0:0:
160,320,85130,1,0,0:0:0:0:
160,320,85198,1,0,0:0:0:0:
320,320,85266,1,8,0:0:0:0:
320,320,85334,1,8,0:0:0:0:
160,320,85402,1,0,0:0:0:0:
160,320,85470,1,0,0:0:0:0:
320,288,85539,1,8,0:0:0:0:
320,288,85607,1,8,0:0:0:0:
160,320,85675,1,0,0:0:0:0:
160,320,85743,1,0,0:0:0:0:
192,320,85811,1,0,0:0:0:0:
192,320,85880,1,0,0:0:0:0:
320,288,85948,1,8,0:0:0:0:
320,288,86016,1,8,0:0:0:0:
320,288,86084,1,8,0:0:0:0:
352,288,86152,1,8,0:0:0:0:
64,256,86220,1,0,0:0:0:0:
352,256,87311,5,8,0:0:0:0:
352,256,87448,1,8,0:0:0:0:
128,288,87584,1,0,0:0:0:0:
320,256,87720,1,8,0:0:0:0:
320,256,87789,1,8,0:0:0:0:
160,288,87857,1,0,0:0:0:0:
320,256,87993,1,8,0:0:0:0:
160,288,88130,1,0,0:0:0:0:
320,256,88266,1,8,0:0:0:0:
160,128,88402,1,4,0:0:0:0:
320,256,88948,5,8,0:0:0:0:
192,288,89084,1,0,0:0:0:0:
160,288,89152,1,0,0:0:0:0:
320,256,89220,1,8,0:0:0:0:
320,256,89357,1,8,0:0:0:0:
128,288,89493,1,0,0:0:0:0:
288,256,89630,1,8,0:0:0:0:
288,256,89698,1,8,0:0:0:0:
160,288,89766,1,0,0:0:0:0:
320,256,89903,1,8,0:0:0:0:
320,288,90039,1,8,0:0:0:0:
320,288,90107,1,8,0:0:0:0:
160,288,90175,1,0,0:0:0:0:
288,288,90243,1,8,0:0:0:0:
128,288,90311,1,0,0:0:0:0:
320,288,90380,1,8,0:0:0:0:
128,288,90448,1,0,0:0:0:0:
320,288,90584,1,8,0:0:0:0:
128,288,90720,1,0,0:0:0:0:
128,288,90789,1,0,0:0:0:0:
320,256,90857,1,8,0:0:0:0:
320,288,90993,1,8,0:0:0:0:
96,288,91130,1,0,0:0:0:0:
320,288,91266,1,8,0:0:0:0:
320,288,91334,1,8,0:0:0:0:
160,288,91402,1,0,0:0:0:0:
352,288,91539,1,8,0:0:0:0:
352,288,91607,1,8,0:0:0:0:
192,288,91675,1,0,0:0:0:0:
320,288,91811,1,8,0:0:0:0:
320,288,91880,1,8,0:0:0:0:
160,288,91948,1,0,0:0:0:0:
160,288,92016,1,0,0:0:0:0:
288,288,92084,1,8,0:0:0:0:
320,0,92220,1,12,0:0:0:0:
160,32,92357,1,4,0:0:0:0:
128,64,92766,1,4,0:0:0:0:
352,256,93311,1,8,0:0:0:0:
192,288,93448,1,0,0:0:0:0:
192,288,93516,1,0,0:0:0:0:
288,288,93584,1,8,0:0:0:0:
320,288,93720,1,8,0:0:0:0:
160,288,93857,1,0,0:0:0:0:
320,256,93993,1,8,0:0:0:0:
320,256,94061,1,8,0:0:0:0:
192,288,94130,1,0,0:0:0:0:
320,256,94266,1,8,0:0:0:0:
109,323,94402,1,0,0:0:0:0:
142,330,94470,1,0,0:0:0:0:
352,288,94539,1,8,0:0:0:0:
192,320,94607,1,0,0:0:0:0:
352,288,94675,1,8,0:0:0:0:
192,320,94743,1,0,0:0:0:0:
343,297,94811,1,8,0:0:0:0:
352,320,94948,1,8,0:0:0:0:
85,339,95084,1,0,0:0:0:0:
128,320,95152,1,0,0:0:0:0:
320,320,95220,1,8,0:0:0:0:
352,288,95357,1,8,0:0:0:0:
128,320,95493,1,0,0:0:0:0:
320,288,95630,1,8,0:0:0:0:
320,288,95698,1,8,0:0:0:0:
160,320,95766,1,0,0:0:0:0:
352,288,95902,1,8,0:0:0:0:
352,288,95970,1,8,0:0:0:0:
192,320,96039,1,0,0:0:0:0:
352,288,96175,1,8,0:0:0:0:
352,288,96243,1,8,0:0:0:0:
192,288,96311,1,0,0:0:0:0:
160,288,96380,1,0,0:0:0:0:
352,288,96448,1,8,0:0:0:0:
320,288,96584,1,8,0:0:0:0:
192,288,96720,1,0,0:0:0:0:
320,288,96857,1,8,0:0:0:0:
160,128,96993,1,4,0:0:0:0:
160,128,97402,1,4,0:0:0:0:
352,256,97675,1,8,0:0:0:0:
192,256,97811,1,0,0:0:0:0:
192,256,97880,1,0,0:0:0:0:
352,288,97948,1,8,0:0:0:0:
352,256,98084,1,8,0:0:0:0:
192,288,98220,1,0,0:0:0:0:
320,256,98357,1,8,0:0:0:0:
320,256,98425,1,8,0:0:0:0:
192,288,98493,1,0,0:0:0:0:
352,256,98630,1,8,0:0:0:0:
64,128,98766,1,4,0:0:0:0:
288,96,98902,1,12,0:0:0:0:
128,128,99039,1,4,0:0:0:0:
320,256,99311,1,8,0:0:0:0:
160,288,99448,1,0,0:0:0:0:
160,288,99516,1,0,0:0:0:0:
288,256,99584,1,8,0:0:0:0:
288,256,99720,1,8,0:0:0:0:
160,288,99857,1,0,0:0:0:0:
320,256,99993,1,8,0:0:0:0:
320,256,100061,1,8,0:0:0:0:
160,288,100130,1,0,0:0:0:0:
320,256,100266,1,8,0:0:0:0:
320,256,100334,1,8,0:0:0:0:
160,288,100402,1,0,0:0:0:0:
320,256,100539,1,8,0:0:0:0:
320,256,100607,1,8,0:0:0:0:
320,256,100675,1,8,0:0:0:0:
192,288,100743,1,0,0:0:0:0:
288,288,100811,1,8,0:0:0:0:
352,128,100948,1,12,0:0:0:0:
192,128,101084,1,4,0:0:0:0:
96,128,101493,1,4,0:0:0:0:
288,224,102039,1,8,0:0:0:0:
160,288,102175,1,0,0:0:0:0:
160,288,102243,1,0,0:0:0:0:
352,288,102311,1,8,0:0:0:0:
352,288,102448,1,8,0:0:0:0:
128,320,102584,1,0,0:0:0:0:
352,256,102720,1,8,0:0:0:0:
352,256,102789,1,8,0:0:0:0:
192,288,102857,1,0,0:0:0:0:
352,288,102993,1,8,0:0:0:0:
160,288,103130,1,0,0:0:0:0:
160,288,103198,1,0,0:0:0:0:
416,288,103266,1,8,0:0:0:0:
160,288,103334,1,0,0:0:0:0:
320,288,103402,1,8,0:0:0:0:
160,288,103470,1,0,0:0:0:0:
160,288,103539,1,0,0:0:0:0:
352,288,103675,1,8,0:0:0:0:
192,288,103811,1,0,0:0:0:0:
352,288,103880,1,8,0:0:0:0:
320,288,103948,1,8,0:0:0:0:
320,288,104084,1,8,0:0:0:0:
160,288,104220,1,0,0:0:0:0:
192,320,104289,1,0,0:0:0:0:
320,256,104357,1,8,0:0:0:0:
320,256,104425,1,8,0:0:0:0:
160,288,104493,1,0,0:0:0:0:
288,256,104630,1,8,0:0:0:0:
128,288,104766,1,0,0:0:0:0:
320,288,104902,1,8,0:0:0:0:
352,256,105175,1,8,0:0:0:0:
160,288,105311,1,0,0:0:0:0:
352,256,105448,1,8,0:0:0:0:
409,274,105584,1,8,0:0:0:0:
352,256,105720,1,8,0:0:0:0:
128,128,105857,1,4,0:0:0:0:
416,256,106402,1,8,0:0:0:0:
192,256,106539,1,0,0:0:0:0:
192,256,106607,1,0,0:0:0:0:
384,256,106675,1,8,0:0:0:0:
384,256,106811,1,8,0:0:0:0:
416,256,106880,1,8,0:0:0:0:
160,256,106948,1,0,0:0:0:0:
352,288,107084,1,8,0:0:0:0:
352,288,107152,1,8,0:0:0:0:
160,256,107220,1,0,0:0:0:0:
352,256,107357,1,8,0:0:0:0:
320,256,107493,1,8,0:0:0:0:
128,256,107561,1,0,0:0:0:0:
320,256,107630,1,8,0:0:0:0:
160,256,107698,1,0,0:0:0:0:
352,288,107766,1,8,0:0:0:0:
128,256,107834,1,0,0:0:0:0:
352,288,107902,1,8,0:0:0:0:
352,256,108039,1,8,0:0:0:0:
160,256,108175,1,0,0:0:0:0:
160,256,108243,1,0,0:0:0:0:
288,256,108311,1,8,0:0:0:0:
352,256,108448,1,8,0:0:0:0:
352,256,108516,1,8,0:0:0:0:
192,256,108584,1,0,0:0:0:0:
320,256,108720,1,8,0:0:0:0:
64,256,108857,1,0,0:0:0:0:
64,256,108925,1,0,0:0:0:0:
288,256,108993,1,8,0:0:0:0:
288,256,109061,1,8,0:0:0:0:
160,256,109130,1,0,0:0:0:0:
320,256,109266,1,8,0:0:0:0:
192,288,109402,1,0,0:0:0:0:
320,256,109539,1,8,0:0:0:0:
352,128,109675,1,12,0:0:0:0:
160,128,109811,1,4,0:0:0:0:
128,128,110220,1,4,0:0:0:0:
384,256,110766,1,8,0:0:0:0:
160,256,110902,1,0,0:0:0:0:
160,256,110970,1,0,0:0:0:0:
352,256,111039,1,8,0:0:0:0:
384,256,111175,1,8,0:0:0:0:
384,224,111243,1,8,0:0:0:0:
192,256,111311,1,0,0:0:0:0:
384,256,111448,1,8,0:0:0:0:
384,256,111516,1,8,0:0:0:0:
224,256,111584,1,0,0:0:0:0:
384,256,111720,1,8,0:0:0:0:
64,288,111857,1,0,0:0:0:0:
64,288,111925,1,0,0:0:0:0:
352,256,111993,1,8,0:0:0:0:
32,256,112061,1,0,0:0:0:0:
384,256,112130,1,8,0:0:0:0:
160,288,112198,1,0,0:0:0:0:
160,288,112266,1,0,0:0:0:0:
384,256,112402,1,8,0:0:0:0:
96,320,112539,1,0,0:0:0:0:
96,320,112607,1,0,0:0:0:0:
320,288,112675,1,8,0:0:0:0:
352,288,112811,1,8,0:0:0:0:
96,288,112948,1,0,0:0:0:0:
320,288,113084,1,8,0:0:0:0:
320,288,113152,1,8,0:0:0:0:
160,288,113220,1,0,0:0:0:0:
128,288,113289,1,0,0:0:0:0:
320,288,113357,1,8,0:0:0:0:
64,256,113493,1,0,0:0:0:0:
384,320,113630,1,8,0:0:0:0:
160,288,113698,1,0,0:0:0:0:
352,320,113766,1,8,0:0:0:0:
128,288,113834,1,0,0:0:0:0:
352,288,113902,1,8,0:0:0:0:
352,288,113970,1,8,0:0:0:0:
96,288,114039,1,0,0:0:0:0:
128,288,114175,1,0,0:0:0:0:
320,256,114311,1,8,0:0:0:0:
160,160,114448,1,4,0:0:0:0:
160,160,114857,1,4,0:0:0:0:
320,256,115130,1,8,0:0:0:0:
192,288,115266,1,0,0:0:0:0:
192,288,115334,1,0,0:0:0:0:
320,288,115402,1,8,0:0:0:0:
320,256,115539,1,8,0:0:0:0:
320,256,115607,1,8,0:0:0:0:
224,288,115675,1,0,0:0:0:0:
320,256,115811,1,8,0:0:0:0:
320,256,115880,1,8,0:0:0:0:
224,288,115948,1,0,0:0:0:0:
384,288,116084,1,8,0:0:0:0:
160,128,116220,1,4,0:0:0:0:
352,96,116357,1,12,0:0:0:0:
160,128,116493,1,4,0:0:0:0:
384,256,116766,1,8,0:0:0:0:
160,256,116902,1,0,0:0:0:0:
160,256,116970,1,0,0:0:0:0:
352,288,117039,1,8,0:0:0:0:
352,288,117175,1,8,0:0:0:0:
352,288,117243,1,8,0:0:0:0:
224,288,117311,1,0,0:0:0:0:
384,288,117448,1,8,0:0:0:0:
384,288,117516,1,8,0:0:0:0:
224,288,117584,1,0,0:0:0:0:
320,256,117720,1,8,0:0:0:0:
224,288,117857,1,0,0:0:0:0:
352,288,117993,1,8,0:0:0:0:
160,288,118061,1,0,0:0:0:0:
160,288,118130,1,0,0:0:0:0:
160,288,118198,1,0,0:0:0:0:
320,288,118266,1,8,0:0:0:0:
352,128,118402,1,12,0:0:0:0:
192,128,118539,1,4,0:0:0:0:
160,288,118811,1,0,0:0:0:0:
352,96,118948,1,12,0:0:0:0:
192,288,119084,1,0,0:0:0:0:
64,288,119152,1,0,0:0:0:0:
192,288,119220,1,0,0:0:0:0:
352,288,119357,1,8,0:0:0:0:
192,288,119425,1,0,0:0:0:0:
352,288,119493,1,8,0:0:0:0:
352,288,119561,1,8,0:0:0:0:
224,288,119630,1,0,0:0:0:0:
384,288,119766,1,8,0:0:0:0:
384,288,119834,1,8,0:0:0:0:
192,288,119902,1,0,0:0:0:0:
64,288,120039,1,0,0:0:0:0:
160,288,120175,1,0,0:0:0:0:
160,288,120243,1,0,0:0:0:0:
288,288,120311,1,8,0:0:0:0:
320,288,120380,1,8,0:0:0:0:
160,288,120448,1,0,0:0:0:0:
352,256,120584,1,8,0:0:0:0:
352,256,120652,1,8,0:0:0:0:
224,256,120720,1,0,0:0:0:0:
288,256,120857,1,8,0:0:0:0:
128,288,120993,1,0,0:0:0:0:
96,256,121061,1,0,0:0:0:0:
288,256,121130,1,8,0:0:0:0:
128,288,121266,1,0,0:0:0:0:
128,288,121334,1,0,0:0:0:0:
128,288,121402,1,0,0:0:0:0:
384,288,121539,1,8,0:0:0:0:
192,288,121607,1,0,0:0:0:0:
352,288,121675,1,8,0:0:0:0:
352,288,121743,1,8,0:0:0:0:
192,288,121812,1,0,0:0:0:0:
320,256,121948,1,8,0:0:0:0:
320,256,122016,1,8,0:0:0:0:
160,256,122084,1,0,0:0:0:0:
288,320,122220,1,8,0:0:0:0:
160,320,122357,1,0,0:0:0:0:
160,320,122425,1,0,0:0:0:0:
320,320,122493,1,8,0:0:0:0:
320,320,122561,1,8,0:0:0:0:
320,320,122630,1,8,0:0:0:0:
320,288,122698,1,8,0:0:0:0:
160,288,122766,1,0,0:0:0:0:
64,288,122902,1,0,0:0:0:0:
320,288,123039,1,12,0:0:0:0:
128,128,123175,1,4,0:0:0:0:
128,128,123584,1,4,0:0:0:0:
