osu file format v14

[General]
AudioFilename: audio.mp3
AudioLeadIn: 0
PreviewTime: 36039
Countdown: 0
SampleSet: Normal
StackLeniency: 0.7
Mode: 1
LetterboxInBreaks: 0
WidescreenStoryboard: 1

[Editor]
DistanceSpacing: 0.8
BeatDivisor: 2
GridSize: 32
TimelineZoom: 1.3

[Metadata]
Title:ERROR CODE
TitleUnicode:ERROR CODE
Artist:C-Show
ArtistUnicode:C-Show
Creator:incandescence
Version:Kantan
Source:SOUND VOLTEX III GRAVITY WARS
Tags:SDVX KONAMI BEMANI ULTIMATE TRACKS -FLOOR ANTHEM- EP.01 OzzyOzrock taikocracy
BeatmapID:1506521
BeatmapSetID:712757

[Difficulty]
HPDrainRate:7
CircleSize:2
OverallDifficulty:3
ApproachRate:10
SliderMultiplier:1.2
SliderTickRate:1

[Events]
//Background and Video events
0,0,"maxresdefault.jpg",0,50
//Break Periods
//Storyboard Layer 0 (Background)
//Storyboard Layer 1 (Fail)
//Storyboard Layer 2 (Pass)
//Storyboard Layer 3 (Foreground)
//Storyboard Sound Samples

[TimingPoints]
1130,272.727272727273,4,1,0,100,1,0
88402,-100,4,1,0,100,0,1
104766,-100,4,1,0,100,0,0
105857,-100,4,1,0,100,0,1
123175,-100,4,1,0,100,0,0

[HitObjects]
256,192,1130,5,4,0:0:0:0:
256,192,1675,1,8,0:0:0:0:
256,192,2766,1,8,0:0:0:0:
256,192,3857,1,8,0:0:0:0:
256,192,4948,1,12,0:0:0:0:
256,192,5493,1,4,0:0:0:0:
256,192,6039,1,8,0:0:0:0:
256,192,7130,1,8,0:0:0:0:
256,192,7675,1,4,0:0:0:0:
256,192,8766,1,0,0:0:0:0:
256,192,9311,1,8,0:0:0:0:
256,192,9720,1,4,0:0:0:0:
256,192,10402,1,8,0:0:0:0:
256,192,10948,1,0,0:0:0:0:
256,192,11220,1,0,0:0:0:0:
256,192,11493,1,8,0:0:0:0:
256,192,12584,1,8,0:0:0:0:
256,192,12857,1,0,0:0:0:0:
256,192,13130,1,8,0:0:0:0:
256,192,13675,1,8,0:0:0:0:
256,192,14220,1,4,0:0:0:0:
256,192,14766,1,8,0:0:0:0:
256,192,15857,1,8,0:0:0:0:
256,192,16130,1,8,0:0:0:0:
256,192,16402,1,0,0:0:0:0:
256,192,16948,1,8,0:0:0:0:
256,192,17493,1,0,0:0:0:0:
256,192,17766,1,0,0:0:0:0:
256,192,18039,1,8,0:0:0:0:
256,192,18448,1,4,0:0:0:0:
256,192,19130,1,8,0:0:0:0:
256,192,20630,1,4,0:0:0:0:
256,192,21311,1,8,0:0:0:0:
256,192,22811,1,4,0:0:0:0:
256,192,23493,1,8,0:0:0:0:
256,192,25130,1,4,0:0:0:0:
256,192,26220,1,4,0:0:0:0:
256,192,27039,1,8,0:0:0:0:
256,192,27311,1,0,0:0:0:0:
256,192,27857,1,8,0:0:0:0:
256,192,28130,1,8,0:0:0:0:
256,192,28402,1,0,0:0:0:0:
256,192,28948,1,8,0:0:0:0:
256,192,29493,1,4,0:0:0:0:
256,192,30039,1,8,0:0:0:0:
256,192,30311,1,8,0:0:0:0:
256,192,30584,1,0,0:0:0:0:
256,192,31130,1,8,0:0:0:0:
256,192,31675,1,0,0:0:0:0:
256,192,32220,1,0,0:0:0:0:
256,192,32766,1,8,0:0:0:0:
256,192,33311,1,0,0:0:0:0:
256,192,33584,1,8,0:0:0:0:
256,192,33857,1,0,0:0:0:0:
256,192,34948,1,0,0:0:0:0:
256,192,35493,1,8,0:0:0:0:
256,192,36039,1,4,0:0:0:0:
256,192,36584,1,8,0:0:0:0:
256,192,37130,1,0,0:0:0:0:
256,192,37675,1,0,0:0:0:0:
256,192,37948,1,0,0:0:0:0:
256,192,38220,1,8,0:0:0:0:
256,192,38766,1,8,0:0:0:0:
256,192,39311,1,0,0:0:0:0:
256,192,39857,1,12,0:0:0:0:
256,192,40948,1,0,0:0:0:0:
256,192,41493,1,8,0:0:0:0:
256,192,42039,1,0,0:0:0:0:
256,192,42311,1,0,0:0:0:0:
256,192,42584,1,8,0:0:0:0:
256,192,43130,1,8,0:0:0:0:
256,192,43675,1,0,0:0:0:0:
256,192,44220,1,8,0:0:0:0:
256,192,44630,1,4,0:0:0:0:
256,192,45311,1,0,0:0:0:0:
256,192,45857,1,0,0:0:0:0:
256,192,46402,1,8,0:0:0:0:
256,192,46675,1,8,0:0:0:0:
256,192,46948,1,0,0:0:0:0:
256,192,47493,1,8,0:0:0:0:
256,192,48039,1,0,0:0:0:0:
256,192,48584,1,12,0:0:0:0:
256,192,49675,1,0,0:0:0:0:
256,192,50220,1,8,0:0:0:0:
256,192,50766,1,0,0:0:0:0:
256,192,51039,1,0,0:0:0:0:
256,192,51311,1,8,0:0:0:0:
256,192,51857,1,8,0:0:0:0:
256,192,52402,1,0,0:0:0:0:
256,192,53493,1,4,0:0:0:0:
256,192,54039,1,0,0:0:0:0:
256,192,54584,1,8,0:0:0:0:
256,192,55130,1,0,0:0:0:0:
256,192,55402,1,0,0:0:0:0:
256,192,55675,1,8,0:0:0:0:
256,192,56220,1,0,0:0:0:0:
256,192,56766,1,8,0:0:0:0:
256,192,57311,1,12,0:0:0:0:
256,192,58402,1,0,0:0:0:0:
256,192,58948,1,8,0:0:0:0:
256,192,59493,1,0,0:0:0:0:
256,192,59766,1,0,0:0:0:0:
256,192,60039,1,8,0:0:0:0:
256,192,60584,1,8,0:0:0:0:
256,192,61130,1,0,0:0:0:0:
256,192,61675,1,8,0:0:0:0:
256,192,62084,1,4,0:0:0:0:
256,192,62766,1,0,0:0:0:0:
256,192,63311,1,0,0:0:0:0:
256,192,63857,1,8,0:0:0:0:
256,192,64130,1,8,0:0:0:0:
256,192,64402,1,0,0:0:0:0:
256,192,64948,1,8,0:0:0:0:
256,192,65493,1,0,0:0:0:0:
256,192,66039,1,12,0:0:0:0:
256,192,67130,1,0,0:0:0:0:
256,192,67675,1,8,0:0:0:0:
256,192,68220,1,0,0:0:0:0:
256,192,68493,1,0,0:0:0:0:
256,192,68766,1,8,0:0:0:0:
256,192,69311,1,8,0:0:0:0:
256,192,69857,1,0,0:0:0:0:
256,192,70402,1,8,0:0:0:0:
256,192,70811,1,4,0:0:0:0:
256,192,71493,1,8,0:0:0:0:
256,192,72993,1,4,0:0:0:0:
256,192,73675,1,8,0:0:0:0:
256,192,75175,1,4,0:0:0:0:
256,192,75857,1,8,0:0:0:0:
256,192,76948,1,8,0:0:0:0:
256,192,77493,1,4,0:0:0:0:
256,192,78584,1,4,0:0:0:0:
256,192,79675,1,4,0:0:0:0:
256,192,80220,1,0,0:0:0:0:
256,192,80493,1,0,0:0:0:0:
256,192,80766,1,8,0:0:0:0:
256,192,81311,1,8,0:0:0:0:
256,192,81857,1,0,0:0:0:0:
256,192,82130,1,0,0:0:0:0:
256,192,82948,1,0,0:0:0:0:
256,192,83493,1,8,0:0:0:0:
256,192,83766,1,8,0:0:0:0:
256,192,84039,1,0,0:0:0:0:
256,192,84584,1,8,0:0:0:0:
256,192,85130,1,0,0:0:0:0:
256,192,85675,1,8,0:0:0:0:
256,192,85948,1,8,0:0:0:0:
256,192,86220,1,0,0:0:0:0:
256,192,87311,1,8,0:0:0:0:
256,192,87857,1,0,0:0:0:0:
256,192,88130,1,8,0:0:0:0:
256,192,88402,1,4,0:0:0:0:
256,192,88948,1,0,0:0:0:0:
256,192,89220,1,0,0:0:0:0:
256,192,89493,1,8,0:0:0:0:
256,192,90039,1,8,0:0:0:0:
256,192,90584,1,8,0:0:0:0:
256,192,90857,1,0,0:0:0:0:
256,192,91130,1,8,0:0:0:0:
256,192,91675,1,0,0:0:0:0:
256,192,92220,1,12,0:0:0:0:
256,192,93311,1,0,0:0:0:0:
256,192,93584,1,0,0:0:0:0:
256,192,93857,1,8,0:0:0:0:
256,192,94402,1,8,0:0:0:0:
256,192,94948,1,8,0:0:0:0:
256,192,95220,1,8,0:0:0:0:
256,192,95493,1,8,0:0:0:0:
256,192,96039,1,0,0:0:0:0:
256,192,96584,1,8,0:0:0:0:
256,192,96993,1,4,0:0:0:0:
256,192,97402,1,4,0:0:0:0:
256,192,97675,1,0,0:0:0:0:
256,192,97948,1,0,0:0:0:0:
256,192,98220,1,8,0:0:0:0:
256,192,98766,1,8,0:0:0:0:
256,192,99311,1,0,0:0:0:0:
256,192,99584,1,0,0:0:0:0:
256,192,99857,1,8,0:0:0:0:
256,192,100402,1,0,0:0:0:0:
256,192,100948,1,12,0:0:0:0:
256,192,102039,1,0,0:0:0:0:
256,192,102311,1,0,0:0:0:0:
256,192,102584,1,8,0:0:0:0:
256,192,103130,1,8,0:0:0:0:
256,192,103675,1,8,0:0:0:0:
256,192,103948,1,0,0:0:0:0:
256,192,104220,1,8,0:0:0:0:
256,192,104766,1,0,0:0:0:0:
256,192,105311,1,8,0:0:0:0:
256,192,105857,1,4,0:0:0:0:
256,192,106402,1,0,0:0:0:0:
256,192,106675,1,8,0:0:0:0:
256,192,106948,1,0,0:0:0:0:
256,192,107493,1,8,0:0:0:0:
256,192,107766,1,8,0:0:0:0:
256,192,108039,1,0,0:0:0:0:
256,192,108311,1,0,0:0:0:0:
256,192,108584,1,8,0:0:0:0:
256,192,109130,1,0,0:0:0:0:
256,192,109675,1,12,0:0:0:0:
256,192,110766,1,0,0:0:0:0:
256,192,111039,1,8,0:0:0:0:
256,192,111311,1,0,0:0:0:0:
256,192,111857,1,8,0:0:0:0:
256,192,112130,1,8,0:0:0:0:
256,192,112402,1,0,0:0:0:0:
256,192,112675,1,0,0:0:0:0:
256,192,112948,1,8,0:0:0:0:
256,192,113493,1,0,0:0:0:0:
256,192,114039,1,8,0:0:0:0:
256,192,114448,1,4,0:0:0:0:
256,192,114857,1,4,0:0:0:0:
256,192,115130,1,0,0:0:0:0:
256,192,115402,1,0,0:0:0:0:
256,192,115675,1,8,0:0:0:0:
256,192,116220,1,8,0:0:0:0:
256,192,116766,1,0,0:0:0:0:
256,192,117039,1,0,0:0:0:0:
256,192,117311,1,8,0:0:0:0:
256,192,117857,1,0,0:0:0:0:
256,192,118402,1,12,0:0:0:0:
256,192,119493,1,0,0:0:0:0:
256,192,120039,1,8,0:0:0:0:
256,192,120584,1,0,0:0:0:0:
256,192,120857,1,0,0:0:0:0:
256,192,121130,1,8,0:0:0:0:
256,192,121675,1,8,0:0:0:0:
256,192,121948,1,8,0:0:0:0:
256,192,122220,1,0,0:0:0:0:
256,192,122493,1,0,0:0:0:0:
256,192,122766,1,8,0:0:0:0:
256,192,123175,1,4,0:0:0:0:
256,192,123584,1,4,0:0:0:0:
