osu file format v14

[General]
AudioFilename: audio.mp3
AudioLeadIn: 0
PreviewTime: 36039
Countdown: 0
SampleSet: Normal
StackLeniency: 0.7
Mode: 1
LetterboxInBreaks: 0
WidescreenStoryboard: 1

[Editor]
DistanceSpacing: 0.8
BeatDivisor: 2
GridSize: 32
TimelineZoom: 1.8

[Metadata]
Title:ERROR CODE
TitleUnicode:ERROR CODE
Artist:C-Show
ArtistUnicode:C-Show
Creator:incandescence
Version:Futsuu
Source:SOUND VOLTEX III GRAVITY WARS
Tags:SDVX KONAMI BEMANI ULTIMATE TRACKS -FLOOR ANTHEM- EP.01 OzzyOzrock taikocracy
BeatmapID:1506520
BeatmapSetID:712757

[Difficulty]
HPDrainRate:6
CircleSize:2
OverallDifficulty:4
ApproachRate:10
SliderMultiplier:1.2
SliderTickRate:1

[Events]
//Background and Video events
0,0,"maxresdefault.jpg",0,50
//Break Periods
//Storyboard Layer 0 (Background)
//Storyboard Layer 1 (Fail)
//Storyboard Layer 2 (Pass)
//Storyboard Layer 3 (Foreground)
//Storyboard Sound Samples

[TimingPoints]
1130,272.727272727273,4,1,0,100,1,0
88402,-100,4,1,0,100,0,1
104766,-100,4,1,0,100,0,0
105857,-100,4,1,0,100,0,1
123175,-100,4,1,0,100,0,0

[HitObjects]
256,192,1130,5,4,0:0:0:0:
256,192,1675,1,8,0:0:0:0:
256,192,2766,1,8,0:0:0:0:
256,192,3857,1,8,0:0:0:0:
256,192,4948,1,12,0:0:0:0:
256,192,5493,1,4,0:0:0:0:
256,192,6039,1,8,0:0:0:0:
256,192,7130,1,8,0:0:0:0:
256,192,7675,1,4,0:0:0:0:
256,192,8220,1,8,0:0:0:0:
256,192,8766,1,8,0:0:0:0:
256,192,9039,1,0,0:0:0:0:
256,192,9311,1,8,0:0:0:0:
256,192,9720,1,4,0:0:0:0:
256,192,10130,1,0,0:0:0:0:
256,192,10402,1,8,0:0:0:0:
256,192,10675,1,0,0:0:0:0:
256,192,10948,1,8,0:0:0:0:
256,192,11084,1,8,0:0:0:0:
256,192,11220,1,0,0:0:0:0:
256,192,11493,1,8,0:0:0:0:
256,192,12039,1,0,0:0:0:0:
256,192,12311,1,0,0:0:0:0:
256,192,12584,1,8,0:0:0:0:
256,192,12857,1,0,0:0:0:0:
256,192,13130,1,8,0:0:0:0:
256,192,13266,1,0,0:0:0:0:
256,192,13402,1,8,0:0:0:0:
256,192,13675,1,0,0:0:0:0:
256,192,14220,1,4,0:0:0:0:
256,192,14493,1,0,0:0:0:0:
256,192,14766,1,8,0:0:0:0:
256,192,15039,1,0,0:0:0:0:
256,192,15311,1,8,0:0:0:0:
256,192,15448,1,8,0:0:0:0:
256,192,15584,1,0,0:0:0:0:
256,192,15857,1,8,0:0:0:0:
256,192,16402,1,0,0:0:0:0:
256,192,16948,1,8,0:0:0:0:
256,192,17220,1,0,0:0:0:0:
256,192,17357,1,8,0:0:0:0:
256,192,17493,1,0,0:0:0:0:
256,192,17766,1,0,0:0:0:0:
256,192,18039,1,8,0:0:0:0:
256,192,18448,1,4,0:0:0:0:
256,192,18857,1,4,0:0:0:0:
256,192,19130,1,8,0:0:0:0:
256,192,20220,1,8,0:0:0:0:
256,192,20630,1,4,0:0:0:0:
256,192,21039,1,4,0:0:0:0:
256,192,21311,1,8,0:0:0:0:
256,192,22402,1,8,0:0:0:0:
256,192,22811,1,4,0:0:0:0:
256,192,23220,1,4,0:0:0:0:
256,192,23493,1,8,0:0:0:0:
256,192,24584,1,8,0:0:0:0:
256,192,25130,1,4,0:0:0:0:
256,192,26220,1,4,0:0:0:0:
256,192,26630,1,12,0:0:0:0:
256,192,27039,1,4,0:0:0:0:
256,192,27311,1,12,0:0:0:0:
256,192,27584,1,0,0:0:0:0:
256,192,27857,1,8,0:0:0:0:
256,192,27993,1,8,0:0:0:0:
256,192,28130,1,0,0:0:0:0:
256,192,28402,1,8,0:0:0:0:
256,192,28675,1,0,0:0:0:0:
256,192,28948,1,8,0:0:0:0:
256,192,29493,1,4,0:0:0:0:
256,192,29766,1,4,0:0:0:0:
256,192,30039,1,8,0:0:0:0:
256,192,30311,1,0,0:0:0:0:
256,192,30448,1,0,0:0:0:0:
256,192,30584,1,8,0:0:0:0:
256,192,30857,1,0,0:0:0:0:
256,192,31130,1,8,0:0:0:0:
256,192,31675,1,0,0:0:0:0:
256,192,31948,1,0,0:0:0:0:
256,192,32220,1,8,0:0:0:0:
256,192,32493,1,8,0:0:0:0:
256,192,32766,1,0,0:0:0:0:
256,192,32902,1,0,0:0:0:0:
256,192,33039,1,8,0:0:0:0:
256,192,33311,1,0,0:0:0:0:
256,192,33584,1,8,0:0:0:0:
256,192,33720,1,8,0:0:0:0:
256,192,33857,1,0,0:0:0:0:
256,192,34948,1,0,0:0:0:0:
256,192,35084,1,0,0:0:0:0:
256,192,35357,1,0,0:0:0:0:
256,192,35493,1,8,0:0:0:0:
256,192,35766,1,0,0:0:0:0:
256,192,36039,1,4,0:0:0:0:
256,192,36584,1,0,0:0:0:0:
256,192,36857,1,0,0:0:0:0:
256,192,36993,1,0,0:0:0:0:
256,192,37130,1,8,0:0:0:0:
256,192,37402,1,8,0:0:0:0:
256,192,37675,1,0,0:0:0:0:
256,192,37948,1,8,0:0:0:0:
256,192,38084,1,8,0:0:0:0:
256,192,38220,1,0,0:0:0:0:
256,192,38493,1,0,0:0:0:0:
256,192,38766,1,8,0:0:0:0:
256,192,39039,1,8,0:0:0:0:
256,192,39311,1,0,0:0:0:0:
256,192,39584,1,8,0:0:0:0:
256,192,39857,1,12,0:0:0:0:
256,192,40402,1,4,0:0:0:0:
256,192,40948,1,8,0:0:0:0:
256,192,41220,1,0,0:0:0:0:
256,192,41357,1,0,0:0:0:0:
256,192,41493,1,8,0:0:0:0:
256,192,41766,1,8,0:0:0:0:
256,192,42039,1,0,0:0:0:0:
256,192,42311,1,8,0:0:0:0:
256,192,42448,1,0,0:0:0:0:
256,192,42584,1,8,0:0:0:0:
256,192,42857,1,8,0:0:0:0:
256,192,43130,1,0,0:0:0:0:
256,192,43402,1,8,0:0:0:0:
256,192,43675,1,0,0:0:0:0:
256,192,43948,1,8,0:0:0:0:
256,192,44220,1,4,0:0:0:0:
256,192,44630,1,4,0:0:0:0:
256,192,45039,1,4,0:0:0:0:
256,192,45311,1,8,0:0:0:0:
256,192,45584,1,0,0:0:0:0:
256,192,45720,1,0,0:0:0:0:
256,192,45857,1,8,0:0:0:0:
256,192,46130,1,8,0:0:0:0:
256,192,46402,1,0,0:0:0:0:
256,192,46948,1,0,0:0:0:0:
256,192,47220,1,0,0:0:0:0:
256,192,47357,1,8,0:0:0:0:
256,192,47493,1,0,0:0:0:0:
256,192,47766,1,8,0:0:0:0:
256,192,48039,1,0,0:0:0:0:
256,192,48311,1,8,0:0:0:0:
256,192,48584,1,12,0:0:0:0:
256,192,49130,1,4,0:0:0:0:
256,192,49675,1,8,0:0:0:0:
256,192,49948,1,0,0:0:0:0:
256,192,50084,1,0,0:0:0:0:
256,192,50220,1,8,0:0:0:0:
256,192,50493,1,8,0:0:0:0:
256,192,50766,1,0,0:0:0:0:
256,192,51039,1,8,0:0:0:0:
256,192,51175,1,0,0:0:0:0:
256,192,51311,1,8,0:0:0:0:
256,192,51584,1,8,0:0:0:0:
256,192,51857,1,0,0:0:0:0:
256,192,52130,1,8,0:0:0:0:
256,192,52402,1,0,0:0:0:0:
256,192,52539,1,0,0:0:0:0:
256,192,52811,1,8,0:0:0:0:
256,192,53083,1,0,0:0:0:0:
256,192,53493,1,4,0:0:0:0:
256,192,54039,1,0,0:0:0:0:
256,192,54311,1,0,0:0:0:0:
256,192,54448,1,8,0:0:0:0:
256,192,54584,1,0,0:0:0:0:
256,192,54857,1,0,0:0:0:0:
256,192,55130,1,8,0:0:0:0:
256,192,55402,1,8,0:0:0:0:
256,192,55539,1,8,0:0:0:0:
256,192,55675,1,0,0:0:0:0:
256,192,55948,1,0,0:0:0:0:
256,192,56220,1,8,0:0:0:0:
256,192,56493,1,0,0:0:0:0:
256,192,56766,1,0,0:0:0:0:
256,192,57039,1,0,0:0:0:0:
256,192,57311,1,12,0:0:0:0:
256,192,57857,1,4,0:0:0:0:
256,192,58402,1,0,0:0:0:0:
256,192,58675,1,0,0:0:0:0:
256,192,58811,1,8,0:0:0:0:
256,192,58948,1,0,0:0:0:0:
256,192,59220,1,0,0:0:0:0:
256,192,59493,1,8,0:0:0:0:
256,192,59766,1,0,0:0:0:0:
256,192,59902,1,0,0:0:0:0:
256,192,60039,1,8,0:0:0:0:
256,192,60311,1,8,0:0:0:0:
256,192,60584,1,0,0:0:0:0:
256,192,60857,1,8,0:0:0:0:
256,192,61130,1,0,0:0:0:0:
256,192,61402,1,8,0:0:0:0:
256,192,61675,1,4,0:0:0:0:
256,192,62084,1,4,0:0:0:0:
256,192,62493,1,4,0:0:0:0:
256,192,62766,1,8,0:0:0:0:
256,192,63039,1,0,0:0:0:0:
256,192,63175,1,8,0:0:0:0:
256,192,63311,1,0,0:0:0:0:
256,192,63584,1,0,0:0:0:0:
256,192,63857,1,8,0:0:0:0:
256,192,64402,1,0,0:0:0:0:
256,192,64675,1,8,0:0:0:0:
256,192,64811,1,8,0:0:0:0:
256,192,64948,1,0,0:0:0:0:
256,192,65220,1,8,0:0:0:0:
256,192,65493,1,0,0:0:0:0:
256,192,65766,1,0,0:0:0:0:
256,192,66039,1,12,0:0:0:0:
256,192,66584,1,4,0:0:0:0:
256,192,67130,1,0,0:0:0:0:
256,192,67402,1,0,0:0:0:0:
256,192,67539,1,8,0:0:0:0:
256,192,67675,1,0,0:0:0:0:
256,192,67948,1,0,0:0:0:0:
256,192,68220,1,8,0:0:0:0:
256,192,68493,1,0,0:0:0:0:
256,192,68630,1,0,0:0:0:0:
256,192,68766,1,8,0:0:0:0:
256,192,69039,1,8,0:0:0:0:
256,192,69311,1,0,0:0:0:0:
256,192,69584,1,8,0:0:0:0:
256,192,69857,1,0,0:0:0:0:
256,192,69993,1,0,0:0:0:0:
256,192,70130,1,0,0:0:0:0:
256,192,70402,1,8,0:0:0:0:
256,192,70811,1,4,0:0:0:0:
256,192,71220,1,4,0:0:0:0:
256,192,71493,1,8,0:0:0:0:
256,192,72583,1,8,0:0:0:0:
256,192,72993,1,4,0:0:0:0:
256,192,73402,1,4,0:0:0:0:
256,192,73674,1,8,0:0:0:0:
256,192,74765,1,8,0:0:0:0:
256,192,75174,1,4,0:0:0:0:
256,192,75583,1,4,0:0:0:0:
256,192,75856,1,8,0:0:0:0:
256,192,76947,1,8,0:0:0:0:
256,192,77493,1,4,0:0:0:0:
256,192,78584,1,4,0:0:0:0:
256,192,78993,1,12,0:0:0:0:
256,192,79402,1,4,0:0:0:0:
256,192,79675,1,12,0:0:0:0:
256,192,80220,1,8,0:0:0:0:
256,192,80357,1,8,0:0:0:0:
256,192,80493,1,0,0:0:0:0:
256,192,80766,1,8,0:0:0:0:
256,192,81039,1,0,0:0:0:0:
256,192,81311,1,8,0:0:0:0:
256,192,81584,1,0,0:0:0:0:
256,192,81720,1,8,0:0:0:0:
256,192,81857,1,4,0:0:0:0:
256,192,82130,1,4,0:0:0:0:
256,192,82675,1,0,0:0:0:0:
256,192,82811,1,0,0:0:0:0:
256,192,82948,1,8,0:0:0:0:
256,192,83220,1,0,0:0:0:0:
256,192,83493,1,8,0:0:0:0:
256,192,83766,1,8,0:0:0:0:
256,192,83902,1,8,0:0:0:0:
256,192,84039,1,0,0:0:0:0:
256,192,84312,1,8,0:0:0:0:
256,192,84584,1,0,0:0:0:0:
256,192,84857,1,8,0:0:0:0:
256,192,85130,1,0,0:0:0:0:
256,192,85266,1,0,0:0:0:0:
256,192,85403,1,8,0:0:0:0:
256,192,85675,1,0,0:0:0:0:
256,192,85948,1,8,0:0:0:0:
256,192,86084,1,8,0:0:0:0:
256,192,86221,1,0,0:0:0:0:
256,192,87311,1,8,0:0:0:0:
256,192,87448,1,8,0:0:0:0:
256,192,87720,1,8,0:0:0:0:
256,192,87857,1,0,0:0:0:0:
256,192,88130,1,8,0:0:0:0:
256,192,88402,1,4,0:0:0:0:
256,192,88947,1,8,0:0:0:0:
256,192,89220,1,0,0:0:0:0:
256,192,89356,1,0,0:0:0:0:
256,192,89493,1,8,0:0:0:0:
256,192,89765,1,8,0:0:0:0:
256,192,90039,1,0,0:0:0:0:
256,192,90311,1,8,0:0:0:0:
256,192,90447,1,8,0:0:0:0:
256,192,90583,1,0,0:0:0:0:
256,192,90856,1,0,0:0:0:0:
256,192,91129,1,8,0:0:0:0:
256,192,91402,1,8,0:0:0:0:
256,192,91674,1,0,0:0:0:0:
256,192,91947,1,8,0:0:0:0:
256,192,92220,1,12,0:0:0:0:
256,192,92765,1,4,0:0:0:0:
256,192,93311,1,8,0:0:0:0:
256,192,93583,1,0,0:0:0:0:
256,192,93720,1,0,0:0:0:0:
256,192,93856,1,8,0:0:0:0:
256,192,94129,1,8,0:0:0:0:
256,192,94402,1,0,0:0:0:0:
256,192,94674,1,8,0:0:0:0:
256,192,94811,1,0,0:0:0:0:
256,192,94947,1,8,0:0:0:0:
256,192,95220,1,8,0:0:0:0:
256,192,95493,1,0,0:0:0:0:
256,192,95765,1,8,0:0:0:0:
256,192,96038,1,0,0:0:0:0:
256,192,96311,1,8,0:0:0:0:
256,192,96583,1,4,0:0:0:0:
256,192,96993,1,4,0:0:0:0:
256,192,97402,1,4,0:0:0:0:
256,192,97674,1,8,0:0:0:0:
256,192,97947,1,0,0:0:0:0:
256,192,98083,1,0,0:0:0:0:
256,192,98220,1,8,0:0:0:0:
256,192,98493,1,8,0:0:0:0:
256,192,98765,1,0,0:0:0:0:
256,192,99311,1,0,0:0:0:0:
256,192,99583,1,0,0:0:0:0:
256,192,99720,1,8,0:0:0:0:
256,192,99856,1,0,0:0:0:0:
256,192,100129,1,8,0:0:0:0:
256,192,100402,1,0,0:0:0:0:
256,192,100674,1,8,0:0:0:0:
256,192,100811,1,0,0:0:0:0:
256,192,100947,1,12,0:0:0:0:
256,192,101493,1,4,0:0:0:0:
256,192,102038,1,8,0:0:0:0:
256,192,102311,1,0,0:0:0:0:
256,192,102447,1,0,0:0:0:0:
256,192,102583,1,8,0:0:0:0:
256,192,102856,1,8,0:0:0:0:
256,192,103129,1,0,0:0:0:0:
256,192,103402,1,8,0:0:0:0:
256,192,103538,1,0,0:0:0:0:
256,192,103674,1,8,0:0:0:0:
256,192,103947,1,8,0:0:0:0:
256,192,104220,1,0,0:0:0:0:
256,192,104493,1,8,0:0:0:0:
256,192,104765,1,8,0:0:0:0:
256,192,104902,1,8,0:0:0:0:
256,192,105174,1,8,0:0:0:0:
256,192,105311,1,0,0:0:0:0:
256,192,105856,1,4,0:0:0:0:
256,192,106402,1,0,0:0:0:0:
256,192,106674,1,0,0:0:0:0:
256,192,106811,1,8,0:0:0:0:
256,192,106947,1,0,0:0:0:0:
256,192,107220,1,8,0:0:0:0:
256,192,107493,1,8,0:0:0:0:
256,192,107630,1,8,0:0:0:0:
256,192,107766,1,8,0:0:0:0:
256,192,107902,1,8,0:0:0:0:
256,192,108039,1,0,0:0:0:0:
256,192,108311,1,0,0:0:0:0:
256,192,108583,1,8,0:0:0:0:
256,192,108856,1,0,0:0:0:0:
256,192,109129,1,0,0:0:0:0:
256,192,109402,1,0,0:0:0:0:
256,192,109674,1,12,0:0:0:0:
256,192,110220,1,4,0:0:0:0:
256,192,110765,1,0,0:0:0:0:
256,192,111038,1,0,0:0:0:0:
256,192,111174,1,8,0:0:0:0:
256,192,111311,1,0,0:0:0:0:
256,192,111583,1,0,0:0:0:0:
256,192,111856,1,8,0:0:0:0:
256,192,111993,1,0,0:0:0:0:
256,192,112129,1,0,0:0:0:0:
256,192,112265,1,0,0:0:0:0:
256,192,112402,1,8,0:0:0:0:
256,192,112674,1,8,0:0:0:0:
256,192,112947,1,0,0:0:0:0:
256,192,113220,1,8,0:0:0:0:
256,192,113493,1,0,0:0:0:0:
256,192,113765,1,8,0:0:0:0:
256,192,114038,1,4,0:0:0:0:
256,192,114447,1,4,0:0:0:0:
256,192,114856,1,4,0:0:0:0:
256,192,115129,1,8,0:0:0:0:
256,192,115402,1,0,0:0:0:0:
256,192,115538,1,8,0:0:0:0:
256,192,115674,1,0,0:0:0:0:
256,192,115947,1,0,0:0:0:0:
256,192,116220,1,8,0:0:0:0:
256,192,116765,1,0,0:0:0:0:
256,192,117038,1,8,0:0:0:0:
256,192,117174,1,8,0:0:0:0:
256,192,117311,1,0,0:0:0:0:
256,192,117583,1,8,0:0:0:0:
256,192,117856,1,0,0:0:0:0:
256,192,118129,1,0,0:0:0:0:
256,192,118402,1,12,0:0:0:0:
256,192,118947,1,4,0:0:0:0:
256,192,119493,1,0,0:0:0:0:
256,192,119765,1,0,0:0:0:0:
256,192,119902,1,8,0:0:0:0:
256,192,120038,1,0,0:0:0:0:
256,192,120311,1,8,0:0:0:0:
256,192,120584,1,0,0:0:0:0:
256,192,120720,1,0,0:0:0:0:
256,192,120856,1,0,0:0:0:0:
256,192,120993,1,0,0:0:0:0:
256,192,121129,1,8,0:0:0:0:
256,192,121402,1,8,0:0:0:0:
256,192,121674,1,0,0:0:0:0:
256,192,121947,1,0,0:0:0:0:
256,192,122220,1,8,0:0:0:0:
256,192,122766,1,8,0:0:0:0:
256,192,123174,1,4,0:0:0:0:
256,192,123583,1,4,0:0:0:0:
