osu file format v14

[General]
AudioFilename: audio.mp3
AudioLeadIn: 0
PreviewTime: 78851
Countdown: 1
SampleSet: Normal
StackLeniency: 0.7
Mode: 0
LetterboxInBreaks: 0
WidescreenStoryboard: 0

[Editor]
Bookmarks: 9715,18442,27169,33715,35897,45169,53351,62351,70806,79533,86078,88260,105715,123442
DistanceSpacing: 0.9
BeatDivisor: 4
GridSize: 4
TimelineZoom: 3.699999

[Metadata]
Title:ERROR CODE
TitleUnicode:ERROR CODE
Artist:C-Show
ArtistUnicode:C-Show
Creator:dima21
Version:WaRNiNG
Source:
Tags:
BeatmapID:1492682
BeatmapSetID:705806

[Difficulty]
HPDrainRate:3.2
CircleSize:3
OverallDifficulty:8.7
ApproachRate:9.8
SliderMultiplier:2.59999990463257
SliderTickRate:1

[Events]
//Background and Video events
0,0,"bmw-m1.jpg",0,0
//Break Periods
2,33915,35418
2,86278,87781
//Storyboard Layer 0 (Background)
//Storyboard Layer 1 (Fail)
//Storyboard Layer 2 (Pass)
//Storyboard Layer 3 (Foreground)
//Storyboard Sound Samples

[TimingPoints]
988,272.727272727273,4,1,0,36,1,0
988,-200,4,1,0,36,0,0
17624,-100,4,1,0,36,0,0
17897,-66.6666666666667,4,1,0,36,0,0
18306,-100,4,1,0,36,0,0
35897,-200,4,1,0,36,0,1
36442,-100,4,1,0,36,0,1
36715,-83.3333333333333,4,1,0,36,0,1
36851,-66.6666666666667,4,1,0,36,0,1
36988,-100,4,1,0,36,0,1
37124,-50,4,1,0,36,0,1
37260,-66.6666666666667,4,1,0,36,0,1
37533,-66.6666666666667,4,1,0,36,0,1
38078,-100,4,1,0,36,0,1
38351,-83.3333333333333,4,1,0,36,0,1
38487,-66.6666666666667,4,1,0,36,0,1
38624,-100,4,1,0,36,0,1
38760,-83.3333333333333,4,1,0,36,0,1
38896,-66.6666666666667,4,1,0,36,0,1
39033,-83.3333333333333,4,1,0,36,0,1
39169,-66.6666666666667,4,1,0,36,0,1
39306,-83.3333333333333,4,1,0,36,0,1
39442,-66.6666666666667,4,1,0,36,0,1
39715,-100,4,1,0,36,0,1
41078,-83.3333333333333,4,1,0,36,0,1
41214,-66.6666666666667,4,1,0,36,0,1
41351,-100,4,1,0,36,0,1
41488,-83.3333333333333,4,1,0,36,0,1
41624,-66.6666666666667,4,1,0,36,0,1
41760,-83.3333333333333,4,1,0,36,0,1
41896,-66.6666666666667,4,1,0,36,0,1
42442,-83.3333333333333,4,1,0,36,0,1
42715,-83.3333333333333,4,1,0,36,0,1
42851,-66.6666666666667,4,1,0,36,0,1
42988,-100,4,1,0,36,0,1
43124,-83.3333333333333,4,1,0,36,0,1
43260,-66.6666666666667,4,1,0,36,0,1
43397,-83.3333333333333,4,1,0,36,0,1
43533,-66.6666666666667,4,1,0,36,0,1
44078,-83.3333333333333,4,1,0,36,0,1
45169,-100,4,1,0,36,0,1
45442,-83.3333333333333,4,1,0,36,0,1
45578,-66.6666666666667,4,1,0,36,0,1
45715,-100,4,1,0,36,0,1
45851,-83.3333333333333,4,1,0,36,0,1
45987,-66.6666666666667,4,1,0,36,0,1
46124,-83.3333333333333,4,1,0,36,0,1
46260,-66.6666666666667,4,1,0,36,0,1
46805,-100,4,1,0,36,0,1
47078,-83.3333333333333,4,1,0,36,0,1
47214,-66.6666666666667,4,1,0,36,0,1
47351,-100,4,1,0,36,0,1
47487,-83.3333333333333,4,1,0,36,0,1
47623,-66.6666666666667,4,1,0,36,0,1
47760,-83.3333333333333,4,1,0,36,0,1
47896,-66.6666666666667,4,1,0,36,0,1
48033,-83.3333333333333,4,1,0,36,0,1
48169,-66.6666666666667,4,1,0,36,0,1
48442,-100,4,1,0,36,0,1
49805,-83.3333333333333,4,1,0,36,0,1
49941,-66.6666666666667,4,1,0,36,0,1
50078,-100,4,1,0,36,0,1
50215,-83.3333333333333,4,1,0,36,0,1
50351,-66.6666666666667,4,1,0,36,0,1
50623,-66.6666666666667,4,1,0,36,0,1
51169,-83.3333333333333,4,1,0,36,0,1
51442,-83.3333333333333,4,1,0,36,0,1
51578,-66.6666666666667,4,1,0,36,0,1
51715,-100,4,1,0,36,0,1
51851,-83.3333333333333,4,1,0,36,0,1
51987,-66.6666666666667,4,1,0,36,0,1
52124,-83.3333333333333,4,1,0,36,0,1
52260,-133.333333333333,4,1,0,36,0,1
53351,-200,4,1,0,36,0,1
53896,-100,4,1,0,36,0,1
54169,-83.3333333333333,4,1,0,36,0,1
54305,-66.6666666666667,4,1,0,36,0,1
54442,-100,4,1,0,36,0,1
54578,-83.3333333333333,4,1,0,36,0,1
54714,-66.6666666666667,4,1,0,36,0,1
54851,-83.3333333333333,4,1,0,36,0,1
54987,-66.6666666666667,4,1,0,36,0,1
55532,-100,4,1,0,36,0,1
55805,-83.3333333333333,4,1,0,36,0,1
55941,-66.6666666666667,4,1,0,36,0,1
56078,-100,4,1,0,36,0,1
56214,-83.3333333333333,4,1,0,36,0,1
56350,-66.6666666666667,4,1,0,36,0,1
56487,-83.3333333333333,4,1,0,36,0,1
56623,-66.6666666666667,4,1,0,36,0,1
56760,-83.3333333333333,4,1,0,36,0,1
56896,-66.6666666666667,4,1,0,36,0,1
57169,-100,4,1,0,36,0,1
58532,-83.3333333333333,4,1,0,36,0,1
58668,-66.6666666666667,4,1,0,36,0,1
58805,-100,4,1,0,36,0,1
58942,-83.3333333333333,4,1,0,36,0,1
59078,-66.6666666666667,4,1,0,36,0,1
59350,-66.6666666666667,4,1,0,36,0,1
59896,-83.3333333333333,4,1,0,36,0,1
60169,-83.3333333333333,4,1,0,36,0,1
60305,-66.6666666666667,4,1,0,36,0,1
60442,-100,4,1,0,36,0,1
60578,-83.3333333333333,4,1,0,36,0,1
60714,-66.6666666666667,4,1,0,36,0,1
60851,-83.3333333333333,4,1,0,36,0,1
60987,-66.6666666666667,4,1,0,36,0,1
61532,-83.3333333333333,4,1,0,36,0,1
62623,-100,4,1,0,36,0,1
62896,-83.3333333333333,4,1,0,36,0,1
63032,-66.6666666666667,4,1,0,36,0,1
63169,-100,4,1,0,36,0,1
63305,-83.3333333333333,4,1,0,36,0,1
63441,-66.6666666666667,4,1,0,36,0,1
63578,-83.3333333333333,4,1,0,36,0,1
63714,-66.6666666666667,4,1,0,36,0,1
64259,-100,4,1,0,36,0,1
64532,-83.3333333333333,4,1,0,36,0,1
64668,-66.6666666666667,4,1,0,36,0,1
64805,-100,4,1,0,36,0,1
64941,-83.3333333333333,4,1,0,36,0,1
65077,-66.6666666666667,4,1,0,36,0,1
65214,-83.3333333333333,4,1,0,36,0,1
65350,-66.6666666666667,4,1,0,36,0,1
65487,-83.3333333333333,4,1,0,36,0,1
65623,-66.6666666666667,4,1,0,36,0,1
65896,-100,4,1,0,36,0,1
67259,-83.3333333333333,4,1,0,36,0,1
67395,-66.6666666666667,4,1,0,36,0,1
67532,-100,4,1,0,36,0,1
67669,-83.3333333333333,4,1,0,36,0,1
67805,-66.6666666666667,4,1,0,36,0,1
68077,-66.6666666666667,4,1,0,36,0,1
68623,-83.3333333333333,4,1,0,36,0,1
68896,-83.3333333333333,4,1,0,36,0,1
69032,-66.6666666666667,4,1,0,36,0,1
69169,-100,4,1,0,36,0,1
69305,-83.3333333333333,4,1,0,36,0,1
69441,-66.6666666666667,4,1,0,36,0,1
69578,-83.3333333333333,4,1,0,36,0,1
69714,-66.6666666666667,4,1,0,36,0,1
70259,-83.3333333333333,4,1,0,36,0,1
70669,-100,4,1,0,36,0,0
88260,-200,4,1,0,36,0,1
88805,-100,4,1,0,36,0,1
89078,-83.3333333333333,4,1,0,36,0,1
89214,-66.6666666666667,4,1,0,36,0,1
89351,-100,4,1,0,36,0,1
89487,-50,4,1,0,36,0,1
89623,-66.6666666666667,4,1,0,36,0,1
89896,-66.6666666666667,4,1,0,36,0,1
90441,-100,4,1,0,36,0,1
90714,-83.3333333333333,4,1,0,36,0,1
90850,-66.6666666666667,4,1,0,36,0,1
90987,-100,4,1,0,36,0,1
91123,-83.3333333333333,4,1,0,36,0,1
91259,-66.6666666666667,4,1,0,36,0,1
91396,-83.3333333333333,4,1,0,36,0,1
91532,-66.6666666666667,4,1,0,36,0,1
91669,-83.3333333333333,4,1,0,36,0,1
91805,-66.6666666666667,4,1,0,36,0,1
92078,-100,4,1,0,36,0,1
93441,-83.3333333333333,4,1,0,36,0,1
93577,-66.6666666666667,4,1,0,36,0,1
93714,-100,4,1,0,36,0,1
93851,-83.3333333333333,4,1,0,36,0,1
93987,-66.6666666666667,4,1,0,36,0,1
94123,-83.3333333333333,4,1,0,36,0,1
94259,-66.6666666666667,4,1,0,36,0,1
94805,-83.3333333333333,4,1,0,36,0,1
95078,-83.3333333333333,4,1,0,36,0,1
95214,-66.6666666666667,4,1,0,36,0,1
95351,-100,4,1,0,36,0,1
95487,-83.3333333333333,4,1,0,36,0,1
95623,-66.6666666666667,4,1,0,36,0,1
95760,-83.3333333333333,4,1,0,36,0,1
95896,-66.6666666666667,4,1,0,36,0,1
96441,-83.3333333333333,4,1,0,36,0,1
97532,-100,4,1,0,36,0,1
97805,-83.3333333333333,4,1,0,36,0,1
97941,-66.6666666666667,4,1,0,36,0,1
98078,-100,4,1,0,36,0,1
98214,-83.3333333333333,4,1,0,36,0,1
98350,-66.6666666666667,4,1,0,36,0,1
98487,-83.3333333333333,4,1,0,36,0,1
98623,-66.6666666666667,4,1,0,36,0,1
99168,-100,4,1,0,36,0,1
99441,-83.3333333333333,4,1,0,36,0,1
99577,-66.6666666666667,4,1,0,36,0,1
99714,-100,4,1,0,36,0,1
99850,-83.3333333333333,4,1,0,36,0,1
99986,-66.6666666666667,4,1,0,36,0,1
100123,-83.3333333333333,4,1,0,36,0,1
100259,-66.6666666666667,4,1,0,36,0,1
100396,-83.3333333333333,4,1,0,36,0,1
100532,-66.6666666666667,4,1,0,36,0,1
100805,-100,4,1,0,36,0,1
102168,-83.3333333333333,4,1,0,36,0,1
102304,-66.6666666666667,4,1,0,36,0,1
102441,-100,4,1,0,36,0,1
102578,-83.3333333333333,4,1,0,36,0,1
102714,-66.6666666666667,4,1,0,36,0,1
102986,-66.6666666666667,4,1,0,36,0,1
103532,-83.3333333333333,4,1,0,36,0,1
103805,-83.3333333333333,4,1,0,36,0,1
103941,-66.6666666666667,4,1,0,36,0,1
104078,-100,4,1,0,36,0,1
104214,-83.3333333333333,4,1,0,36,0,1
104350,-66.6666666666667,4,1,0,36,0,1
104487,-83.3333333333333,4,1,0,36,0,1
104623,-133.333333333333,4,1,0,36,0,1
105714,-200,4,1,0,36,0,1
106259,-100,4,1,0,36,0,1
106532,-83.3333333333333,4,1,0,36,0,1
106668,-66.6666666666667,4,1,0,36,0,1
106805,-100,4,1,0,36,0,1
106941,-83.3333333333333,4,1,0,36,0,1
107077,-66.6666666666667,4,1,0,36,0,1
107214,-83.3333333333333,4,1,0,36,0,1
107350,-66.6666666666667,4,1,0,36,0,1
107895,-100,4,1,0,36,0,1
108168,-83.3333333333333,4,1,0,36,0,1
108304,-66.6666666666667,4,1,0,36,0,1
108441,-100,4,1,0,36,0,1
108577,-83.3333333333333,4,1,0,36,0,1
108713,-66.6666666666667,4,1,0,36,0,1
108850,-83.3333333333333,4,1,0,36,0,1
108986,-66.6666666666667,4,1,0,36,0,1
109123,-83.3333333333333,4,1,0,36,0,1
109259,-66.6666666666667,4,1,0,36,0,1
109532,-100,4,1,0,36,0,1
110895,-83.3333333333333,4,1,0,36,0,1
111031,-66.6666666666667,4,1,0,36,0,1
111168,-100,4,1,0,36,0,1
111305,-83.3333333333333,4,1,0,36,0,1
111441,-66.6666666666667,4,1,0,36,0,1
111713,-66.6666666666667,4,1,0,36,0,1
112259,-83.3333333333333,4,1,0,36,0,1
112532,-83.3333333333333,4,1,0,36,0,1
112668,-66.6666666666667,4,1,0,36,0,1
112805,-100,4,1,0,36,0,1
112941,-83.3333333333333,4,1,0,36,0,1
113077,-66.6666666666667,4,1,0,36,0,1
113214,-83.3333333333333,4,1,0,36,0,1
113350,-66.6666666666667,4,1,0,36,0,1
113895,-83.3333333333333,4,1,0,36,0,1
114986,-100,4,1,0,36,0,1
115259,-83.3333333333333,4,1,0,36,0,1
115395,-66.6666666666667,4,1,0,36,0,1
115532,-100,4,1,0,36,0,1
115668,-83.3333333333333,4,1,0,36,0,1
115804,-66.6666666666667,4,1,0,36,0,1
115941,-83.3333333333333,4,1,0,36,0,1
116077,-66.6666666666667,4,1,0,36,0,1
116622,-100,4,1,0,36,0,1
116895,-83.3333333333333,4,1,0,36,0,1
117031,-66.6666666666667,4,1,0,36,0,1
117168,-100,4,1,0,36,0,1
117304,-83.3333333333333,4,1,0,36,0,1
117440,-66.6666666666667,4,1,0,36,0,1
117577,-83.3333333333333,4,1,0,36,0,1
117713,-66.6666666666667,4,1,0,36,0,1
117850,-83.3333333333333,4,1,0,36,0,1
117986,-66.6666666666667,4,1,0,36,0,1
118259,-100,4,1,0,36,0,1
119622,-83.3333333333333,4,1,0,36,0,1
119758,-66.6666666666667,4,1,0,36,0,1
119895,-100,4,1,0,36,0,1
120032,-83.3333333333333,4,1,0,36,0,1
120168,-66.6666666666667,4,1,0,36,0,1
120440,-66.6666666666667,4,1,0,36,0,1
120986,-83.3333333333333,4,1,0,36,0,1
121259,-83.3333333333333,4,1,0,36,0,1
121395,-66.6666666666667,4,1,0,36,0,1
121532,-100,4,1,0,36,0,1
121668,-83.3333333333333,4,1,0,36,0,1
121804,-66.6666666666667,4,1,0,36,0,1
121941,-83.3333333333333,4,1,0,36,0,1
122077,-66.6666666666667,4,1,0,36,0,1
122622,-83.3333333333333,4,1,0,36,0,1
123442,-83.3333333333333,4,1,0,36,0,0

[HitObjects]
112,204,988,6,0,P|120:152|140:116,1,64.9999976158143
240,40,1260,1,0,0:0:0:0:
272,244,1397,2,0,P|292:212|308:172,1,64.9999976158143
408,48,1669,1,0,0:0:0:0:
392,232,1806,1,0,0:0:0:0:
340,112,1942,1,0,0:0:0:0:
232,40,2078,6,0,L|224:132,2,64.9999976158143
312,312,2488,1,0,0:0:0:0:
120,216,2624,1,0,0:0:0:0:
128,196,2760,2,0,B|133:148|124:128|124:128|136:112|144:52,1,129.999995231629
232,40,3169,6,0,P|276:28|300:4,1,64.9999976158143
408,8,3442,1,0,0:0:0:0:
380,152,3578,2,0,P|350:142|336:114,1,64.9999976158143
240,152,3851,1,0,0:0:0:0:
220,304,3988,2,0,L|228:212,1,64.9999976158143
264,64,4260,6,0,B|312:36|312:36|336:32,3,64.9999976158143
344,256,4806,1,0,0:0:0:0:
356,252,4942,2,0,B|356:200|356:200|368:156|368:156|368:96,1,129.999995231629
92,184,5351,6,0,L|104:268,1,64.9999976158143
76,100,5624,1,0,0:0:0:0:
112,324,5760,2,0,L|102:259,1,64.9999976158143
64,20,6033,1,0,0:0:0:0:
223,175,6169,2,0,L|220:240,1,64.9999976158143
304,48,6442,6,0,L|236:80,2,64.9999976158143
228,264,6851,1,0,0:0:0:0:
312,32,6988,1,0,0:0:0:0:
312,32,7124,6,0,B|349:55|356:96|356:96|392:88|448:112,1,162.499994039536
256,192,7533,12,0,9442,0:0:0:0:
236,76,9578,6,0,L|272:76,8,32.4999988079071
300,264,10260,5,0,0:0:0:0:
128,192,10397,1,0,0:0:0:0:
352,140,10533,5,0,0:0:0:0:
152,200,10669,1,0,0:0:0:0:
264,28,10806,5,0,0:0:0:0:
216,280,10942,1,0,0:0:0:0:
128,52,11078,5,0,0:0:0:0:
380,224,11215,1,0,0:0:0:0:
108,280,11351,5,0,0:0:0:0:
272,112,11488,1,0,0:0:0:0:
194,356,11624,6,0,P|247:353|278:332,1,64.9999976158143
298,191,11897,6,0,P|266:193|236:184,1,64.9999976158143
140,64,12169,5,0,0:0:0:0:
344,12,12306,1,0,0:0:0:0:
376,220,12442,1,0,0:0:0:0:
272,72,12578,1,0,0:0:0:0:
184,248,12715,6,0,L|172:300,1,32.4999988079071
208,148,12851,1,0,0:0:0:0:
428,80,12988,1,0,0:0:0:0:
336,284,13124,6,0,L|328:256,1,16.2499994039536
344,116,13260,2,0,L|348:144,1,16.2499994039536
332,304,13397,1,0,0:0:0:0:
356,96,13533,6,0,L|352:116,1,16.2499994039536
256,308,13669,2,0,L|252:288,1,16.2499994039536
188,48,13806,2,0,L|164:128,1,64.9999976158143
120,296,14078,1,0,0:0:0:0:
148,200,14215,1,0,0:0:0:0:
274,76,14351,6,0,L|267:91,1,16.2499994039536
256,308,14488,1,0,0:0:0:0:
376,236,14624,1,0,0:0:0:0:
268,176,14760,1,0,0:0:0:0:
376,216,14897,6,0,L|376:172,1,32.4999988079071
244,324,15033,2,0,L|236:356,1,32.4999988079071
252,172,15169,1,0,0:0:0:0:
392,96,15306,6,0,B|388:64|388:64|392:96,1,64.9999976158143
408,200,15578,2,0,L|412:224,1,16.2499994039536
264,88,15715,6,0,B|246:52|246:52|264:88|264:88|248:54,1,97.4999964237214
320,220,15988,2,0,L|328:236,1,16.2499994039536
392,168,16124,2,0,L|372:156,1,16.2499994039536
194,296,16260,2,0,B|222:282|222:282|192:296|192:296|221:284|221:284|183:302|183:302|236:276|236:276|177:305|177:305|244:272|244:272|160:313|160:313|209:289,1,454.9999833107
152,120,17351,6,0,L|216:140,1,64.9999976158143
152,144,17624,6,0,B|220:144|220:144|292:184,1,129.999995231629
160,176,17897,6,0,B|276:176|276:176|317:246|384:254,1,195.000000286102
492,272,18169,5,0,0:0:0:0:
460,176,18306,6,0,P|394:71|361:245,1,389.999985694885
372,156,18988,1,0,0:0:0:0:
372,156,19533,1,0,0:0:0:0:
144,100,20078,6,0,P|140:160|172:244,1,129.999995231629
288,332,20351,1,0,0:0:0:0:
224,160,20488,2,0,P|320:64|264:216,1,389.999985694885
303,144,21169,1,0,0:0:0:0:
303,144,21715,1,0,0:0:0:0:
303,144,22260,1,0,0:0:0:0:
440,232,22669,6,0,P|504:264|388:256,1,389.999985694885
364,80,23351,1,0,0:0:0:0:
352,92,23897,1,0,0:0:0:0:
368,100,24442,1,0,0:0:0:0:
164,268,24578,5,0,0:0:0:0:
164,268,24647,1,0,0:0:0:0:
164,268,24715,1,0,0:0:0:0:
164,268,24783,1,0,0:0:0:0:
164,268,24851,1,0,0:0:0:0:
164,268,24919,1,0,0:0:0:0:
164,268,24988,2,0,P|208:224|176:312,1,259.999990463257
328,172,25942,5,0,0:0:0:0:
328,172,26010,1,0,0:0:0:0:
328,172,26078,2,0,P|288:136|316:152,1,259.999990463257
52,100,26488,6,0,B|68:153|44:200|44:200|64:222|64:296,1,194.999992847443
168,208,26897,6,0,B|161:147|192:112|192:112|159:78|176:0,1,194.999992847443
323,179,27169,2,0,P|360:112|311:31,1,129.999995231629
248,50,27442,6,0,L|292:130,1,64.9999976158143
356,312,27578,1,0,0:0:0:0:
356,312,27715,6,0,L|320:256,1,64.9999976158143
248,50,27851,1,0,0:0:0:0:
424,148,27988,1,0,0:0:0:0:
424,148,28124,6,0,P|392:142|360:152,1,64.9999976158143
188,188,28260,1,0,0:0:0:0:
192,192,28397,6,0,P|232:200|284:188,1,64.9999976158143
416,236,28533,1,0,0:0:0:0:
416,236,28669,6,0,P|370:247|344:236,1,64.9999976158143
136,96,28806,1,0,0:0:0:0:
136,96,28942,6,0,P|168:88|208:104,1,64.9999976158143
316,336,29078,1,0,0:0:0:0:
316,336,29147,1,0,0:0:0:0:
316,336,29215,6,0,P|288:308|276:280,1,64.9999976158143
248,32,29351,1,0,0:0:0:0:
248,32,29488,6,0,P|280:62|296:112,1,64.9999976158143
200,308,29624,1,0,0:0:0:0:
200,308,29760,6,0,P|192:264|212:224,1,64.9999976158143
376,76,29897,1,0,0:0:0:0:
376,76,30033,6,0,P|384:124|364:164,1,64.9999976158143
112,240,30169,1,0,0:0:0:0:
112,240,30306,6,0,P|126:204|160:172,1,64.9999976158143
292,36,30442,1,0,0:0:0:0:
292,36,30578,6,0,L|268:108,1,64.9999976158143
184,304,30715,1,0,0:0:0:0:
184,304,30851,6,0,L|224:216,1,64.9999976158143
384,216,30988,1,0,0:0:0:0:
384,216,31124,2,0,L|304:188,1,64.9999976158143
140,120,31260,1,0,0:0:0:0:
140,120,31328,1,0,0:0:0:0:
140,120,31397,2,0,L|228:148,1,64.9999976158143
360,60,31533,5,0,0:0:0:0:
316,136,31669,1,0,0:0:0:0:
288,224,31806,1,0,0:0:0:0:
296,320,31942,1,0,0:0:0:0:
208,76,32078,5,0,0:0:0:0:
184,304,32215,1,0,0:0:0:0:
416,148,32351,1,0,0:0:0:0:
60,220,32488,1,0,0:0:0:0:
404,264,32624,1,0,0:0:0:0:
288,40,32760,5,0,0:0:0:0:
256,80,32828,1,0,0:0:0:0:
211,51,32897,1,0,0:0:0:0:
164,28,32965,1,0,0:0:0:0:
117,50,33033,1,0,0:0:0:0:
92,95,33101,1,0,0:0:0:0:
110,143,33169,1,0,0:0:0:0:
158,163,33238,5,0,0:0:0:0:
194,126,33306,1,0,0:0:0:0:
173,173,33374,1,0,0:0:0:0:
160,223,33442,1,0,0:0:0:0:
169,274,33510,1,0,0:0:0:0:
205,310,33578,1,0,0:0:0:0:
252,333,33647,1,0,0:0:0:0:
304,320,33715,1,0,0:0:0:0:
116,88,35897,6,0,P|120:176|188:120,1,194.999992847443
20,76,36442,6,0,P|8:108|8:160,1,64.9999976158142
80,244,36578,1,0,0:0:0:0:
142,260,36647,1,0,0:0:0:0:
209,245,36715,2,0,P|246:211|261:178,1,77.9999947586062
264,100,36851,2,0,P|232:44|200:24,1,97.5000001430512
100,16,36988,1,0,0:0:0:0:
343,131,37124,6,0,B|367:131|367:131|399:119|399:119|439:123|439:123|463:143,1,129.999995231629
346,43,37260,1,0,0:0:0:0:
410,204,37397,2,0,B|429:216|437:232|437:232|462:240|494:228,1,97.5000001430512
324,200,37533,6,0,P|268:220|228:284,1,97.5000001430512
236,383,37669,2,0,P|282:369|317:336,1,97.5000001430512
311,206,37806,2,0,B|279:225|255:226|255:226|254:249|215:290,1,97.5000001430512
239,370,37942,2,0,B|271:351|295:350|295:350|303:321|335:286,1,97.5000001430512
410,197,38078,5,0,0:0:0:0:
200,52,38215,1,0,0:0:0:0:
160,96,38283,1,0,0:0:0:0:
128,148,38351,2,0,B|106:180|106:180|86:191|86:191|68:216,1,77.9999947586062
96,312,38488,2,0,B|66:334|66:334|54:361|54:361|8:400,1,97.5000001430512
172,244,38624,1,0,0:0:0:0:
288,108,38760,6,0,L|226:186,1,77.9999947586062
352,32,38897,1,0,0:0:0:0:
184,252,39033,6,0,B|206:237|206:237|213:215|213:215|240:184,1,77.9999947586062
360,32,39169,1,0,0:0:0:0:
424,236,39306,2,0,P|404:280|324:328,1,77.9999947586062
176,256,39442,2,0,P|152:212|180:136,1,97.5000001430512
353,80,39578,2,0,P|308:63|260:68,1,97.5000001430512
240,188,39715,1,0,0:0:0:0:
231,193,39851,6,0,P|346:186|242:237,1,324.999988079071
201,308,40260,2,0,P|402:283|364:84,1,454.9999833107
164,40,40806,6,0,B|124:52|124:52|52:56,1,64.9999976158143
44,180,40942,1,0,0:0:0:0:
92,152,41010,1,0,0:0:0:0:
144,132,41078,2,0,B|184:120|184:120|256:116,1,64.9999976158143
348,248,41215,2,0,B|348:288|348:288|368:316|368:316|380:376,1,97.5000001430512
336,92,41351,1,0,0:0:0:0:
429,255,41488,6,0,B|424:208|424:208|398:184,1,77.9999947586062
328,88,41624,1,0,0:0:0:0:
196,312,41760,2,0,L|195:231,1,77.9999947586062
201,239,41897,6,0,P|116:144|96:96,1,170.62500025034
112,72,42033,2,0,P|238:50|284:60,1,170.62500025034
308,80,42169,2,0,P|284:150|204:236,1,170.62500025034
208,240,42306,2,0,B|203:258|213:284|213:284|197:324|197:324|210:349|205:380,1,146.250000214577
308,328,42442,2,0,L|308:244,1,77.9999947586062
408,48,42578,5,0,0:0:0:0:
408,80,42647,1,0,0:0:0:0:
408,120,42715,2,0,B|408:144|400:168|400:168|408:192|408:248,1,77.9999947586062
332,224,42851,2,0,B|338:254|324:288|324:288|333:307|332:376,1,97.5000001430512
312,80,42988,1,0,0:0:0:0:
138,159,43124,6,0,B|162:119|162:119|219:100,1,77.9999947586062
320,72,43260,1,0,0:0:0:0:
217,187,43397,6,0,B|191:226|191:226|145:251,1,77.9999947586062
40,304,43533,1,0,0:0:0:0:
136,136,43669,6,0,B|152:80|152:80|136:1,1,97.5000001430512
160,256,43806,2,0,B|176:308|176:308|164:372,1,97.5000001430512
268,108,43942,2,0,B|240:140|240:140|216:216,1,97.5000001430512
416,96,44078,6,0,P|363:64|423:49,2,155.999989517212
382,253,44488,6,0,B|380:240|380:240|370:220|370:220|356:199|356:199|336:193|336:193|319:186|319:186|296:184|296:184|274:191|274:191|255:201|255:201|246:213|246:213|236:224|236:224|228:247|228:247|224:272|224:272|232:296|232:296|244:316|244:316|268:335|268:335|299:342|299:342|324:340|324:340|341:328|341:328,1,389.999973793031
305,263,44897,2,0,B|252:236|236:204|236:204|160:212|160:212|129:176|68:160,1,233.999984275818
204,36,45169,6,0,B|196:72|196:72|172:116,1,64.9999976158143
80,260,45306,1,0,0:0:0:0:
80,260,45374,1,0,0:0:0:0:
80,260,45442,2,0,B|88:208|88:208|120:160,1,77.9999947586062
212,32,45578,2,0,B|256:48|256:48|332:48,1,97.5000001430512
416,20,45715,1,0,0:0:0:0:
304,200,45851,6,0,P|337:179|365:153,1,77.9999947586062
216,328,45988,1,0,0:0:0:0:
384,148,46124,6,0,P|398:180|388:244,1,77.9999947586062
164,316,46260,2,0,P|264:308|180:288,1,292.500000429154
224,128,46533,2,0,B|240:181|208:216|208:216|237:269|215:322,1,195.000000286102
240,128,46806,6,0,L|244:52,1,64.9999976158143
324,164,46942,1,0,0:0:0:0:
324,208,47010,1,0,0:0:0:0:
328,256,47078,2,0,L|332:340,1,77.9999947586062
322,124,47215,2,0,L|318:20,1,97.5000001430512
423,189,47351,1,0,0:0:0:0:
420,16,47488,6,0,L|423:119,1,77.9999947586062
425,274,47624,1,0,0:0:0:0:
420,106,47760,2,0,L|424:184,1,77.9999947586062
428,364,47897,1,0,0:0:0:0:
212,256,48033,6,0,P|208:204|180:132,1,77.9999947586062
312,172,48169,2,0,B|264:196|264:196|216:272,1,97.5000001430512
200,104,48306,2,0,B|232:122|244:140|244:140|276:136|332:160,1,97.5000001430512
324,264,48442,1,0,0:0:0:0:
324,264,48578,6,0,B|356:253|388:276|388:276|375:253|380:216|380:216|441:212|455:141|455:141|447:204|463:252,1,324.999988079071
373,136,48988,2,0,B|344:133|333:131|325:149|314:142|323:126|299:126|265:140|265:140|193:80|251:51|251:51|309:80|231:141|231:141|192:143|177:126|167:137|158:125|156:139|148:131|142:134|136:153|114:131,1,454.9999833107
68,284,49533,6,0,P|101:271|140:269,1,64.9999976158143
368,216,49669,1,0,0:0:0:0:
328,224,49738,1,0,0:0:0:0:
292,240,49806,2,0,P|252:264|212:268,1,77.9999947586062
40,168,49942,2,0,B|47:195|62:216|62:216|64:248|76:300,1,97.5000001430512
20,80,50078,1,0,0:0:0:0:
159,286,50215,6,0,B|144:244|144:244|139:204,1,77.9999947586062
28,64,50351,1,0,0:0:0:0:
210,117,50488,2,0,B|215:141|208:160|208:160|221:186|224:218,1,97.5000001430512
368,128,50624,6,0,P|359:59|421:29,1,146.250000214577
496,128,50760,2,0,P|504:59|442:29,1,146.250000214577
442,226,50897,2,0,P|503:195|495:127,1,146.250000214577
368,128,51033,2,0,P|368:208|432:224,1,146.250000214577
432,384,51169,2,0,L|432:276,1,77.9999947586062
224,224,51306,5,0,0:0:0:0:
224,192,51374,1,0,0:0:0:0:
224,146,51442,2,0,L|224:274,1,77.9999947586062
304,244,51578,2,0,B|310:287|304:308|304:308|314:331|320:372,1,97.5000001430512
312,152,51715,1,0,0:0:0:0:
68,300,51851,6,0,B|120:276|120:276|160:220,1,77.9999947586062
304,144,51988,1,0,0:0:0:0:
48,304,52124,2,0,B|28:348|28:348|-24:408,1,77.9999947586062
104,80,52260,6,0,P|264:60|244:-4,1,243.750000357628
300,200,52669,1,0,0:0:0:0:
376,68,52806,1,0,0:0:0:0:
400,280,52942,2,0,P|408:172|424:148,1,97.5000001430512
304,332,53215,1,0,0:0:0:0:
116,108,53351,6,0,B|116:132|144:156|144:156|128:192|116:236|116:236|148:224|184:240,1,194.999992847443
272,156,53897,6,0,L|277:91,1,64.9999976158142
232,332,54033,1,0,0:0:0:0:
244,280,54101,1,0,0:0:0:0:
256,236,54169,2,0,P|248:192|272:136,1,77.9999947586062
356,124,54306,2,0,P|356:177|344:224,1,97.5000001430512
324,316,54442,1,0,0:0:0:0:
498,231,54578,6,0,P|465:240|432:272,1,77.9999947586062
328,328,54715,1,0,0:0:0:0:
152,52,54851,1,0,0:0:0:0:
156,248,54988,6,0,P|151:306|124:344,1,97.5000001430512
273,229,55124,2,0,P|225:223|180:240,1,97.5000001430512
43,218,55260,2,0,P|84:243|132:240,1,97.5000001430512
198,134,55397,2,0,P|163:167|155:215,1,97.5000001430512
324,100,55533,6,0,P|296:64|248:32,1,64.9999976158143
308,256,55669,1,0,0:0:0:0:
316,264,55738,1,0,0:0:0:0:
316,264,55806,2,0,P|360:276|416:256,1,77.9999947586062
476,216,55942,2,0,P|504:168|512:108,1,97.5000001430512
456,8,56078,1,0,0:0:0:0:
196,40,56215,6,0,P|184:80|196:144,1,77.9999947586062
236,200,56351,1,0,0:0:0:0:
272,16,56488,6,0,P|304:0|360:4,1,77.9999947586062
448,20,56624,1,0,0:0:0:0:
312,332,56760,6,0,B|312:280|312:280|280:208,1,77.9999947586062
416,124,56897,2,0,B|368:156|368:156|320:224,1,97.5000001430512
168,148,57033,2,0,B|224:156|224:156|300:204,1,97.5000001430512
177,263,57169,1,0,0:0:0:0:
296,84,57306,6,0,B|200:96|139:38|139:38|168:116|136:208,1,324.999988079071
101,286,57715,2,0,B|101:288|101:288|111:308|111:308|125:329|125:329|145:335|145:335|162:342|162:342|185:344|185:344|207:337|207:337|226:327|226:327|235:315|235:315|245:304|245:304|253:281|253:281|257:256|257:256|249:232|249:232|237:212|237:212|213:193|213:193|182:186|182:186|157:188|157:188|140:200|152:192,1,389.999973793031
175,264,58260,6,0,L|68:288,1,64.9999976158143
176,64,58397,1,0,0:0:0:0:
196,80,58465,1,0,0:0:0:0:
216,96,58533,2,0,B|244:136|244:136|248:236,1,77.9999947586062
343,240,58669,2,0,B|331:284|331:284|346:362,1,97.5000001430512
340,84,58806,1,0,0:0:0:0:
448,220,58942,6,0,B|478:246|478:246|502:328,1,77.9999947586062
352,96,59078,1,0,0:0:0:0:
434,379,59215,2,0,L|407:285,1,97.5000001430512
120,244,59351,6,0,B|88:292|88:292|108:252|104:200,1,146.250000214577
176,80,59488,2,0,B|208:32|208:32|192:64|192:124,1,146.250000214577
96,120,59624,2,0,B|80:76|50:43|50:43|97:77,1,146.250000214577
200,192,59760,2,0,B|204:232|245:268|245:268|198:234,1,146.250000214577
168,384,59897,6,0,L|168:276,1,77.9999947586062
380,140,60033,1,0,0:0:0:0:
368,168,60101,1,0,0:0:0:0:
360,192,60169,2,0,L|360:320,1,77.9999947586062
320,272,60306,2,0,L|320:424,1,97.5000001430512
336,56,60442,1,0,0:0:0:0:
128,240,60578,6,0,P|188:168|220:160,1,77.9999947586062
336,56,60715,1,0,0:0:0:0:
256,172,60851,6,0,P|200:268|184:276,1,77.9999947586062
336,56,60988,1,0,0:0:0:0:
84,176,61124,6,0,P|104:116|84:41,1,97.5000001430512
155,213,61260,2,0,P|118:250|36:245,1,97.5000001430512
8,296,61397,2,0,P|-3:244|24:201,1,97.5000001430512
232,28,61533,6,0,L|252:260,2,155.999989517212
436,136,61942,6,0,B|424:60|328:36|328:36|328:168|444:276,1,389.999973793031
184,248,62351,2,0,P|310:208|418:248,1,233.999984275818
168,80,62624,6,0,L|160:172,1,64.9999976158142
208,328,62760,1,0,0:0:0:0:
163,329,62828,1,0,0:0:0:0:
120,296,62897,2,0,P|81:265|64:232,1,77.9999947586062
56,112,63033,2,0,P|64:52|120:-12,1,97.5000001430512
244,0,63169,1,0,0:0:0:0:
416,128,63306,6,0,B|376:144|376:144|316:188,1,77.9999947586062
214,330,63442,1,0,0:0:0:0:
228,52,63578,6,0,L|224:148,1,77.9999947586062
164,316,63715,2,0,P|272:312|180:288,1,292.500000429154
224,136,63988,2,0,B|218:191|232:224|232:224|221:251|215:330,1,195.000000286102
432,168,64260,6,0,P|408:136|356:100,1,64.9999976158143
312,340,64397,1,0,0:0:0:0:
336,288,64465,1,0,0:0:0:0:
360,244,64533,2,0,L|444:236,1,77.9999947586062
296,200,64669,2,0,L|428:188,1,97.5000001430512
480,56,64806,1,0,0:0:0:0:
227,153,64942,6,0,P|214:191|227:257,1,77.9999947586062
284,48,65078,1,0,0:0:0:0:
128,248,65215,2,0,P|129:288|96:352,1,77.9999947586062
64,84,65351,1,0,0:0:0:0:
272,324,65488,6,0,P|246:274|240:200,1,77.9999947586062
424,272,65624,2,0,P|401:322|328:372,1,97.5000001430512
300,176,65760,2,0,P|350:171|432:212,1,97.5000001430512
334,259,65897,1,0,0:0:0:0:
387,94,66033,6,0,P|339:-2|399:62,1,324.999988079071
100,20,66442,2,0,B|138:29|160:17|160:17|215:50|215:50|247:33|284:49|284:49|350:-26|444:25|355:179|289:52,1,454.9999833107
136,108,66988,6,0,L|24:92,1,64.9999976158143
152,304,67124,1,0,0:0:0:0:
180,244,67192,1,0,0:0:0:0:
204,204,67260,2,0,L|248:132,1,77.9999947586062
352,176,67397,2,0,B|334:202|320:212|320:212|316:232|296:268,1,97.5000001430512
324,88,67533,1,0,0:0:0:0:
445,294,67669,6,0,L|424:220,1,77.9999947586062
328,72,67806,1,0,0:0:0:0:
384,380,67942,2,0,L|358:287,1,97.5000001430512
80,232,68078,6,0,B|164:216|164:216|160:172|205:115|205:115|212:224|254:301|254:301|316:204|310:116|310:116|364:172|365:211,1,682.500001001358
168,376,68624,6,0,L|168:268,1,77.9999947586062
216,8,68760,1,0,0:0:0:0:
216,36,68828,1,0,0:0:0:0:
216,64,68897,2,0,L|216:192,1,77.9999947586062
288,248,69033,2,0,L|288:400,1,97.5000001430512
296,96,69169,1,0,0:0:0:0:
116,264,69306,6,0,P|176:192|208:184,1,77.9999947586062
364,188,69442,1,0,0:0:0:0:
200,280,69578,6,0,P|144:376|128:384,1,77.9999947586062
0,336,69715,1,0,0:0:0:0:
368,256,69851,6,0,L|224:284,1,97.5000001430512
248,256,69988,2,0,L|388:232,1,97.5000001430512
376,192,70124,2,0,L|236:216,1,97.5000001430512
150,139,70260,6,0,P|163:67|221:-6,2,155.999989517212
404,88,70669,6,0,P|240:96|348:224,1,389.999985694885
208,320,71351,1,0,0:0:0:0:
120,176,71896,1,0,0:0:0:0:
268,208,72441,6,0,P|256:268|200:328,1,129.999995231629
344,188,72714,1,0,0:0:0:0:
356,269,72851,6,0,P|392:121|264:204,1,389.999985694885
204,52,73532,1,0,0:0:0:0:
344,188,74078,1,0,0:0:0:0:
152,192,74623,1,0,0:0:0:0:
341,114,75032,6,0,P|405:146|289:138,1,389.999985694885
368,36,75714,1,0,0:0:0:0:
228,48,76260,1,0,0:0:0:0:
124,128,76805,1,0,0:0:0:0:
164,268,76941,5,0,0:0:0:0:
164,268,77010,1,0,0:0:0:0:
164,268,77078,1,0,0:0:0:0:
164,268,77146,1,0,0:0:0:0:
164,268,77214,1,0,0:0:0:0:
164,268,77282,1,0,0:0:0:0:
164,268,77351,6,0,B|244:272|280:220|280:220|312:280|392:272,1,259.999990463257
432,120,78305,1,0,0:0:0:0:
432,120,78373,1,0,0:0:0:0:
432,120,78441,6,0,P|392:84|420:100,1,259.999990463257
52,100,78851,6,0,B|63:158|40:200|40:200|57:223|64:296,1,194.999992847443
208,176,79260,6,0,B|199:238|220:273|220:273|204:300|212:369,1,194.999992847443
288,216,79532,2,0,L|276:68,1,129.999995231629
144,48,79805,6,0,L|192:128,1,64.9999976158143
296,280,79942,1,0,0:0:0:0:
288,272,80078,6,0,L|244:212,1,64.9999976158143
228,24,80215,1,0,0:0:0:0:
424,148,80351,1,0,0:0:0:0:
424,148,80487,6,0,L|360:152,1,64.9999976158143
116,164,80623,1,0,0:0:0:0:
116,164,80760,6,0,L|208:192,1,64.9999976158143
400,236,80896,1,0,0:0:0:0:
400,236,81032,6,0,L|340:192,1,64.9999976158143
160,88,81169,1,0,0:0:0:0:
160,88,81305,6,0,L|220:168,1,64.9999976158143
316,288,81441,1,0,0:0:0:0:
316,288,81510,1,0,0:0:0:0:
316,288,81578,6,0,L|288:224,1,64.9999976158143
240,56,81714,1,0,0:0:0:0:
240,56,81851,6,0,L|220:168,1,64.9999976158143
216,296,81987,1,0,0:0:0:0:
216,296,82123,6,0,L|245:237,1,64.9999976158143
332,88,82260,1,0,0:0:0:0:
332,88,82396,6,0,L|240:156,1,64.9999976158143
120,236,82532,1,0,0:0:0:0:
120,236,82669,6,0,L|200:224,1,64.9999976158143
364,200,82805,1,0,0:0:0:0:
364,200,82941,6,0,L|288:184,1,64.9999976158143
117,136,83078,1,0,0:0:0:0:
117,136,83214,6,0,L|191:171,1,64.9999976158143
368,96,83351,1,0,0:0:0:0:
373,96,83487,6,0,L|311:74,1,64.9999976158143
128,40,83623,1,0,0:0:0:0:
128,40,83691,1,0,0:0:0:0:
128,40,83760,6,0,L|192:72,1,64.9999976158143
376,224,83896,5,0,0:0:0:0:
324,152,84032,1,0,0:0:0:0:
292,232,84169,1,0,0:0:0:0:
352,304,84305,1,0,0:0:0:0:
412,144,84441,1,0,0:0:0:0:
264,316,84578,5,0,0:0:0:0:
460,212,84714,1,0,0:0:0:0:
236,160,84851,1,0,0:0:0:0:
440,300,84987,1,0,0:0:0:0:
288,40,85123,5,0,0:0:0:0:
228,44,85191,1,0,0:0:0:0:
168,48,85260,1,0,0:0:0:0:
124,84,85328,1,0,0:0:0:0:
112,140,85396,1,0,0:0:0:0:
148,188,85464,1,0,0:0:0:0:
208,192,85532,1,0,0:0:0:0:
256,228,85601,5,0,0:0:0:0:
256,288,85669,1,0,0:0:0:0:
216,332,85737,1,0,0:0:0:0:
160,312,85805,1,0,0:0:0:0:
156,252,85873,1,0,0:0:0:0:
200,216,85941,1,0,0:0:0:0:
244,176,86010,1,0,0:0:0:0:
232,120,86078,1,0,0:0:0:0:
116,88,88260,6,0,P|120:176|188:120,1,194.999992847443
284,108,88805,6,0,P|288:140|272:192,1,64.9999976158143
120,320,88941,1,0,0:0:0:0:
168,316,89010,1,0,0:0:0:0:
216,300,89078,2,0,P|253:266|268:233,1,77.9999947586062
368,104,89214,2,0,P|336:48|304:28,1,97.5000001430512
104,48,89351,1,0,0:0:0:0:
10,219,89488,6,0,B|25:216|52:220|52:220|84:204|84:204|107:209|136:200,1,129.999995231629
456,124,89623,1,0,0:0:0:0:
448,112,89760,2,0,L|340:148,1,97.5000001430512
212,128,89896,6,0,P|156:148|116:212,1,97.5000001430512
215,299,90032,2,0,P|261:285|296:252,1,97.5000001430512
296,76,90169,2,0,B|264:95|240:96|240:96|239:119|200:160,1,97.5000001430512
143,353,90305,6,0,B|175:334|199:333|199:333|207:304|239:269,1,97.5000001430512
240,20,90441,1,0,0:0:0:0:
404,216,90578,1,0,0:0:0:0:
384,168,90646,1,0,0:0:0:0:
360,128,90714,6,0,B|338:160|338:160|318:171|318:171|300:196,1,77.9999947586062
96,288,90851,2,0,B|66:310|66:310|54:337|54:337|8:376,1,97.5000001430512
180,220,90987,1,0,0:0:0:0:
324,272,91123,6,0,L|262:350,1,77.9999947586062
448,112,91260,1,0,0:0:0:0:
192,216,91396,6,0,B|214:201|214:201|221:179|221:179|248:148,1,77.9999947586062
325,32,91532,1,0,0:0:0:0:
424,236,91669,6,0,B|401:257|400:304|400:304|388:268,1,77.9999947586062
451,59,91805,2,0,B|451:91|435:131|435:131|471:75,1,97.5000001430512
325,32,91941,2,0,P|280:51|232:56,1,97.5000001430512
284,164,92078,1,0,0:0:0:0:
295,173,92214,6,0,P|375:281|314:379,1,259.999990463257
0,208,92623,2,0,B|89:218|137:331|179:261|221:293|221:293|300:363|338:241|263:206|221:291,1,454.9999833107
344,64,93169,6,0,B|304:76|304:76|232:80,1,64.9999976158143
36,128,93305,1,0,0:0:0:0:
100,152,93373,1,0,0:0:0:0:
144,132,93441,2,0,B|184:120|184:120|256:116,1,64.9999976158143
348,248,93578,6,0,B|348:288|348:288|368:316|368:316|380:376,1,97.5000001430512
344,64,93714,1,0,0:0:0:0:
429,255,93851,6,0,B|424:208|424:208|398:184,1,77.9999947586062
344,64,93987,1,0,0:0:0:0:
108,0,94123,6,0,L|108:77,1,77.9999947586062
116,252,94260,6,0,B|192:196|192:196|200:112,1,170.62500025034
199,120,94397,2,0,B|123:176|123:176|115:260,1,170.62500025034
107,252,94533,6,0,B|100:327|100:327|24:383,1,170.62500025034
23,383,94669,2,0,B|31:308|31:308|107:252,1,170.62500025034
192,304,94805,6,0,L|200:220,1,77.9999947586062
408,236,94941,1,0,0:0:0:0:
412,288,95010,1,0,0:0:0:0:
404,188,95078,6,0,B|404:212|412:236|412:236|404:260|404:316,1,77.9999947586062
472,44,95214,2,0,B|478:74|464:108|464:108|473:127|472:196,1,97.5000001430512
472,344,95351,1,0,0:0:0:0:
138,159,95487,6,0,B|162:119|162:119|219:100,1,77.9999947586062
392,64,95623,1,0,0:0:0:0:
324,308,95760,6,0,L|324:204,1,77.9999947586062
256,28,95896,1,0,0:0:0:0:
136,136,96032,6,0,B|152:80|152:80|136:1,1,97.5000001430512
160,256,96169,2,0,B|176:308|176:308|164:372,1,97.5000001430512
268,108,96305,2,0,B|240:140|240:140|216:216,1,97.5000001430512
416,96,96441,6,0,P|363:64|423:49,2,155.999989517212
347,212,96851,6,0,B|289:194|252:120|252:120|213:171|135:213|135:213|176:257|225:289,1,389.999973793031
295,275,97260,2,0,B|238:242|222:210|222:210|141:218|141:218|115:182|54:166,1,233.999984275818
376,140,97532,6,0,B|368:176|368:176|344:220,1,64.9999976158143
272,376,97669,1,0,0:0:0:0:
208,360,97737,1,0,0:0:0:0:
156,328,97805,2,0,B|164:276|164:276|196:228,1,77.9999947586062
212,32,97941,2,0,B|246:55|256:92|256:92|280:44,1,97.5000001430512
124,152,98078,1,0,0:0:0:0:
28,328,98214,6,0,P|61:307|89:281,1,77.9999947586062
140,128,98351,1,0,0:0:0:0:
336,24,98487,2,0,P|350:56|340:120,1,77.9999947586062
168,380,98623,6,0,B|165:346|144:328|144:328|156:252|100:212|100:212|164:188|196:232,1,292.500000429154
196,40,98896,2,0,B|212:93|180:128|180:128|209:181|187:234,1,195.000000286102
260,384,99169,6,0,L|264:308,1,64.9999976158143
336,132,99305,1,0,0:0:0:0:
336,184,99373,1,0,0:0:0:0:
344,236,99441,2,0,L|348:320,1,77.9999947586062
480,120,99578,6,0,L|476:16,1,97.5000001430512
500,244,99714,1,0,0:0:0:0:
392,24,99851,6,0,L|400:128,1,77.9999947586062
428,336,99987,1,0,0:0:0:0:
420,180,100123,6,0,L|424:264,1,77.9999947586062
484,16,100260,1,0,0:0:0:0:
188,268,100396,6,0,B|160:224|160:224|156:144,1,77.9999947586062
232,120,100532,2,0,B|184:144|184:144|136:220,1,97.5000001430512
136,56,100669,2,0,B|168:74|180:92|180:92|212:88|268:112,1,97.5000001430512
256,200,100805,1,0,0:0:0:0:
353,54,100942,6,0,B|372:100|372:100|412:144|412:144|424:204|392:260|392:260|344:248|328:196|335:192,1,324.999988079071
351,333,101351,6,0,B|387:348|419:349|419:349|501:284|508:153|480:99|480:99|440:55|440:55|420:7,1,454.9999833107
140,76,101896,6,0,B|173:63|173:63|212:61,1,64.9999976158143
288,292,102032,1,0,0:0:0:0:
308,244,102101,1,0,0:0:0:0:
312,192,102169,2,0,P|272:216|232:220,1,77.9999947586062
140,96,102305,2,0,B|147:123|162:144|162:144|164:176|176:228,1,97.5000001430512
252,364,102441,1,0,0:0:0:0:
300,108,102578,6,0,B|285:66|285:66|280:26,1,77.9999947586062
400,220,102714,1,0,0:0:0:0:
112,0,102851,6,0,B|117:24|110:43|110:43|123:69|126:101,1,97.5000001430512
208,284,102987,6,0,B|190:347|190:347|110:346,1,146.250000214577
116,219,103123,2,0,B|193:208|193:208|209:274,1,146.250000214577
14,266,103260,2,0,B|36:201|36:201|112:218,1,146.250000214577
109,346,103396,2,0,B|37:360|37:360|12:293,1,146.250000214577
120,100,103532,6,0,B|126:75|116:52|116:52|109:30|120:-8,1,77.9999947586062
368,88,103669,1,0,0:0:0:0:
304,96,103737,1,0,0:0:0:0:
248,116,103805,6,0,L|184:172,1,77.9999947586062
480,236,103941,2,0,B|480:227|470:204|470:204|476:183|470:140,1,97.5000001430512
508,20,104078,1,0,0:0:0:0:
319,216,104214,6,0,B|371:192|371:192|384:176,1,77.9999947586062
180,44,104351,1,0,0:0:0:0:
40,212,104487,6,0,B|20:256|20:256|-32:316,1,77.9999947586062
104,76,104623,6,0,P|264:56|244:-8,1,243.750000357628
0,8,105032,1,0,0:0:0:0:
144,224,105169,1,0,0:0:0:0:
0,373,105305,6,0,P|8:265|24:241,1,97.5000001430512
240,100,105578,1,0,0:0:0:0:
208,360,105715,6,0,B|245:340|280:352|280:352|316:324|316:324|356:331|392:324,1,194.999992847443
504,172,106260,2,0,L|509:107,1,64.9999976158142
512,384,106396,1,0,0:0:0:0:
512,344,106464,1,0,0:0:0:0:
512,312,106532,6,0,P|504:268|528:212,1,77.9999947586062
512,0,106669,2,0,P|512:53|500:100,1,97.5000001430512
340,212,106805,1,0,0:0:0:0:
408,40,106941,6,0,P|375:49|342:81,1,77.9999947586062
248,208,107078,1,0,0:0:0:0:
120,48,107214,1,0,0:0:0:0:
280,108,107351,6,0,B|244:131|244:131|239:186,1,97.5000001430512
217,210,107488,2,0,B|175:179|175:179|130:187,1,97.5000001430512
357,201,107624,2,0,B|324:218|324:218|264:210,1,97.5000001430512
241,219,107760,2,0,B|221:275|221:275|236:309,1,97.5000001430512
280,108,107896,2,0,P|252:72|204:40,1,64.9999976158143
340,316,108032,1,0,0:0:0:0:
348,280,108101,1,0,0:0:0:0:
368,264,108169,6,0,P|416:252|468:256,1,77.9999947586062
476,148,108305,2,0,P|504:100|512:40,1,97.5000001430512
372,16,108441,1,0,0:0:0:0:
476,196,108578,6,0,P|464:236|476:300,1,77.9999947586062
496,376,108714,1,0,0:0:0:0:
244,240,108851,6,0,P|276:224|332:228,1,77.9999947586062
504,368,108988,1,0,0:0:0:0:
316,376,109123,6,0,L|284:252,1,77.9999947586062
416,124,109260,2,0,P|376:136|320:224,1,97.5000001430512
160,148,109396,2,0,P|216:152|292:204,1,97.5000001430512
216,68,109532,1,0,0:0:0:0:
216,68,109669,6,0,B|188:56|168:36|168:36|140:40|140:40|120:12|96:4|96:4|62:22|20:80|20:80|20:28|-12:-12,1,324.999988079071
36,224,110078,6,0,B|36:226|36:226|46:246|46:246|60:267|60:267|80:273|80:273|97:280|97:280|120:282|120:282|142:275|142:275|161:265|161:265|170:253|170:253|180:242|180:242|188:219|188:219|192:194|192:194|184:170|184:170|172:150|172:150|148:131|148:131|117:124|117:124|92:126|92:126|75:138|87:130,1,389.999985694885
376,208,110623,6,0,P|328:228|269:232,1,64.9999976158143
117,208,110760,1,0,0:0:0:0:
117,208,110828,1,0,0:0:0:0:
117,208,110896,6,0,B|145:248|145:248|149:348,1,77.9999947586062
240,372,111032,2,0,B|230:321|230:321|242:277,1,97.5000001430512
320,100,111169,1,0,0:0:0:0:
472,208,111305,6,0,B|502:234|502:234|526:316,1,77.9999947586062
384,384,111441,1,0,0:0:0:0:
320,89,111578,6,0,P|321:34|293:-5,1,97.5000001430512
90,56,111714,6,0,B|84:23|42:0|42:0|31:44|50:69,1,146.250000214577
137,224,111851,2,0,B|146:250|184:272|184:272|189:229|166:198,1,146.250000214577
26,155,111988,2,0,B|-6:161|-29:203|-29:203|14:214|39:196,1,146.250000214577
194,108,112125,2,0,B|220:99|242:61|242:61|199:56|168:80,1,146.250000214577
80,380,112260,6,0,L|80:272,1,77.9999947586062
248,180,112396,1,0,0:0:0:0:
288,208,112464,1,0,0:0:0:0:
316,232,112532,6,0,P|356:252|388:280,1,77.9999947586062
424,220,112669,2,0,P|454:259|512:284,1,97.5000001430512
360,384,112805,1,0,0:0:0:0:
360,160,112941,6,0,P|420:88|452:80,1,77.9999947586062
512,4,113078,1,0,0:0:0:0:
256,172,113214,2,0,P|200:268|184:276,1,77.9999947586062
96,384,113351,1,0,0:0:0:0:
21,14,113487,6,0,P|22:63|4:108,1,97.5000001430512
81,280,113623,2,0,P|44:317|-38:312,1,97.5000001430512
0,224,113760,2,0,P|-11:172|16:129,1,97.5000001430512
160,72,113896,2,0,B|156:128|180:152|180:152|157:182|156:256,2,155.999989517212
436,136,114305,6,0,B|416:104|424:72|424:72|374:65|328:36|328:36|340:96|336:152|336:152|366:220|430:210,1,389.999973793031
192,284,114714,6,0,B|280:276|312:232|312:232|360:276|426:284,1,233.999984275818
208,92,114987,6,0,L|200:184,1,64.9999976158142
208,368,115123,1,0,0:0:0:0:
140,360,115191,1,0,0:0:0:0:
84,344,115260,2,0,P|45:313|28:280,1,77.9999947586062
4,156,115396,2,0,P|8:100|68:32,1,97.5000001430512
148,0,115532,1,0,0:0:0:0:
168,176,115669,6,0,P|136:204|68:236,1,77.9999947586062
0,384,115805,1,0,0:0:0:0:
88,228,115941,6,0,L|84:150,1,77.9999947586062
228,44,116078,2,0,P|336:40|244:16,1,292.500000429154
272,252,116351,2,0,L|281:58,1,195.000000286102
496,128,116623,6,0,L|420:60,1,64.9999976158142
448,320,116760,1,0,0:0:0:0:
404,340,116828,1,0,0:0:0:0:
368,324,116896,2,0,L|290:330,1,77.9999947586062
408,236,117032,6,0,B|464:216|464:216|540:224,1,97.5000001430512
180,52,117169,1,0,0:0:0:0:
208,284,117305,6,0,L|208:388,1,77.9999947586062
192,116,117441,1,0,0:0:0:0:
236,272,117578,6,0,L|204:376,1,77.9999947586062
288,112,117714,1,0,0:0:0:0:
104,192,117851,6,0,L|72:68,1,77.9999947586062
104,304,117987,2,0,L|8:404,1,97.5000001430512
184,240,118123,2,0,L|316:296,1,97.5000001430512
400,160,118260,1,0,0:0:0:0:
400,160,118396,6,0,B|477:231|402:311|402:311|314:243|400:160,1,324.999988079071
320,88,118805,6,0,B|359:91|359:91|228:200|288:316|334:360|334:360|344:376|288:348,1,389.999985694885
116,248,119351,6,0,L|4:264,1,64.9999976158142
156,104,119487,1,0,0:0:0:0:
188,72,119555,1,0,0:0:0:0:
232,56,119623,2,0,L|312:24,1,77.9999947586062
232,220,119760,2,0,L|268:352,1,97.5000001430512
312,124,119896,1,0,0:0:0:0:
388,256,120032,6,0,L|420:368,1,77.9999947586062
324,112,120169,1,0,0:0:0:0:
124,152,120305,6,0,L|60:76,1,97.5000001430512
88,312,120441,2,0,B|143:342|195:325|195:325|187:224|206:187|206:187|179:220|142:240|142:240|185:236|281:256|281:256|299:193|292:98|292:98|245:144,1,682.500001001358
436,100,120987,6,0,L|436:178,1,77.9999947586062
344,320,121123,1,0,0:0:0:0:
344,332,121191,1,0,0:0:0:0:
348,308,121260,6,0,L|348:230,1,77.9999947586062
320,200,121396,2,0,L|320:352,1,97.5000001430512
312,80,121532,1,0,0:0:0:0:
160,288,121669,6,0,B|208:248|208:248|208:272,1,77.9999947586062
88,360,121805,1,0,0:0:0:0:
240,164,121941,2,0,P|184:260|168:268,1,77.9999947586062
80,348,122078,1,0,0:0:0:0:
308,316,122214,6,0,P|366:309|403:297,1,97.5000001430512
472,208,122351,2,0,P|424:208|375:224,1,97.5000001430512
248,168,122487,2,0,P|292:156|344:151,1,97.5000001430512
456,52,122623,6,0,P|388:44|301:72,2,155.999989517212
192,100,123032,2,0,B|162:231|52:376|52:376|128:312|212:300,1,467.999968551637
