osu file format v14

[General]
AudioFilename: audio.mp3
AudioLeadIn: 0
PreviewTime: 36039
Countdown: 0
SampleSet: Normal
StackLeniency: 0.7
Mode: 1
LetterboxInBreaks: 0
WidescreenStoryboard: 1

[Editor]
DistanceSpacing: 0.9
BeatDivisor: 4
GridSize: 32
TimelineZoom: 3.699998

[Metadata]
Title:ERROR CODE
TitleUnicode:ERROR CODE
Artist:C-Show
ArtistUnicode:C-Show
Creator:babysnakes
Version:Poison
Source:SOUND VOLTEX III GRAVITY WARS
Tags:SDVX KONAMI BEMANI ULTIMATE TRACKS -FLOOR ANTHEM- EP.01
BeatmapID:1733597
BeatmapSetID:827303

[Difficulty]
HPDrainRate:6.5
CircleSize:2
OverallDifficulty:6.5
ApproachRate:0
SliderMultiplier:1.4
SliderTickRate:1

[Events]
//Background and Video events
0,0,"background.png",0,0
//Break Periods
//Storyboard Layer 0 (Background)
//Storyboard Layer 1 (Fail)
//Storyboard Layer 2 (Pass)
//Storyboard Layer 3 (Foreground)
//Storyboard Sound Samples

[TimingPoints]
1130,272.727272727273,4,1,0,100,1,0
4880,-55.5555555555556,4,1,0,100,0,0
5220,-100,4,1,0,100,0,0
9243,-55.5555555555556,4,1,0,100,0,0
9516,-66.6666666666667,4,1,0,100,0,0
9652,-55.5555555555556,4,1,0,100,0,0
9993,-100,4,1,0,100,0,0
13607,-55.5555555555556,4,1,0,100,0,0
13880,-100,4,1,0,100,0,0
18039,-83.3333333333333,4,1,0,100,0,0
18175,-97.0873786407767,4,1,0,100,0,0
18311,-100,4,1,0,100,0,0
18448,-55.5555555555556,4,1,0,100,0,0
18993,-200,4,1,0,40,0,0
20561,-55.5555555555556,4,1,0,100,0,0
21202,-200,4,1,0,40,0,0
22675,-55.5555555555556,4,1,0,100,0,0
23376,-200,4,1,0,40,0,0
24857,-166.666666666667,4,1,0,40,0,0
24925,-142.857142857143,4,1,0,40,0,0
24993,-125,4,1,0,40,0,0
25061,-111.111111111111,4,1,0,40,0,0
25130,-55.5555555555556,4,1,0,100,0,0
25266,-100,4,1,0,100,0,0
26152,-55.5555555555556,4,1,0,100,0,0
26433,-100,4,1,0,100,0,0
29220,-95.2380952380952,4,1,0,100,0,0
29289,-90.9090909090909,4,1,0,100,0,0
29357,-86.9565217391304,4,1,0,100,0,0
29425,-83.3333333333333,4,1,0,100,0,0
29493,-55.5555555555556,4,1,0,100,0,0
30039,-83.3333333333333,4,1,0,100,0,0
33993,-25,4,1,0,100,0,0
34948,-111.111111111111,4,1,0,100,0,0
35084,-125,4,1,0,100,0,0
35357,-142.857142857143,4,1,0,100,0,0
35902,-166.666666666667,4,1,0,100,0,0
36039,-200,4,1,0,100,0,0
37811,-100,4,1,0,100,0,0
38289,-200,4,1,0,100,0,0
39857,-125,4,1,0,100,0,0
39993,-100,4,1,0,100,0,0
40334,-200,4,1,0,100,0,0
42175,-100,4,1,0,100,0,0
42656,-200,4,1,0,100,0,0
44152,-125,4,1,0,100,0,0
44289,-100,4,1,0,100,0,0
44561,-55.5555555555556,4,1,0,100,0,0
45262,-200,4,1,0,100,0,0
46402,-25,4,1,0,100,0,0
46812,-200,4,1,0,100,0,0
48584,-133.333333333333,4,1,0,100,0,0
49130,-200,4,1,0,100,0,0
50902,-100,4,1,0,100,0,0
51380,-200,4,1,0,100,0,0
52402,-100,4,1,0,100,0,0
52539,-90.9090909090909,4,1,0,100,0,0
52811,-83.3333333333333,4,1,0,100,0,0
52948,-76.9230769230769,4,1,0,100,0,0
53084,-90.9090909090909,4,1,0,100,0,0
53357,-100,4,1,0,100,0,0
53493,-200,4,1,0,100,0,0
55266,-100,4,1,0,100,0,0
55743,-200,4,1,0,100,0,0
57311,-125,4,1,0,100,0,0
57448,-100,4,1,0,100,0,0
57857,-200,4,1,0,100,0,0
59630,-100,4,1,0,100,0,0
60107,-200,4,1,0,100,0,0
61675,-125,4,1,0,100,0,0
61811,-100,4,1,0,100,0,0
62016,-55.5555555555556,4,1,0,100,0,0
62647,-200,4,1,0,100,0,0
63857,-25,4,1,0,100,0,0
64266,-200,4,1,0,100,0,0
66039,-133.333333333333,4,1,0,100,0,0
66448,-200,4,1,0,100,0,0
68357,-100,4,1,0,100,0,0
68818,-200,4,1,0,100,0,0
70402,-166.666666666667,4,1,0,100,0,0
70539,-149.253731343284,4,1,0,100,0,0
70811,-55.5555555555556,4,1,0,100,0,0
71493,-200,4,1,0,40,0,0
72925,-55.5555555555556,4,1,0,100,0,0
73626,-200,4,1,0,40,0,0
75070,-55.5555555555556,4,1,0,100,0,0
75789,-200,4,1,0,40,0,0
77220,-166.666666666667,4,1,0,40,0,0
77289,-142.857142857143,4,1,0,40,0,0
77357,-125,4,1,0,40,0,0
77425,-111.111111111111,4,1,0,40,0,0
77493,-55.5555555555556,4,1,0,100,0,0
78311,-100,4,1,0,100,0,0
78516,-55.5555555555556,4,1,0,100,0,0
78835,-100,4,1,0,100,0,0
81584,-95.2380952380952,4,1,0,100,0,0
81652,-90.9090909090909,4,1,0,100,0,0
81720,-86.9565217391304,4,1,0,100,0,0
81789,-83.3333333333333,4,1,0,100,0,0
81857,-55.5555555555556,4,1,0,100,0,0
82402,-83.3333333333333,4,1,0,100,0,0
86357,-25,4,1,0,100,0,0
87243,-100,4,1,0,100,0,0
87301,-111.111111111111,4,1,0,100,0,0
87437,-125,4,1,0,100,0,0
87710,-142.857142857143,4,1,0,100,0,0
88255,-166.666666666667,4,1,0,100,0,0
88392,-200,4,1,0,100,0,1
90164,-100,4,1,0,100,0,1
90220,-102.040816326531,4,1,0,100,0,1
90266,-104.166666666667,4,1,0,100,0,1
90311,-106.382978723404,4,1,0,100,0,1
90357,-108.695652173913,4,1,0,100,0,1
90402,-111.111111111111,4,1,0,100,0,1
90448,-113.636363636364,4,1,0,100,0,1
90493,-116.279069767442,4,1,0,100,0,1
90539,-119.047619047619,4,1,0,100,0,1
90584,-121.951219512195,4,1,0,100,0,1
90642,-200,4,1,0,100,0,1
92210,-125,4,1,0,100,0,1
92346,-100,4,1,0,100,0,1
92687,-200,4,1,0,100,0,1
94528,-100,4,1,0,100,0,1
94584,-102.040816326531,4,1,0,100,0,1
94630,-104.166666666667,4,1,0,100,0,1
94675,-106.382978723404,4,1,0,100,0,1
94720,-108.695652173913,4,1,0,100,0,1
94766,-111.111111111111,4,1,0,100,0,1
94811,-113.636363636364,4,1,0,100,0,1
94857,-116.279069767442,4,1,0,100,0,1
94902,-119.047619047619,4,1,0,100,0,1
94948,-121.951219512195,4,1,0,100,0,1
95009,-200,4,1,0,100,0,1
96505,-125,4,1,0,100,0,1
96642,-100,4,1,0,100,0,1
96914,-55.5555555555556,4,1,0,100,0,1
97615,-200,4,1,0,100,0,1
98755,-25,4,1,0,100,0,1
99165,-200,4,1,0,100,0,1
100937,-133.333333333333,4,1,0,100,0,1
101483,-200,4,1,0,100,0,1
103255,-100,4,1,0,100,0,1
103311,-102.040816326531,4,1,0,100,0,1
103357,-104.166666666667,4,1,0,100,0,1
103402,-106.382978723404,4,1,0,100,0,1
103448,-108.695652173913,4,1,0,100,0,1
103493,-111.111111111111,4,1,0,100,0,1
103539,-113.636363636364,4,1,0,100,0,1
103584,-116.279069767442,4,1,0,100,0,1
103630,-119.047619047619,4,1,0,100,0,1
103675,-121.951219512195,4,1,0,100,0,1
103733,-200,4,1,0,100,0,1
104755,-100,4,1,0,100,0,0
104892,-90.9090909090909,4,1,0,100,0,0
105164,-83.3333333333333,4,1,0,100,0,0
105301,-76.9230769230769,4,1,0,100,0,0
105437,-90.9090909090909,4,1,0,100,0,0
105710,-100,4,1,0,100,0,0
105846,-200,4,1,0,100,0,1
107619,-100,4,1,0,100,0,1
107675,-102.040816326531,4,1,0,100,0,1
107720,-104.166666666667,4,1,0,100,0,1
107766,-106.382978723404,4,1,0,100,0,1
107811,-108.695652173913,4,1,0,100,0,1
107857,-111.111111111111,4,1,0,100,0,1
107902,-113.636363636364,4,1,0,100,0,1
107948,-116.279069767442,4,1,0,100,0,1
107993,-119.047619047619,4,1,0,100,0,1
108039,-121.951219512195,4,1,0,100,0,1
108096,-200,4,1,0,100,0,1
109664,-125,4,1,0,100,0,1
109801,-100,4,1,0,100,0,1
110210,-200,4,1,0,100,0,1
111983,-100,4,1,0,100,0,1
112039,-102.040816326531,4,1,0,100,0,1
112084,-104.166666666667,4,1,0,100,0,1
112130,-106.382978723404,4,1,0,100,0,1
112175,-108.695652173913,4,1,0,100,0,1
112220,-111.111111111111,4,1,0,100,0,1
112266,-113.636363636364,4,1,0,100,0,1
112311,-116.279069767442,4,1,0,100,0,1
112357,-119.047619047619,4,1,0,100,0,1
112402,-121.951219512195,4,1,0,100,0,1
112460,-200,4,1,0,100,0,1
114028,-125,4,1,0,100,0,1
114164,-100,4,1,0,100,0,1
114369,-55.5555555555556,4,1,0,100,0,1
115000,-200,4,1,0,100,0,1
116210,-25,4,1,0,100,0,1
116619,-200,4,1,0,100,0,1
118392,-133.333333333333,4,1,0,100,0,1
118801,-200,4,1,0,100,0,1
120710,-100,4,1,0,100,0,1
120766,-102.040816326531,4,1,0,100,0,1
120811,-104.166666666667,4,1,0,100,0,1
120857,-106.382978723404,4,1,0,100,0,1
120902,-108.695652173913,4,1,0,100,0,1
120948,-111.111111111111,4,1,0,100,0,1
120993,-113.636363636364,4,1,0,100,0,1
121039,-116.279069767442,4,1,0,100,0,1
121084,-119.047619047619,4,1,0,100,0,1
121130,-121.951219512195,4,1,0,100,0,1
121171,-200,4,1,0,100,0,1
122755,-166.666666666667,4,1,0,100,0,1
122892,-149.253731343284,4,1,0,100,0,0
123164,-55.5555555555556,4,1,0,100,0,0

[HitObjects]
295,216,1130,5,4,0:0:0:0:
258,114,1539,1,8,0:0:0:0:
258,114,1811,1,0,0:0:0:0:
77,123,1948,1,8,0:0:0:0:
258,114,2085,1,0,0:0:0:0:
258,114,2221,1,8,0:0:0:0:
67,160,2357,1,8,0:0:0:0:
149,81,2493,1,0,0:0:0:0:
149,81,2630,1,8,0:0:0:0:
149,81,2766,1,8,0:0:0:0:
292,250,2902,1,0,0:0:0:0:
204,65,3311,1,0,0:0:0:0:
248,95,3584,1,0,0:0:0:0:
224,107,3720,1,8,0:0:0:0:
146,155,3993,1,0,0:0:0:0:
146,155,4130,1,8,0:0:0:0:
366,258,4266,1,8,0:0:0:0:
135,151,4402,1,0,0:0:0:0:
133,150,4539,1,0,0:0:0:0:
130,149,4675,1,8,0:0:0:0:
128,147,4811,1,0,0:0:0:0:
126,146,4948,1,4,0:0:0:0:
126,146,5084,1,4,0:0:0:0:
148,146,5493,1,0,0:0:0:0:
419,240,5766,1,0,0:0:0:0:
419,240,5902,1,8,0:0:0:0:
146,155,6175,1,0,0:0:0:0:
146,155,6312,1,8,0:0:0:0:
366,258,6448,1,8,0:0:0:0:
135,151,6584,1,0,0:0:0:0:
133,150,6721,1,0,0:0:0:0:
130,149,6857,1,8,0:0:0:0:
128,147,6993,1,0,0:0:0:0:
126,146,7130,1,8,0:0:0:0:
126,146,7266,1,0,0:0:0:0:
148,146,7675,1,4,0:0:0:0:
419,240,7948,1,0,0:0:0:0:
419,240,8084,1,8,0:0:0:0:
146,155,8357,1,0,0:0:0:0:
146,155,8494,1,8,0:0:0:0:
366,258,8630,1,8,0:0:0:0:
135,151,8766,1,0,0:0:0:0:
133,150,8903,1,0,0:0:0:0:
130,149,9039,1,8,0:0:0:0:
128,147,9175,1,0,0:0:0:0:
126,146,9312,1,12,0:0:0:0:
126,146,9448,1,12,0:0:0:0:
160,139,9584,1,4,0:0:0:0:
182,128,9720,1,12,0:0:0:0:
219,110,10130,1,0,0:0:0:0:
219,110,10266,1,8,0:0:0:0:
201,119,10539,1,8,0:0:0:0:
342,176,10675,1,0,0:0:0:0:
165,107,10811,1,0,0:0:0:0:
165,107,10948,1,8,0:0:0:0:
161,97,11084,1,8,0:0:0:0:
161,97,11220,1,0,0:0:0:0:
323,246,11357,1,0,0:0:0:0:
158,96,11493,1,8,0:0:0:0:
158,96,11630,1,0,0:0:0:0:
161,97,12039,1,0,0:0:0:0:
28,245,12311,1,0,0:0:0:0:
42,252,12448,1,8,0:0:0:0:
201,119,12720,1,8,0:0:0:0:
342,176,12856,1,0,0:0:0:0:
165,107,12992,1,0,0:0:0:0:
165,107,13129,1,8,0:0:0:0:
161,97,13265,1,8,0:0:0:0:
161,97,13401,1,0,0:0:0:0:
323,246,13538,1,0,0:0:0:0:
59,123,13675,1,12,0:0:0:0:
59,123,13811,1,12,0:0:0:0:
173,144,14220,1,0,0:0:0:0:
180,142,14493,1,0,0:0:0:0:
173,144,14630,1,8,0:0:0:0:
201,119,14902,1,8,0:0:0:0:
342,176,15038,1,0,0:0:0:0:
165,107,15174,1,0,0:0:0:0:
165,107,15311,1,8,0:0:0:0:
161,97,15447,1,8,0:0:0:0:
161,97,15583,1,0,0:0:0:0:
323,246,15720,1,0,0:0:0:0:
158,96,15856,1,8,0:0:0:0:
158,96,15993,1,0,0:0:0:0:
110,150,16402,1,0,0:0:0:0:
110,150,16675,1,0,0:0:0:0:
110,150,16811,1,8,0:0:0:0:
201,119,17084,1,8,0:0:0:0:
342,176,17220,1,0,0:0:0:0:
165,107,17356,1,0,0:0:0:0:
165,107,17493,1,8,0:0:0:0:
161,97,17629,1,8,0:0:0:0:
161,97,17765,1,0,0:0:0:0:
323,246,17902,1,0,0:0:0:0:
158,96,18038,1,12,0:0:0:0:
158,96,18175,1,8,0:0:0:0:
347,223,18311,1,0,0:0:0:0:
152,155,18448,1,4,0:0:0:0:
347,223,18857,1,4,0:0:0:0:
191,162,19130,1,8,0:0:0:0:
190,94,19675,1,8,0:0:0:0:
163,136,20220,1,8,0:0:0:0:
378,281,20493,1,8,0:0:0:0:
259,135,20630,1,4,0:0:0:0:
253,130,21039,1,4,0:0:0:0:
269,177,21311,1,8,0:0:0:0:
169,75,21857,1,8,0:0:0:0:
169,75,22402,1,8,0:0:0:0:
359,217,22811,1,4,0:0:0:0:
359,217,23220,1,4,0:0:0:0:
256,307,23493,1,8,0:0:0:0:
213,89,24039,1,8,0:0:0:0:
213,89,24584,1,8,0:0:0:0:
213,89,24857,1,8,0:0:0:0:
213,89,24925,1,8,0:0:0:0:
213,89,24993,1,8,0:0:0:0:
208,95,25061,1,8,0:0:0:0:
207,95,25130,1,4,0:0:0:0:
132,153,26084,1,8,0:0:0:0:
146,150,26220,1,4,0:0:0:0:
219,164,26493,1,8,0:0:0:0:
219,164,26630,1,0,0:0:0:0:
327,291,26902,1,8,0:0:0:0:
200,156,27039,1,0,0:0:0:0:
366,286,27175,1,0,0:0:0:0:
194,144,27311,1,4,0:0:0:0:
294,210,27584,1,8,0:0:0:0:
294,210,27720,1,8,0:0:0:0:
262,76,27857,1,0,0:0:0:0:
102,178,28130,1,8,0:0:0:0:
102,178,28266,1,8,0:0:0:0:
102,178,28402,1,0,0:0:0:0:
102,178,28539,1,0,0:0:0:0:
102,178,28675,1,8,0:0:0:0:
102,178,28811,1,0,0:0:0:0:
102,178,28948,1,8,0:0:0:0:
102,178,29084,1,8,0:0:0:0:
102,178,29220,1,8,0:0:0:0:
242,225,29289,1,8,0:0:0:0:
242,225,29357,1,8,0:0:0:0:
242,225,29425,1,8,0:0:0:0:
380,287,29493,1,4,0:0:0:0:
307,300,29766,1,4,0:0:0:0:
116,143,30039,1,8,0:0:0:0:
309,231,30175,1,8,0:0:0:0:
309,231,30311,1,0,0:0:0:0:
240,158,30448,1,8,0:0:0:0:
297,250,30584,1,0,0:0:0:0:
297,250,30652,1,0,0:0:0:0:
297,250,30720,1,8,0:0:0:0:
297,250,30857,1,8,0:0:0:0:
297,250,30993,1,8,0:0:0:0:
297,250,31130,1,8,0:0:0:0:
297,250,31266,1,8,0:0:0:0:
297,250,31402,1,0,0:0:0:0:
297,250,31470,1,0,0:0:0:0:
297,250,31539,1,8,0:0:0:0:
297,250,31607,1,8,0:0:0:0:
308,299,31675,1,4,0:0:0:0:
452,316,31811,1,8,0:0:0:0:
432,293,31948,1,0,0:0:0:0:
416,275,32016,1,0,0:0:0:0:
409,266,32084,1,8,0:0:0:0:
408,264,32220,1,0,0:0:0:0:
408,264,32289,1,0,0:0:0:0:
408,264,32357,1,8,0:0:0:0:
408,263,32493,1,0,0:0:0:0:
408,263,32561,1,0,0:0:0:0:
408,263,32630,1,8,0:0:0:0:
370,243,32698,1,8,0:0:0:0:
370,243,32766,1,0,0:0:0:0:
427,301,32834,1,0,0:0:0:0:
427,301,32902,1,8,0:0:0:0:
214,137,32948,1,8,0:0:0:0:
427,301,32993,1,8,0:0:0:0:
427,301,33039,1,0,0:0:0:0:
427,301,33107,1,0,0:0:0:0:
120,151,33175,1,8,0:0:0:0:
120,151,33220,1,8,0:0:0:0:
120,151,33266,1,8,0:0:0:0:
120,151,33311,1,0,0:0:0:0:
321,48,33380,1,0,0:0:0:0:
145,161,33448,1,8,0:0:0:0:
147,161,33482,1,8,0:0:0:0:
147,161,33516,1,8,0:0:0:0:
147,161,33550,1,8,0:0:0:0:
147,161,33584,1,0,0:0:0:0:
147,161,33652,1,0,0:0:0:0:
147,161,33720,1,8,0:0:0:0:
147,161,33755,1,8,0:0:0:0:
147,161,33789,1,8,0:0:0:0:
147,161,33823,1,8,0:0:0:0:
147,161,33857,1,0,0:0:0:0:
256,192,33993,12,0,34811,0:0:0:0:
110,141,34948,5,4,0:0:0:0:
295,228,35084,1,12,0:0:0:0:
214,112,35357,1,12,0:0:0:0:
214,112,35493,1,4,0:0:0:0:
214,112,35630,1,12,0:0:0:0:
214,112,35902,1,12,0:0:0:0:
214,112,36039,1,4,0:0:0:0:
258,237,36448,1,0,0:0:0:0:
143,133,36584,1,8,0:0:0:0:
168,163,36720,1,0,0:0:0:0:
214,49,36789,1,0,0:0:0:0:
214,49,36857,1,8,0:0:0:0:
308,207,36993,1,0,0:0:0:0:
302,199,37130,1,4,0:0:0:0:
122,138,37266,1,8,0:0:0:0:
191,160,37334,1,8,0:0:0:0:
37,144,37402,1,0,0:0:0:0:
37,144,37539,1,8,0:0:0:0:
248,74,37675,5,0,0:0:0:0:
111,142,37811,5,0,0:0:0:0:
136,137,37856,1,8,0:0:0:0:
136,137,37902,1,8,0:0:0:0:
136,137,37947,1,0,0:0:0:0:
136,137,37993,1,8,0:0:0:0:
136,137,38038,1,8,0:0:0:0:
136,137,38084,1,0,0:0:0:0:
103,150,38130,1,8,0:0:0:0:
103,150,38175,1,8,0:0:0:0:
103,150,38220,1,0,0:0:0:0:
305,248,38357,1,8,0:0:0:0:
305,248,38425,1,8,0:0:0:0:
305,248,38493,1,0,0:0:0:0:
305,248,38630,1,0,0:0:0:0:
305,248,38766,1,8,0:0:0:0:
305,248,38902,1,8,0:0:0:0:
345,192,38970,1,8,0:0:0:0:
169,81,39039,1,8,0:0:0:0:
169,81,39175,1,8,0:0:0:0:
263,128,39311,1,4,0:0:0:0:
77,137,39448,1,8,0:0:0:0:
77,137,39584,1,8,0:0:0:0:
77,137,39652,1,8,0:0:0:0:
77,137,39720,1,0,0:0:0:0:
400,233,39857,1,12,0:0:0:0:
384,232,39993,1,4,0:0:0:0:
108,150,40402,1,4,0:0:0:0:
258,236,40811,1,0,0:0:0:0:
143,132,40947,1,8,0:0:0:0:
168,162,41084,1,0,0:0:0:0:
214,48,41152,1,0,0:0:0:0:
214,48,41220,1,8,0:0:0:0:
308,206,41356,1,0,0:0:0:0:
302,198,41493,1,4,0:0:0:0:
122,137,41629,1,8,0:0:0:0:
191,159,41698,1,8,0:0:0:0:
37,143,41765,1,0,0:0:0:0:
37,143,41902,1,8,0:0:0:0:
248,73,42038,5,0,0:0:0:0:
111,141,42174,5,0,0:0:0:0:
136,136,42219,1,8,0:0:0:0:
136,136,42265,1,8,0:0:0:0:
136,136,42310,1,0,0:0:0:0:
136,136,42356,1,8,0:0:0:0:
136,136,42401,1,8,0:0:0:0:
136,136,42447,1,0,0:0:0:0:
103,149,42493,1,8,0:0:0:0:
103,149,42538,1,8,0:0:0:0:
103,149,42583,1,0,0:0:0:0:
305,247,42720,1,8,0:0:0:0:
305,247,42788,1,8,0:0:0:0:
305,247,42856,1,8,0:0:0:0:
305,247,42993,1,8,0:0:0:0:
305,247,43129,1,12,0:0:0:0:
305,247,43265,1,8,0:0:0:0:
345,191,43333,1,8,0:0:0:0:
169,80,43402,1,0,0:0:0:0:
169,80,43538,1,8,0:0:0:0:
263,127,43674,1,4,0:0:0:0:
77,136,43811,1,8,0:0:0:0:
77,136,43947,1,8,0:0:0:0:
77,136,44015,1,8,0:0:0:0:
77,136,44083,1,8,0:0:0:0:
400,232,44220,1,12,0:0:0:0:
384,231,44356,1,4,0:0:0:0:
108,149,44630,1,4,0:0:0:0:
116,139,45039,1,4,0:0:0:0:
154,131,45311,1,8,0:0:0:0:
154,131,45448,1,8,0:0:0:0:
154,131,45516,1,8,0:0:0:0:
328,149,45584,1,0,0:0:0:0:
154,131,45720,1,8,0:0:0:0:
154,131,45857,1,4,0:0:0:0:
154,131,45993,1,8,0:0:0:0:
154,131,46061,1,0,0:0:0:0:
154,131,46130,1,0,0:0:0:0:
154,131,46266,1,8,0:0:0:0:
256,192,46402,12,0,46674,0:0:0:0:
239,89,46948,5,4,0:0:0:0:
157,147,47084,1,0,0:0:0:0:
157,147,47152,1,0,0:0:0:0:
157,147,47220,1,8,0:0:0:0:
157,147,47357,1,8,0:0:0:0:
189,152,47493,1,12,0:0:0:0:
187,139,47630,1,8,0:0:0:0:
75,136,47766,1,8,0:0:0:0:
87,129,47834,1,8,0:0:0:0:
263,111,47902,1,0,0:0:0:0:
187,139,48039,1,4,0:0:0:0:
143,142,48175,1,8,0:0:0:0:
143,142,48243,1,8,0:0:0:0:
114,99,48311,1,0,0:0:0:0:
144,133,48380,1,8,0:0:0:0:
114,99,48448,1,0,0:0:0:0:
114,99,48516,1,8,0:0:0:0:
114,99,48584,1,4,0:0:0:0:
78,144,48720,1,12,0:0:0:0:
108,150,49130,1,4,0:0:0:0:
258,236,49539,1,0,0:0:0:0:
143,132,49675,1,8,0:0:0:0:
168,162,49812,1,0,0:0:0:0:
214,48,49880,1,0,0:0:0:0:
214,48,49948,1,8,0:0:0:0:
308,206,50084,1,0,0:0:0:0:
302,198,50221,1,4,0:0:0:0:
122,137,50357,1,8,0:0:0:0:
191,159,50426,1,8,0:0:0:0:
37,143,50493,1,0,0:0:0:0:
37,143,50630,1,8,0:0:0:0:
248,73,50766,5,0,0:0:0:0:
111,141,50902,5,0,0:0:0:0:
136,136,50947,1,8,0:0:0:0:
136,136,50993,1,8,0:0:0:0:
136,136,51038,1,0,0:0:0:0:
136,136,51084,1,8,0:0:0:0:
136,136,51129,1,8,0:0:0:0:
136,136,51175,1,0,0:0:0:0:
103,149,51221,1,8,0:0:0:0:
103,149,51266,1,8,0:0:0:0:
103,149,51311,1,0,0:0:0:0:
305,247,51448,1,8,0:0:0:0:
305,247,51516,1,8,0:0:0:0:
305,247,51584,1,8,0:0:0:0:
305,247,51721,1,8,0:0:0:0:
305,247,51857,1,12,0:0:0:0:
305,247,51993,1,8,0:0:0:0:
345,191,52061,1,8,0:0:0:0:
169,80,52130,1,0,0:0:0:0:
169,80,52266,1,8,0:0:0:0:
263,127,52402,1,4,0:0:0:0:
77,136,52539,1,12,0:0:0:0:
193,104,52811,1,12,0:0:0:0:
400,232,52948,1,4,0:0:0:0:
384,231,53084,1,12,0:0:0:0:
154,151,53357,1,12,0:0:0:0:
108,149,53493,1,4,0:0:0:0:
258,237,53903,1,0,0:0:0:0:
143,133,54039,1,8,0:0:0:0:
168,163,54175,1,0,0:0:0:0:
214,49,54244,1,0,0:0:0:0:
214,49,54312,1,8,0:0:0:0:
308,207,54448,1,8,0:0:0:0:
302,199,54585,1,4,0:0:0:0:
122,138,54720,1,0,0:0:0:0:
191,160,54789,1,0,0:0:0:0:
37,144,54857,1,8,0:0:0:0:
37,144,54994,1,0,0:0:0:0:
248,74,55130,5,8,0:0:0:0:
111,142,55266,5,8,0:0:0:0:
136,137,55311,1,0,0:0:0:0:
136,137,55357,1,0,0:0:0:0:
136,137,55402,1,8,0:0:0:0:
136,137,55448,1,0,0:0:0:0:
136,137,55493,1,0,0:0:0:0:
136,137,55539,1,8,0:0:0:0:
103,150,55585,1,0,0:0:0:0:
103,150,55630,1,0,0:0:0:0:
103,150,55675,1,8,0:0:0:0:
305,248,55812,1,8,0:0:0:0:
305,248,55880,1,8,0:0:0:0:
305,248,55948,1,0,0:0:0:0:
305,248,56085,1,0,0:0:0:0:
305,248,56220,1,12,0:0:0:0:
305,248,56357,1,0,0:0:0:0:
345,192,56425,1,0,0:0:0:0:
169,81,56494,1,8,0:0:0:0:
169,81,56630,1,8,0:0:0:0:
263,128,56766,1,4,0:0:0:0:
77,137,56903,1,8,0:0:0:0:
77,137,57039,1,8,0:0:0:0:
77,137,57107,1,8,0:0:0:0:
77,137,57175,1,8,0:0:0:0:
400,233,57312,1,12,0:0:0:0:
384,232,57448,1,4,0:0:0:0:
160,172,57857,1,4,0:0:0:0:
258,237,58267,1,0,0:0:0:0:
143,133,58403,1,8,0:0:0:0:
168,163,58539,1,0,0:0:0:0:
214,49,58608,1,0,0:0:0:0:
214,49,58676,1,8,0:0:0:0:
308,207,58812,1,8,0:0:0:0:
302,199,58949,1,4,0:0:0:0:
122,138,59084,1,0,0:0:0:0:
191,160,59153,1,0,0:0:0:0:
37,144,59221,1,8,0:0:0:0:
37,144,59358,1,0,0:0:0:0:
248,74,59494,5,8,0:0:0:0:
111,142,59630,5,8,0:0:0:0:
136,137,59675,1,0,0:0:0:0:
136,137,59721,1,0,0:0:0:0:
136,137,59766,1,8,0:0:0:0:
136,137,59812,1,0,0:0:0:0:
136,137,59857,1,0,0:0:0:0:
136,137,59903,1,8,0:0:0:0:
103,150,59949,1,0,0:0:0:0:
103,150,59994,1,0,0:0:0:0:
103,150,60039,1,8,0:0:0:0:
305,247,60175,1,0,0:0:0:0:
305,247,60243,1,0,0:0:0:0:
305,247,60311,1,8,0:0:0:0:
305,247,60448,1,8,0:0:0:0:
305,247,60584,1,12,0:0:0:0:
305,247,60720,1,8,0:0:0:0:
345,191,60788,1,8,0:0:0:0:
169,80,60857,1,0,0:0:0:0:
169,80,60993,1,8,0:0:0:0:
263,127,61129,1,4,0:0:0:0:
77,136,61266,1,8,0:0:0:0:
77,136,61402,1,8,0:0:0:0:
77,136,61470,1,8,0:0:0:0:
77,136,61538,1,8,0:0:0:0:
400,232,61675,1,12,0:0:0:0:
384,231,61811,1,4,0:0:0:0:
109,161,62084,1,4,0:0:0:0:
123,159,62493,1,4,0:0:0:0:
154,131,62766,1,8,0:0:0:0:
154,131,62903,1,8,0:0:0:0:
154,131,62971,1,8,0:0:0:0:
328,149,63039,1,0,0:0:0:0:
154,131,63175,1,0,0:0:0:0:
154,131,63312,1,4,0:0:0:0:
154,131,63448,1,0,0:0:0:0:
154,131,63516,1,0,0:0:0:0:
154,131,63585,1,8,0:0:0:0:
154,131,63721,1,8,0:0:0:0:
256,192,63857,12,0,64129,0:0:0:0:
239,89,64403,5,4,0:0:0:0:
157,147,64539,1,0,0:0:0:0:
157,147,64607,1,0,0:0:0:0:
157,147,64675,1,8,0:0:0:0:
157,147,64812,1,8,0:0:0:0:
189,152,64948,1,12,0:0:0:0:
187,139,65084,1,0,0:0:0:0:
75,136,65221,1,0,0:0:0:0:
87,129,65289,1,0,0:0:0:0:
263,111,65357,1,8,0:0:0:0:
187,139,65494,1,4,0:0:0:0:
143,142,65630,1,8,0:0:0:0:
143,142,65698,1,8,0:0:0:0:
114,99,65766,1,0,0:0:0:0:
144,133,65835,1,8,0:0:0:0:
114,99,65903,1,0,0:0:0:0:
114,99,65971,1,8,0:0:0:0:
114,99,66039,1,4,0:0:0:0:
78,144,66175,1,8,0:0:0:0:
117,128,66584,1,4,0:0:0:0:
258,237,66993,1,0,0:0:0:0:
143,133,67129,1,8,0:0:0:0:
168,163,67265,1,0,0:0:0:0:
214,49,67334,1,0,0:0:0:0:
214,49,67402,1,8,0:0:0:0:
308,207,67538,1,8,0:0:0:0:
302,199,67675,1,4,0:0:0:0:
122,138,67810,1,0,0:0:0:0:
191,160,67879,1,0,0:0:0:0:
37,144,67947,1,8,0:0:0:0:
37,144,68084,1,0,0:0:0:0:
248,74,68220,5,8,0:0:0:0:
111,142,68356,5,8,0:0:0:0:
136,137,68401,1,0,0:0:0:0:
136,137,68447,1,0,0:0:0:0:
136,137,68492,1,8,0:0:0:0:
136,137,68538,1,0,0:0:0:0:
136,137,68583,1,0,0:0:0:0:
136,137,68629,1,8,0:0:0:0:
103,150,68675,1,0,0:0:0:0:
103,150,68720,1,0,0:0:0:0:
103,150,68765,1,8,0:0:0:0:
305,247,68902,1,0,0:0:0:0:
305,247,68970,1,0,0:0:0:0:
305,247,69038,1,8,0:0:0:0:
305,247,69175,1,8,0:0:0:0:
305,247,69311,1,12,0:0:0:0:
305,247,69447,1,8,0:0:0:0:
345,191,69515,1,8,0:0:0:0:
169,80,69584,1,0,0:0:0:0:
169,80,69720,1,8,0:0:0:0:
263,127,69856,1,4,0:0:0:0:
77,136,69993,1,8,0:0:0:0:
77,136,70129,1,8,0:0:0:0:
77,136,70197,1,8,0:0:0:0:
77,136,70265,1,8,0:0:0:0:
400,232,70402,1,12,0:0:0:0:
384,231,70539,1,4,0:0:0:0:
102,150,70811,1,4,0:0:0:0:
171,155,71220,1,4,0:0:0:0:
99,136,71493,1,8,0:0:0:0:
99,136,72039,1,8,0:0:0:0:
105,128,72584,1,8,0:0:0:0:
388,204,72857,1,8,0:0:0:0:
388,204,72993,1,4,0:0:0:0:
380,200,73402,1,4,0:0:0:0:
380,200,73675,1,8,0:0:0:0:
283,136,74220,1,8,0:0:0:0:
276,130,74766,1,8,0:0:0:0:
273,122,75175,1,4,0:0:0:0:
273,122,75584,1,4,0:0:0:0:
162,135,75857,1,8,0:0:0:0:
162,135,76402,1,8,0:0:0:0:
116,124,76948,1,8,0:0:0:0:
213,89,77220,1,8,0:0:0:0:
213,89,77288,1,8,0:0:0:0:
213,89,77356,1,8,0:0:0:0:
208,95,77424,1,8,0:0:0:0:
207,95,77493,1,4,0:0:0:0:
132,153,78447,1,8,0:0:0:0:
146,150,78583,1,4,0:0:0:0:
219,164,78856,1,8,0:0:0:0:
219,164,78993,1,0,0:0:0:0:
327,291,79265,1,8,0:0:0:0:
200,156,79402,1,0,0:0:0:0:
366,286,79538,1,0,0:0:0:0:
194,144,79674,1,4,0:0:0:0:
81,133,79948,1,0,0:0:0:0:
294,210,80083,1,8,0:0:0:0:
426,305,80152,1,8,0:0:0:0:
262,76,80220,1,0,0:0:0:0:
150,117,80493,1,0,0:0:0:0:
102,178,80629,1,8,0:0:0:0:
432,295,80698,1,8,0:0:0:0:
102,178,80765,1,0,0:0:0:0:
345,139,80902,1,8,0:0:0:0:
155,121,81039,1,0,0:0:0:0:
172,89,81175,1,8,0:0:0:0:
348,206,81243,1,8,0:0:0:0:
348,206,81311,1,0,0:0:0:0:
102,178,81447,1,8,0:0:0:0:
102,178,81583,1,8,0:0:0:0:
242,225,81652,1,8,0:0:0:0:
242,225,81720,1,8,0:0:0:0:
242,225,81788,1,8,0:0:0:0:
380,287,81856,1,4,0:0:0:0:
307,300,82129,1,4,0:0:0:0:
351,203,82402,1,0,0:0:0:0:
309,231,82538,1,0,0:0:0:0:
190,84,82607,1,0,0:0:0:0:
309,231,82674,1,0,0:0:0:0:
240,158,82811,1,8,0:0:0:0:
297,250,82947,1,0,0:0:0:0:
297,250,83015,1,0,0:0:0:0:
297,250,83083,1,8,0:0:0:0:
366,225,83220,1,0,0:0:0:0:
297,250,83356,1,8,0:0:0:0:
264,142,83425,1,8,0:0:0:0:
250,125,83493,1,0,0:0:0:0:
297,250,83629,1,8,0:0:0:0:
297,250,83765,1,0,0:0:0:0:
297,250,83833,1,0,0:0:0:0:
297,250,83902,1,8,0:0:0:0:
297,250,83970,1,8,0:0:0:0:
308,299,84038,1,4,0:0:0:0:
452,316,84174,1,8,0:0:0:0:
432,293,84311,1,0,0:0:0:0:
416,275,84379,1,0,0:0:0:0:
409,266,84447,1,8,0:0:0:0:
408,264,84583,1,0,0:0:0:0:
408,264,84652,1,0,0:0:0:0:
408,264,84720,1,8,0:0:0:0:
408,263,84856,1,0,0:0:0:0:
408,263,84924,1,0,0:0:0:0:
408,263,84993,1,8,0:0:0:0:
370,243,85061,1,8,0:0:0:0:
370,243,85129,1,0,0:0:0:0:
427,301,85197,1,0,0:0:0:0:
427,301,85265,1,8,0:0:0:0:
214,137,85311,1,8,0:0:0:0:
427,301,85356,1,8,0:0:0:0:
427,301,85402,1,0,0:0:0:0:
427,301,85470,1,0,0:0:0:0:
120,151,85538,1,8,0:0:0:0:
120,151,85583,1,8,0:0:0:0:
120,151,85629,1,8,0:0:0:0:
120,151,85674,1,0,0:0:0:0:
321,48,85743,1,0,0:0:0:0:
145,161,85811,1,8,0:0:0:0:
147,161,85845,1,8,0:0:0:0:
147,161,85879,1,8,0:0:0:0:
147,161,85913,1,8,0:0:0:0:
147,161,85947,1,0,0:0:0:0:
147,161,86015,1,0,0:0:0:0:
147,161,86083,1,8,0:0:0:0:
147,161,86118,1,8,0:0:0:0:
147,161,86152,1,8,0:0:0:0:
147,161,86186,1,8,0:0:0:0:
147,161,86220,1,0,0:0:0:0:
256,192,86357,12,0,87175,0:0:0:0:
110,141,87311,5,4,0:0:0:0:
295,228,87447,1,12,0:0:0:0:
214,112,87720,1,12,0:0:0:0:
214,112,87856,1,4,0:0:0:0:
214,112,87993,1,12,0:0:0:0:
214,112,88265,1,12,0:0:0:0:
214,112,88402,1,4,0:0:0:0:
258,237,88811,1,0,0:0:0:0:
143,133,88947,1,8,0:0:0:0:
168,163,89083,1,0,0:0:0:0:
214,49,89152,1,0,0:0:0:0:
214,49,89220,1,8,0:0:0:0:
308,207,89356,1,0,0:0:0:0:
302,199,89493,1,4,0:0:0:0:
122,138,89629,1,8,0:0:0:0:
191,160,89697,1,8,0:0:0:0:
37,144,89765,1,0,0:0:0:0:
37,144,89902,1,8,0:0:0:0:
248,74,90038,5,0,0:0:0:0:
111,142,90174,5,0,0:0:0:0:
136,137,90219,1,8,0:0:0:0:
136,137,90265,1,8,0:0:0:0:
136,137,90310,1,0,0:0:0:0:
136,137,90356,1,8,0:0:0:0:
136,137,90401,1,8,0:0:0:0:
136,137,90447,1,0,0:0:0:0:
103,150,90493,1,8,0:0:0:0:
103,150,90538,1,8,0:0:0:0:
103,150,90584,1,0,0:0:0:0:
305,248,90720,1,8,0:0:0:0:
305,248,90789,1,8,0:0:0:0:
305,248,90857,1,0,0:0:0:0:
305,248,90993,1,0,0:0:0:0:
305,248,91130,1,12,0:0:0:0:
305,248,91266,1,8,0:0:0:0:
345,192,91334,1,8,0:0:0:0:
169,81,91402,1,8,0:0:0:0:
169,81,91539,1,8,0:0:0:0:
263,128,91675,1,4,0:0:0:0:
77,137,91811,1,8,0:0:0:0:
77,137,91948,1,8,0:0:0:0:
77,137,92016,1,8,0:0:0:0:
77,137,92084,1,0,0:0:0:0:
400,233,92220,1,12,0:0:0:0:
384,232,92357,1,4,0:0:0:0:
108,150,92766,1,4,0:0:0:0:
258,236,93175,1,0,0:0:0:0:
143,132,93311,1,8,0:0:0:0:
168,162,93448,1,0,0:0:0:0:
214,48,93516,1,0,0:0:0:0:
214,48,93584,1,8,0:0:0:0:
308,206,93720,1,0,0:0:0:0:
302,198,93857,1,4,0:0:0:0:
122,137,93993,1,8,0:0:0:0:
191,159,94061,1,8,0:0:0:0:
37,143,94130,1,0,0:0:0:0:
37,143,94265,1,8,0:0:0:0:
248,73,94401,5,0,0:0:0:0:
111,141,94539,5,0,0:0:0:0:
136,136,94584,1,8,0:0:0:0:
136,136,94630,1,8,0:0:0:0:
136,136,94675,1,0,0:0:0:0:
136,136,94720,1,8,0:0:0:0:
136,136,94766,1,8,0:0:0:0:
136,136,94811,1,0,0:0:0:0:
103,149,94857,1,8,0:0:0:0:
103,149,94902,1,8,0:0:0:0:
103,149,94948,1,0,0:0:0:0:
305,247,95084,1,8,0:0:0:0:
305,247,95152,1,8,0:0:0:0:
305,247,95220,1,8,0:0:0:0:
305,247,95357,1,8,0:0:0:0:
305,247,95493,1,12,0:0:0:0:
305,247,95630,1,8,0:0:0:0:
345,191,95698,1,8,0:0:0:0:
169,80,95766,1,0,0:0:0:0:
169,80,95902,1,8,0:0:0:0:
263,127,96039,1,4,0:0:0:0:
77,136,96175,1,8,0:0:0:0:
77,136,96311,1,8,0:0:0:0:
77,136,96380,1,8,0:0:0:0:
77,136,96448,1,8,0:0:0:0:
400,232,96584,1,12,0:0:0:0:
384,231,96720,1,4,0:0:0:0:
108,149,96993,1,4,0:0:0:0:
116,139,97402,1,4,0:0:0:0:
154,131,97674,1,8,0:0:0:0:
154,131,97811,1,8,0:0:0:0:
154,131,97879,1,8,0:0:0:0:
328,149,97947,1,0,0:0:0:0:
154,131,98083,1,8,0:0:0:0:
154,131,98220,1,4,0:0:0:0:
154,131,98356,1,8,0:0:0:0:
154,131,98424,1,0,0:0:0:0:
154,131,98493,1,0,0:0:0:0:
154,131,98629,1,8,0:0:0:0:
256,192,98765,12,0,99039,0:0:0:0:
239,89,99312,5,4,0:0:0:0:
157,147,99448,1,0,0:0:0:0:
157,147,99516,1,0,0:0:0:0:
157,147,99584,1,8,0:0:0:0:
157,147,99721,1,8,0:0:0:0:
189,152,99857,1,12,0:0:0:0:
187,139,99994,1,8,0:0:0:0:
75,136,100130,1,8,0:0:0:0:
87,129,100198,1,8,0:0:0:0:
263,111,100266,1,0,0:0:0:0:
187,139,100403,1,4,0:0:0:0:
143,142,100539,1,8,0:0:0:0:
143,142,100607,1,8,0:0:0:0:
114,99,100675,1,0,0:0:0:0:
144,133,100744,1,8,0:0:0:0:
114,99,100812,1,0,0:0:0:0:
114,99,100880,1,8,0:0:0:0:
114,99,100948,1,4,0:0:0:0:
78,144,101084,1,12,0:0:0:0:
108,150,101493,1,4,0:0:0:0:
258,236,101902,1,0,0:0:0:0:
143,132,102038,1,8,0:0:0:0:
168,162,102175,1,0,0:0:0:0:
214,48,102243,1,0,0:0:0:0:
214,48,102311,1,8,0:0:0:0:
308,206,102447,1,0,0:0:0:0:
302,198,102584,1,4,0:0:0:0:
122,137,102720,1,8,0:0:0:0:
191,159,102789,1,8,0:0:0:0:
37,143,102856,1,0,0:0:0:0:
37,143,102993,1,8,0:0:0:0:
248,73,103129,5,0,0:0:0:0:
111,141,103265,5,0,0:0:0:0:
136,136,103310,1,8,0:0:0:0:
136,136,103356,1,8,0:0:0:0:
136,136,103401,1,0,0:0:0:0:
136,136,103447,1,8,0:0:0:0:
136,136,103492,1,8,0:0:0:0:
136,136,103538,1,0,0:0:0:0:
103,149,103584,1,8,0:0:0:0:
103,149,103629,1,8,0:0:0:0:
103,149,103674,1,0,0:0:0:0:
305,247,103811,1,8,0:0:0:0:
305,247,103879,1,8,0:0:0:0:
305,247,103947,1,8,0:0:0:0:
305,247,104084,1,8,0:0:0:0:
305,247,104220,1,12,0:0:0:0:
305,247,104356,1,8,0:0:0:0:
345,191,104424,1,8,0:0:0:0:
169,80,104493,1,0,0:0:0:0:
169,80,104629,1,8,0:0:0:0:
263,127,104765,1,4,0:0:0:0:
77,136,104902,1,12,0:0:0:0:
193,104,105174,1,12,0:0:0:0:
400,232,105311,1,4,0:0:0:0:
384,231,105447,1,12,0:0:0:0:
154,151,105720,1,12,0:0:0:0:
108,149,105857,1,4,0:0:0:0:
258,237,106266,1,0,0:0:0:0:
143,133,106402,1,8,0:0:0:0:
168,163,106538,1,0,0:0:0:0:
214,49,106607,1,0,0:0:0:0:
214,49,106675,1,8,0:0:0:0:
308,207,106811,1,8,0:0:0:0:
302,199,106948,1,4,0:0:0:0:
122,138,107083,1,0,0:0:0:0:
191,160,107152,1,0,0:0:0:0:
37,144,107220,1,8,0:0:0:0:
37,144,107357,1,0,0:0:0:0:
248,74,107493,5,8,0:0:0:0:
111,142,107629,5,8,0:0:0:0:
136,137,107674,1,0,0:0:0:0:
136,137,107720,1,0,0:0:0:0:
136,137,107765,1,8,0:0:0:0:
136,137,107811,1,0,0:0:0:0:
136,137,107856,1,0,0:0:0:0:
136,137,107902,1,8,0:0:0:0:
103,150,107948,1,0,0:0:0:0:
103,150,107993,1,0,0:0:0:0:
103,150,108038,1,8,0:0:0:0:
305,248,108175,1,8,0:0:0:0:
305,248,108243,1,8,0:0:0:0:
305,248,108311,1,0,0:0:0:0:
305,248,108448,1,0,0:0:0:0:
305,248,108583,1,8,0:0:0:0:
305,248,108720,1,0,0:0:0:0:
345,192,108788,1,0,0:0:0:0:
169,81,108857,1,8,0:0:0:0:
169,81,108993,1,8,0:0:0:0:
263,128,109129,1,4,0:0:0:0:
77,137,109266,1,8,0:0:0:0:
77,137,109402,1,8,0:0:0:0:
77,137,109470,1,8,0:0:0:0:
77,137,109538,1,8,0:0:0:0:
400,233,109675,1,12,0:0:0:0:
384,232,109811,1,4,0:0:0:0:
160,172,110220,1,4,0:0:0:0:
258,237,110630,1,0,0:0:0:0:
143,133,110766,1,8,0:0:0:0:
168,163,110902,1,0,0:0:0:0:
214,49,110971,1,0,0:0:0:0:
214,49,111039,1,8,0:0:0:0:
308,207,111175,1,8,0:0:0:0:
302,199,111312,1,4,0:0:0:0:
122,138,111447,1,0,0:0:0:0:
191,160,111516,1,0,0:0:0:0:
37,144,111584,1,8,0:0:0:0:
37,144,111721,1,0,0:0:0:0:
248,74,111857,5,8,0:0:0:0:
111,142,111993,5,8,0:0:0:0:
136,137,112038,1,0,0:0:0:0:
136,137,112084,1,0,0:0:0:0:
136,137,112129,1,8,0:0:0:0:
136,137,112175,1,0,0:0:0:0:
136,137,112220,1,0,0:0:0:0:
136,137,112266,1,8,0:0:0:0:
103,150,112312,1,0,0:0:0:0:
103,150,112357,1,0,0:0:0:0:
103,150,112402,1,8,0:0:0:0:
305,247,112538,1,0,0:0:0:0:
305,247,112606,1,0,0:0:0:0:
305,247,112674,1,8,0:0:0:0:
305,247,112811,1,8,0:0:0:0:
305,247,112947,1,12,0:0:0:0:
305,247,113083,1,8,0:0:0:0:
345,191,113151,1,8,0:0:0:0:
169,80,113220,1,0,0:0:0:0:
169,80,113356,1,8,0:0:0:0:
263,127,113492,1,4,0:0:0:0:
77,136,113629,1,8,0:0:0:0:
77,136,113765,1,8,0:0:0:0:
77,136,113833,1,8,0:0:0:0:
77,136,113901,1,8,0:0:0:0:
400,232,114038,1,12,0:0:0:0:
384,231,114174,1,4,0:0:0:0:
109,161,114447,1,4,0:0:0:0:
123,159,114856,1,4,0:0:0:0:
154,131,115129,1,8,0:0:0:0:
154,131,115266,1,8,0:0:0:0:
154,131,115334,1,8,0:0:0:0:
328,149,115402,1,0,0:0:0:0:
154,131,115538,1,0,0:0:0:0:
154,131,115675,1,4,0:0:0:0:
154,131,115811,1,0,0:0:0:0:
154,131,115879,1,0,0:0:0:0:
154,131,115948,1,8,0:0:0:0:
154,131,116084,1,8,0:0:0:0:
256,192,116220,12,0,116492,0:0:0:0:
239,89,116766,5,4,0:0:0:0:
157,147,116902,1,0,0:0:0:0:
157,147,116970,1,0,0:0:0:0:
157,147,117038,1,8,0:0:0:0:
157,147,117175,1,8,0:0:0:0:
189,152,117311,1,12,0:0:0:0:
187,139,117447,1,0,0:0:0:0:
75,136,117584,1,0,0:0:0:0:
87,129,117652,1,0,0:0:0:0:
263,111,117720,1,8,0:0:0:0:
187,139,117857,1,4,0:0:0:0:
143,142,117993,1,8,0:0:0:0:
143,142,118061,1,8,0:0:0:0:
114,99,118129,1,0,0:0:0:0:
144,133,118198,1,8,0:0:0:0:
114,99,118266,1,0,0:0:0:0:
114,99,118334,1,8,0:0:0:0:
114,99,118402,1,4,0:0:0:0:
78,144,118538,1,8,0:0:0:0:
117,128,118947,1,4,0:0:0:0:
258,237,119356,1,0,0:0:0:0:
143,133,119492,1,8,0:0:0:0:
168,163,119629,1,0,0:0:0:0:
214,49,119698,1,0,0:0:0:0:
214,49,119766,1,8,0:0:0:0:
308,207,119902,1,8,0:0:0:0:
302,199,120039,1,4,0:0:0:0:
122,138,120174,1,0,0:0:0:0:
191,160,120243,1,0,0:0:0:0:
37,144,120311,1,8,0:0:0:0:
37,144,120448,1,0,0:0:0:0:
248,74,120584,5,8,0:0:0:0:
111,142,120720,5,8,0:0:0:0:
136,137,120765,1,0,0:0:0:0:
136,137,120811,1,0,0:0:0:0:
136,137,120856,1,8,0:0:0:0:
136,137,120902,1,0,0:0:0:0:
136,137,120947,1,0,0:0:0:0:
136,137,120993,1,8,0:0:0:0:
103,150,121039,1,0,0:0:0:0:
103,150,121084,1,0,0:0:0:0:
103,150,121129,1,8,0:0:0:0:
305,247,121266,1,0,0:0:0:0:
305,247,121334,1,0,0:0:0:0:
305,247,121402,1,8,0:0:0:0:
305,247,121539,1,8,0:0:0:0:
305,247,121675,1,12,0:0:0:0:
305,247,121811,1,8,0:0:0:0:
345,191,121879,1,8,0:0:0:0:
169,80,121948,1,0,0:0:0:0:
169,80,122084,1,8,0:0:0:0:
263,127,122220,1,4,0:0:0:0:
77,136,122357,1,8,0:0:0:0:
77,136,122493,1,8,0:0:0:0:
77,136,122561,1,8,0:0:0:0:
77,136,122629,1,8,0:0:0:0:
400,232,122766,1,12,0:0:0:0:
384,231,122903,1,4,0:0:0:0:
102,150,123175,1,4,0:0:0:0:
171,155,123583,1,4,0:0:0:0:
