osu file format v14

[General]
AudioFilename: rain.mp3
AudioLeadIn: 0
PreviewTime: 79333
Countdown: 0
SampleSet: None
StackLeniency: 0.9
Mode: 0
LetterboxInBreaks: 0
WidescreenStoryboard: 1

[Editor]
Bookmarks: 2606,7778,19851,23295,24675,27264,31402,33385,46230,57782,77092,78469,101916,123468,123985,135020,146054,155709,201227
DistanceSpacing: 0.8
BeatDivisor: 4
GridSize: 4
TimelineZoom: 1.7

[Metadata]
Title:Candy Rain
TitleUnicode:Candy Rain
Artist:C-Show
ArtistUnicode:C-Show
Creator:TP618
Version:Sweet! v2
Source:
Tags:C-Show drum&bass candy rain
BeatmapID:3357690
BeatmapSetID:614969

[Difficulty]
HPDrainRate:7
CircleSize:4
OverallDifficulty:7.5
ApproachRate:9
SliderMultiplier:2
SliderTickRate:2

[Events]
//Background and Video events
0,0,"tumblr_ngkbo2l92X1qami4ko1_1280.jpg",0,0
//Break Periods
//Storyboard Layer 0 (Background)
//Storyboard Layer 1 (Fail)
//Storyboard Layer 2 (Pass)
//Storyboard Layer 3 (Foreground)
//Storyboard Layer 4 (Overlay)
//Storyboard Sound Samples

[TimingPoints]
1227,344.827586206897,4,1,0,100,1,0
13640,-83.3333333333333,4,1,0,100,0,0
19158,-83.3333333333333,4,1,0,49,0,0
24678,-100,4,1,0,100,0,0
55278,-100,4,1,0,5,0,0
55364,-100,4,1,0,100,0,0
55623,-100,4,1,0,5,0,0
55709,-100,4,1,0,100,0,0
55968,-100,4,1,0,5,0,0
56054,-100,4,1,0,100,0,0
66313,-100,4,1,0,5,0,0
66399,-100,4,1,0,100,0,0
66658,-100,4,1,0,5,0,0
66744,-100,4,1,0,100,0,0
67002,-100,4,1,0,5,0,0
67089,-100,4,1,0,100,0,0
68727,-83.3333333333333,4,1,0,100,0,0
78425,-100,4,1,0,100,0,0
78554,-100,4,1,0,5,0,0
78640,-100,4,1,0,100,0,0
78727,-100,4,1,0,5,0,0
78813,-100,4,1,0,100,0,0
78899,-100,4,1,0,5,0,0
78985,-100,4,1,0,100,0,0
79071,-100,4,1,0,5,0,0
79330,-83.3333333333333,4,1,0,100,0,1
101571,-83.3333333333333,4,1,0,100,0,0
123985,-100,4,1,0,100,0,0
134330,-133.333333333333,4,1,0,100,0,0
143295,-90.9090909090909,4,1,0,100,0,0
143554,-90.9090909090909,4,1,0,5,0,0
143640,-90.9090909090909,4,1,0,100,0,0
143899,-90.9090909090909,4,1,0,5,0,0
143985,-90.9090909090909,4,1,0,100,0,0
144244,-90.9090909090909,4,1,0,5,0,0
144330,-100,4,1,0,100,0,0
146054,-83.3333333333333,4,1,0,100,0,0
157089,-83.3333333333333,4,1,0,100,0,1
178813,-83.3333333333333,4,1,0,100,0,0

[HitObjects]
256,192,1227,12,0,2261,0:0:0:0:
84,68,2606,5,0,0:0:0:0:
176,332,2951,2,0,P|164:264|196:216,1,100
252,120,3295,1,0,0:0:0:0:
252,120,3468,1,0,0:0:0:0:
416,48,3640,5,0,0:0:0:0:
428,188,3813,2,0,B|460:236|460:236|464:304,2,100
300,60,4330,5,0,0:0:0:0:
168,108,4502,2,0,P|120:124|84:160,2,100
344,152,5020,5,0,0:0:0:0:
304,288,5192,2,0,P|256:312|204:312,2,100
460,196,5709,5,0,0:0:0:0:
360,100,5882,2,0,L|256:80,1,100
173,65,6227,1,0,0:0:0:0:
80,220,6399,1,0,0:0:0:0:
204,152,6571,2,0,L|280:72,2,100
104,304,7089,5,0,0:0:0:0:
240,268,7261,2,0,P|316:244|348:216,1,100
436,136,7606,1,0,0:0:0:0:
320,56,7778,1,0,0:0:0:0:
273,39,7864,1,0,0:0:0:0:
223,36,7950,1,0,0:0:0:0:
174,48,8036,1,0,0:0:0:0:
128,68,8123,6,0,P|88:104|68:148,1,100
44,324,8468,1,0,0:0:0:0:
140,224,8640,2,0,P|192:200|256:192,1,100
372,180,8985,1,0,0:0:0:0:
488,320,9158,5,0,0:0:0:0:
348,312,9330,2,0,P|296:272|276:228,1,100
244,108,9675,1,0,0:0:0:0:
408,184,9847,1,0,0:0:0:0:
284,252,10020,2,0,P|228:272|172:268,1,100
56,228,10364,1,0,0:0:0:0:
160,80,10537,5,0,0:0:0:0:
144,220,10709,2,0,P|176:264|240:296,1,100
348,324,11054,1,0,0:0:0:0:
452,176,11227,1,0,0:0:0:0:
348,84,11399,2,0,P|288:56|232:56,1,100
116,52,11744,2,0,P|93:114|113:162,1,100
156,276,12089,1,0,0:0:0:0:
276,348,12261,6,0,B|328:316|328:316|348:260,1,100
236,200,12606,2,0,B|272:152|272:152|316:144,1,100
428,108,12951,2,0,B|384:76|384:76|332:68,1,100
228,72,13295,2,0,B|192:120|192:120|140:124,1,100
88,252,13640,5,0,0:0:0:0:
364,328,13985,2,0,P|428:272|440:224,2,119.999996337891
220,328,14502,1,0,0:0:0:0:
220,328,14589,1,0,0:0:0:0:
220,328,14675,1,0,0:0:0:0:
88,268,14847,2,0,P|60:200|80:156,1,119.999996337891
180,60,15192,1,0,0:0:0:0:
152,208,15364,1,0,0:0:0:0:
76,84,15537,2,0,P|132:128|192:136,1,119.999996337891
324,124,15882,1,0,0:0:0:0:
324,124,15968,1,0,0:0:0:0:
324,124,16054,5,0,0:0:0:0:
444,44,16227,2,0,P|452:120|416:176,1,119.999996337891
340,268,16571,1,0,0:0:0:0:
340,268,16658,1,0,0:0:0:0:
340,268,16744,1,0,0:0:0:0:
460,348,16916,2,0,P|456:280|420:232,1,119.999996337891
304,160,17261,1,0,0:0:0:0:
304,160,17347,1,0,0:0:0:0:
304,160,17433,1,0,0:0:0:0:
264,300,17606,2,0,P|200:324|140:316,1,119.999996337891
48,216,17951,1,0,0:0:0:0:
48,216,18037,1,0,0:0:0:0:
48,216,18123,5,0,0:0:0:0:
112,88,18295,1,0,0:0:0:0:
140,228,18468,2,0,P|196:264|264:272,1,119.999996337891
388,236,18813,2,0,P|338:202|280:191,1,119.999996337891
140,156,19158,6,0,L|88:120,3,59.9999981689454
48,80,19502,2,0,L|80:24,3,59.9999981689454
136,16,19847,2,0,L|208:52,3,59.9999981689454
244,64,20192,2,0,L|292:120,3,59.9999981689454
320,156,20537,5,0,0:0:0:0:
340,200,20623,1,0,0:0:0:0:
352,248,20709,1,0,0:0:0:0:
348,296,20795,1,0,0:0:0:0:
324,340,20881,1,0,0:0:0:0:
276,352,20968,1,0,0:0:0:0:
228,344,21054,1,0,0:0:0:0:
200,304,21140,1,0,0:0:0:0:
200,256,21226,1,0,0:0:0:0:
232,220,21312,1,0,0:0:0:0:
280,224,21399,1,0,0:0:0:0:
328,216,21485,1,0,0:0:0:0:
364,184,21571,1,0,0:0:0:0:
388,144,21657,1,0,0:0:0:0:
376,96,21743,1,0,0:0:0:0:
340,60,21830,1,0,0:0:0:0:
296,44,21916,6,0,L|232:40,3,59.9999981689454
188,48,22261,2,0,L|136:88,3,59.9999981689454
112,124,22606,2,0,L|112:200,3,59.9999981689454
140,224,22951,2,0,L|188:272,3,59.9999981689454
224,288,23295,6,0,P|268:296|312:296,1,59.9999981689454
444,188,23468,2,0,P|414:181|384:179,1,59.9999981689454
281,289,23640,6,0,P|322:272|359:248,1,59.9999981689454
411,86,23813,2,0,P|383:96|357:111,1,59.9999981689454
330,260,23985,6,0,P|355:223|373:183,1,59.9999981689454
328,18,24158,2,0,P|311:42|296:69,1,59.9999981689454
355,208,24330,6,0,P|356:163|349:120,1,59.9999981689454
222,6,24503,2,0,P|221:36|223:66,1,59.9999981689454
256,224,24675,1,0,0:0:0:0:
