osu file format v14

[General]
AudioFilename: audio.mp3
AudioLeadIn: 0
PreviewTime: 90165
Countdown: 0
SampleSet: Normal
StackLeniency: 0.7
Mode: 3
LetterboxInBreaks: 0
SpecialStyle: 0
WidescreenStoryboard: 0

[Editor]
Bookmarks: 56415,75165,90165,120165,150165,180165,210165,225165,240165,270165
DistanceSpacing: 0.6
BeatDivisor: 4
GridSize: 8
TimelineZoom: 1

[Metadata]
Title:Candy Cream
TitleUnicode:Candy Cream
Artist:C-Show & T+Pazolite (Lite Show Magic)
ArtistUnicode:C-Show & T+Pazolite (Lite Show Magic)
Creator:Aezis
Version:Marathon
Source:
Tags:
BeatmapID:1610125
BeatmapSetID:765833

[Difficulty]
HPDrainRate:6
CircleSize:8
OverallDifficulty:9
ApproachRate:5
SliderMultiplier:1.6
SliderTickRate:1

[Events]
//Background and Video events
0,0,"R-7704101-1447081075-7101.jpeg.jpg",0,0
//Break Periods
//Storyboard Layer 0 (Background)
//Storyboard Layer 1 (Fail)
//Storyboard Layer 2 (Pass)
//Storyboard Layer 3 (Foreground)
//Storyboard Sound Samples

[TimingPoints]
165,468.75,4,1,0,22,1,0

[HitObjects]
224,192,165,5,0,0:0:0:0:
352,192,165,1,0,0:0:0:0:
288,192,399,1,0,0:0:0:0:
480,192,516,1,0,0:0:0:0:
224,192,633,1,0,0:0:0:0:
352,192,633,1,0,0:0:0:0:
288,192,868,1,0,0:0:0:0:
416,192,985,1,0,0:0:0:0:
352,192,1014,1,0,0:0:0:0:
160,192,1102,1,0,0:0:0:0:
224,192,1219,1,0,0:0:0:0:
416,192,1278,1,0,0:0:0:0:
224,192,1336,1,0,0:0:0:0:
288,192,1336,1,0,0:0:0:0:
224,192,1454,1,0,0:0:0:0:
416,192,1512,1,0,0:0:0:0:
480,192,1541,1,0,0:0:0:0:
224,192,1571,1,0,0:0:0:0:
352,192,1571,1,0,0:0:0:0:
288,192,1805,1,0,0:0:0:0:
160,192,1805,1,0,0:0:0:0:
416,192,2040,1,0,0:0:0:0:
32,192,2040,1,0,0:0:0:0:
160,192,2157,1,0,0:0:0:0:
224,192,2245,1,0,0:0:0:0:
288,192,2274,1,0,0:0:0:0:
32,192,2274,1,0,0:0:0:0:
416,192,2450,1,0,0:0:0:0:
480,192,2479,1,0,0:0:0:0:
352,192,2508,1,0,0:0:0:0:
32,192,2625,1,0,0:0:0:0:
224,192,2713,1,0,0:0:0:0:
288,192,2743,1,0,0:0:0:0:
32,192,2860,1,0,0:0:0:0:
416,192,2948,1,0,0:0:0:0:
32,192,3094,1,0,0:0:0:0:
224,192,3182,1,0,0:0:0:0:
288,192,3211,1,0,0:0:0:0:
32,192,3329,1,0,0:0:0:0:
416,192,3387,1,0,0:0:0:0:
480,192,3416,1,0,0:0:0:0:
352,192,3446,1,0,0:0:0:0:
32,192,3446,1,0,0:0:0:0:
224,192,3651,1,0,0:0:0:0:
288,192,3680,1,0,0:0:0:0:
32,192,3680,1,0,0:0:0:0:
480,192,3827,1,0,0:0:0:0:
224,192,3915,1,0,0:0:0:0:
352,192,3915,1,0,0:0:0:0:
288,192,4149,1,0,0:0:0:0:
480,192,4266,1,0,0:0:0:0:
224,192,4383,1,0,0:0:0:0:
352,192,4383,1,0,0:0:0:0:
288,192,4618,1,0,0:0:0:0:
416,192,4735,1,0,0:0:0:0:
352,192,4764,1,0,0:0:0:0:
160,192,4852,1,0,0:0:0:0:
224,192,4969,1,0,0:0:0:0:
416,192,5028,1,0,0:0:0:0:
224,192,5086,1,0,0:0:0:0:
288,192,5086,1,0,0:0:0:0:
224,192,5204,1,0,0:0:0:0:
416,192,5262,1,0,0:0:0:0:
480,192,5291,1,0,0:0:0:0:
224,192,5321,1,0,0:0:0:0:
352,192,5321,1,0,0:0:0:0:
288,192,5555,1,0,0:0:0:0:
160,192,5555,1,0,0:0:0:0:
416,192,5790,1,0,0:0:0:0:
32,192,5790,1,0,0:0:0:0:
160,192,5907,1,0,0:0:0:0:
224,192,5995,1,0,0:0:0:0:
288,192,6024,1,0,0:0:0:0:
32,192,6024,1,0,0:0:0:0:
416,192,6200,1,0,0:0:0:0:
480,192,6229,1,0,0:0:0:0:
352,192,6258,1,0,0:0:0:0:
32,192,6375,1,0,0:0:0:0:
224,192,6463,1,0,0:0:0:0:
288,192,6493,1,0,0:0:0:0:
32,192,6610,1,0,0:0:0:0:
416,192,6698,1,0,0:0:0:0:
32,192,6756,1,0,0:0:0:0:
224,192,6932,1,0,0:0:0:0:
288,192,6961,1,0,0:0:0:0:
32,192,6961,1,0,0:0:0:0:
32,192,7108,1,0,0:0:0:0:
416,192,7137,1,0,0:0:0:0:
480,192,7166,1,0,0:0:0:0:
352,192,7196,1,0,0:0:0:0:
32,192,7225,1,0,0:0:0:0:
32,192,7342,1,0,0:0:0:0:
224,192,7401,1,0,0:0:0:0:
288,192,7430,1,0,0:0:0:0:
32,192,7459,1,0,0:0:0:0:
480,192,7577,1,0,0:0:0:0:
32,192,7577,1,0,0:0:0:0:
224,192,7665,5,0,0:0:0:0:
352,192,7665,1,0,0:0:0:0:
288,192,7899,1,0,0:0:0:0:
480,192,8016,1,0,0:0:0:0:
224,192,8133,1,0,0:0:0:0:
352,192,8133,1,0,0:0:0:0:
288,192,8368,1,0,0:0:0:0:
416,192,8485,1,0,0:0:0:0:
352,192,8514,1,0,0:0:0:0:
160,192,8602,1,0,0:0:0:0:
224,192,8719,1,0,0:0:0:0:
416,192,8778,1,0,0:0:0:0:
224,192,8836,1,0,0:0:0:0:
288,192,8836,1,0,0:0:0:0:
224,192,8954,1,0,0:0:0:0:
416,192,9012,1,0,0:0:0:0:
480,192,9041,1,0,0:0:0:0:
224,192,9071,1,0,0:0:0:0:
352,192,9071,1,0,0:0:0:0:
288,192,9305,1,0,0:0:0:0:
160,192,9305,1,0,0:0:0:0:
416,192,9540,1,0,0:0:0:0:
32,192,9540,1,0,0:0:0:0:
160,192,9657,1,0,0:0:0:0:
224,192,9745,1,0,0:0:0:0:
288,192,9774,1,0,0:0:0:0:
32,192,9774,1,0,0:0:0:0:
416,192,9950,1,0,0:0:0:0:
480,192,9979,1,0,0:0:0:0:
352,192,10008,1,0,0:0:0:0:
32,192,10125,1,0,0:0:0:0:
224,192,10213,1,0,0:0:0:0:
288,192,10243,1,0,0:0:0:0:
32,192,10360,1,0,0:0:0:0:
416,192,10448,1,0,0:0:0:0:
32,192,10594,1,0,0:0:0:0:
224,192,10682,1,0,0:0:0:0:
288,192,10711,1,0,0:0:0:0:
32,192,10829,1,0,0:0:0:0:
416,192,10887,1,0,0:0:0:0:
480,192,10916,1,0,0:0:0:0:
352,192,10946,1,0,0:0:0:0:
32,192,10946,1,0,0:0:0:0:
224,192,11151,1,0,0:0:0:0:
288,192,11180,1,0,0:0:0:0:
32,192,11180,1,0,0:0:0:0:
480,192,11327,1,0,0:0:0:0:
224,192,11415,1,0,0:0:0:0:
352,192,11415,1,0,0:0:0:0:
288,192,11649,1,0,0:0:0:0:
480,192,11766,1,0,0:0:0:0:
224,192,11883,1,0,0:0:0:0:
352,192,11883,1,0,0:0:0:0:
288,192,12118,1,0,0:0:0:0:
416,192,12235,1,0,0:0:0:0:
352,192,12264,1,0,0:0:0:0:
160,192,12352,1,0,0:0:0:0:
224,192,12469,1,0,0:0:0:0:
416,192,12528,1,0,0:0:0:0:
224,192,12586,1,0,0:0:0:0:
288,192,12586,1,0,0:0:0:0:
224,192,12704,1,0,0:0:0:0:
416,192,12762,1,0,0:0:0:0:
480,192,12791,1,0,0:0:0:0:
224,192,12821,1,0,0:0:0:0:
352,192,12821,1,0,0:0:0:0:
288,192,13055,1,0,0:0:0:0:
160,192,13055,1,0,0:0:0:0:
416,192,13290,1,0,0:0:0:0:
32,192,13290,1,0,0:0:0:0:
160,192,13407,1,0,0:0:0:0:
224,192,13495,1,0,0:0:0:0:
288,192,13524,1,0,0:0:0:0:
32,192,13524,1,0,0:0:0:0:
32,192,13680,128,0,13758:0:0:0:0:
416,192,13700,1,0,0:0:0:0:
480,192,13729,1,0,0:0:0:0:
352,192,13758,1,0,0:0:0:0:
224,192,13963,1,0,0:0:0:0:
288,192,13993,1,0,0:0:0:0:
32,192,13993,1,0,0:0:0:0:
32,192,14110,1,0,0:0:0:0:
416,192,14198,1,0,0:0:0:0:
32,192,14344,1,0,0:0:0:0:
224,192,14432,1,0,0:0:0:0:
288,192,14461,1,0,0:0:0:0:
32,192,14579,1,0,0:0:0:0:
416,192,14637,1,0,0:0:0:0:
480,192,14666,1,0,0:0:0:0:
352,192,14696,1,0,0:0:0:0:
32,192,14725,1,0,0:0:0:0:
32,192,14842,1,0,0:0:0:0:
224,192,14901,1,0,0:0:0:0:
288,192,14930,1,0,0:0:0:0:
32,192,14959,1,0,0:0:0:0:
480,192,15077,1,0,0:0:0:0:
32,192,15077,1,0,0:0:0:0:
224,192,15165,5,0,0:0:0:0:
352,192,15165,1,0,0:0:0:0:
96,192,15165,1,0,0:0:0:0:
416,192,15282,1,0,0:0:0:0:
288,192,15399,1,0,0:0:0:0:
480,192,15516,1,0,0:0:0:0:
224,192,15633,1,0,0:0:0:0:
352,192,15633,1,0,0:0:0:0:
96,192,15633,1,0,0:0:0:0:
288,192,15868,1,0,0:0:0:0:
416,192,15985,1,0,0:0:0:0:
352,192,16014,1,0,0:0:0:0:
160,192,16102,1,0,0:0:0:0:
96,192,16102,1,0,0:0:0:0:
224,192,16219,1,0,0:0:0:0:
416,192,16278,1,0,0:0:0:0:
224,192,16336,1,0,0:0:0:0:
288,192,16336,1,0,0:0:0:0:
224,192,16454,1,0,0:0:0:0:
416,192,16512,1,0,0:0:0:0:
480,192,16541,1,0,0:0:0:0:
224,192,16571,1,0,0:0:0:0:
352,192,16571,1,0,0:0:0:0:
96,192,16571,1,0,0:0:0:0:
288,192,16805,1,0,0:0:0:0:
160,192,16805,1,0,0:0:0:0:
416,192,17040,1,0,0:0:0:0:
32,192,17040,1,0,0:0:0:0:
96,192,17040,1,0,0:0:0:0:
160,192,17157,1,0,0:0:0:0:
416,192,17157,1,0,0:0:0:0:
224,192,17245,1,0,0:0:0:0:
288,192,17274,1,0,0:0:0:0:
32,192,17274,1,0,0:0:0:0:
416,192,17450,1,0,0:0:0:0:
480,192,17479,1,0,0:0:0:0:
352,192,17508,1,0,0:0:0:0:
96,192,17508,1,0,0:0:0:0:
32,192,17625,1,0,0:0:0:0:
224,192,17713,1,0,0:0:0:0:
288,192,17743,1,0,0:0:0:0:
32,192,17860,1,0,0:0:0:0:
416,192,17948,1,0,0:0:0:0:
96,192,17977,1,0,0:0:0:0:
32,192,18094,1,0,0:0:0:0:
416,192,18094,1,0,0:0:0:0:
224,192,18182,1,0,0:0:0:0:
288,192,18211,1,0,0:0:0:0:
32,192,18329,1,0,0:0:0:0:
416,192,18387,1,0,0:0:0:0:
480,192,18416,1,0,0:0:0:0:
352,192,18446,1,0,0:0:0:0:
32,192,18446,1,0,0:0:0:0:
96,192,18446,1,0,0:0:0:0:
224,192,18651,1,0,0:0:0:0:
288,192,18680,1,0,0:0:0:0:
32,192,18680,1,0,0:0:0:0:
480,192,18827,1,0,0:0:0:0:
224,192,18915,1,0,0:0:0:0:
352,192,18915,1,0,0:0:0:0:
96,192,18915,1,0,0:0:0:0:
416,192,19032,1,0,0:0:0:0:
288,192,19149,1,0,0:0:0:0:
480,192,19266,1,0,0:0:0:0:
224,192,19383,1,0,0:0:0:0:
352,192,19383,1,0,0:0:0:0:
96,192,19383,1,0,0:0:0:0:
416,192,19500,1,0,0:0:0:0:
288,192,19618,1,0,0:0:0:0:
416,192,19735,1,0,0:0:0:0:
352,192,19764,1,0,0:0:0:0:
160,192,19852,1,0,0:0:0:0:
96,192,19852,1,0,0:0:0:0:
224,192,19969,1,0,0:0:0:0:
416,192,20028,1,0,0:0:0:0:
224,192,20086,1,0,0:0:0:0:
288,192,20086,1,0,0:0:0:0:
224,192,20204,1,0,0:0:0:0:
416,192,20262,1,0,0:0:0:0:
480,192,20291,1,0,0:0:0:0:
224,192,20321,1,0,0:0:0:0:
352,192,20321,1,0,0:0:0:0:
96,192,20321,1,0,0:0:0:0:
288,192,20555,1,0,0:0:0:0:
160,192,20555,1,0,0:0:0:0:
416,192,20790,1,0,0:0:0:0:
32,192,20790,1,0,0:0:0:0:
96,192,20790,1,0,0:0:0:0:
160,192,20907,1,0,0:0:0:0:
224,192,20995,1,0,0:0:0:0:
288,192,21024,1,0,0:0:0:0:
32,192,21024,1,0,0:0:0:0:
416,192,21200,1,0,0:0:0:0:
480,192,21229,1,0,0:0:0:0:
352,192,21258,1,0,0:0:0:0:
96,192,21258,1,0,0:0:0:0:
32,192,21375,1,0,0:0:0:0:
224,192,21463,1,0,0:0:0:0:
288,192,21493,1,0,0:0:0:0:
32,192,21610,1,0,0:0:0:0:
416,192,21698,1,0,0:0:0:0:
96,192,21727,1,0,0:0:0:0:
32,192,21756,1,0,0:0:0:0:
224,192,21932,1,0,0:0:0:0:
288,192,21961,1,0,0:0:0:0:
32,192,21961,1,0,0:0:0:0:
32,192,22108,1,0,0:0:0:0:
416,192,22137,1,0,0:0:0:0:
480,192,22166,1,0,0:0:0:0:
352,192,22196,1,0,0:0:0:0:
96,192,22196,1,0,0:0:0:0:
32,192,22225,1,0,0:0:0:0:
32,192,22342,1,0,0:0:0:0:
224,192,22401,1,0,0:0:0:0:
288,192,22430,1,0,0:0:0:0:
32,192,22459,1,0,0:0:0:0:
480,192,22577,1,0,0:0:0:0:
32,192,22577,1,0,0:0:0:0:
224,192,22665,5,0,0:0:0:0:
352,192,22665,1,0,0:0:0:0:
96,192,22665,1,0,0:0:0:0:
416,192,22782,1,0,0:0:0:0:
288,192,22899,1,0,0:0:0:0:
480,192,23016,1,0,0:0:0:0:
224,192,23133,1,0,0:0:0:0:
352,192,23133,1,0,0:0:0:0:
96,192,23133,1,0,0:0:0:0:
288,192,23368,1,0,0:0:0:0:
416,192,23485,1,0,0:0:0:0:
352,192,23514,1,0,0:0:0:0:
160,192,23602,1,0,0:0:0:0:
96,192,23602,1,0,0:0:0:0:
224,192,23719,1,0,0:0:0:0:
416,192,23778,1,0,0:0:0:0:
224,192,23836,1,0,0:0:0:0:
288,192,23836,1,0,0:0:0:0:
224,192,23954,1,0,0:0:0:0:
416,192,24012,1,0,0:0:0:0:
480,192,24041,1,0,0:0:0:0:
224,192,24071,1,0,0:0:0:0:
352,192,24071,1,0,0:0:0:0:
96,192,24071,1,0,0:0:0:0:
288,192,24305,1,0,0:0:0:0:
160,192,24305,1,0,0:0:0:0:
416,192,24540,1,0,0:0:0:0:
32,192,24540,1,0,0:0:0:0:
96,192,24540,1,0,0:0:0:0:
160,192,24657,1,0,0:0:0:0:
224,192,24745,1,0,0:0:0:0:
288,192,24774,1,0,0:0:0:0:
32,192,24774,1,0,0:0:0:0:
416,192,24950,1,0,0:0:0:0:
480,192,24979,1,0,0:0:0:0:
352,192,25008,1,0,0:0:0:0:
96,192,25008,1,0,0:0:0:0:
32,192,25125,1,0,0:0:0:0:
224,192,25213,1,0,0:0:0:0:
288,192,25243,1,0,0:0:0:0:
32,192,25360,1,0,0:0:0:0:
416,192,25448,1,0,0:0:0:0:
96,192,25477,1,0,0:0:0:0:
32,192,25594,1,0,0:0:0:0:
416,192,25594,1,0,0:0:0:0:
224,192,25682,1,0,0:0:0:0:
288,192,25711,1,0,0:0:0:0:
32,192,25829,1,0,0:0:0:0:
416,192,25887,1,0,0:0:0:0:
480,192,25916,1,0,0:0:0:0:
352,192,25946,1,0,0:0:0:0:
32,192,25946,1,0,0:0:0:0:
96,192,25946,1,0,0:0:0:0:
224,192,26151,1,0,0:0:0:0:
288,192,26180,1,0,0:0:0:0:
32,192,26180,1,0,0:0:0:0:
480,192,26327,1,0,0:0:0:0:
224,192,26415,1,0,0:0:0:0:
352,192,26415,1,0,0:0:0:0:
96,192,26415,1,0,0:0:0:0:
416,192,26532,1,0,0:0:0:0:
288,192,26649,1,0,0:0:0:0:
480,192,26766,1,0,0:0:0:0:
224,192,26883,1,0,0:0:0:0:
352,192,26883,1,0,0:0:0:0:
96,192,26883,1,0,0:0:0:0:
288,192,27118,1,0,0:0:0:0:
416,192,27235,1,0,0:0:0:0:
352,192,27264,1,0,0:0:0:0:
160,192,27352,1,0,0:0:0:0:
96,192,27352,1,0,0:0:0:0:
224,192,27469,1,0,0:0:0:0:
416,192,27528,1,0,0:0:0:0:
224,192,27586,1,0,0:0:0:0:
288,192,27586,1,0,0:0:0:0:
224,192,27704,1,0,0:0:0:0:
416,192,27762,1,0,0:0:0:0:
480,192,27791,1,0,0:0:0:0:
224,192,27821,1,0,0:0:0:0:
352,192,27821,1,0,0:0:0:0:
96,192,27821,1,0,0:0:0:0:
288,192,28055,1,0,0:0:0:0:
160,192,28055,1,0,0:0:0:0:
32,192,28290,1,0,0:0:0:0:
96,192,28290,1,0,0:0:0:0:
224,192,28290,1,0,0:0:0:0:
96,192,28524,1,0,0:0:0:0:
224,192,28524,1,0,0:0:0:0:
32,192,28641,1,0,0:0:0:0:
96,192,28758,1,0,0:0:0:0:
224,192,28758,1,0,0:0:0:0:
32,192,28758,1,0,0:0:0:0:
32,192,28875,1,0,0:0:0:0:
96,192,28993,1,0,0:0:0:0:
224,192,28993,1,0,0:0:0:0:
32,192,28993,1,0,0:0:0:0:
224,192,29227,1,0,0:0:0:0:
96,192,29227,1,0,0:0:0:0:
32,192,29227,1,0,0:0:0:0:
32,192,29344,1,0,0:0:0:0:
32,192,29461,1,0,0:0:0:0:
96,192,29579,1,0,0:0:0:0:
224,192,29579,1,0,0:0:0:0:
32,192,29579,1,0,0:0:0:0:
32,192,29696,1,0,0:0:0:0:
160,192,29813,1,0,0:0:0:0:
416,192,29930,1,0,0:0:0:0:
160,192,30047,1,0,0:0:0:0:
32,192,30165,1,0,0:0:0:0:
96,192,30165,1,0,0:0:0:0:
224,192,30165,1,0,0:0:0:0:
288,192,30165,1,0,0:0:0:0:
416,192,30165,1,0,0:0:0:0:
288,192,30399,1,0,0:0:0:0:
160,192,30399,1,0,0:0:0:0:
352,192,30516,1,0,0:0:0:0:
480,192,30633,1,0,0:0:0:0:
96,192,30633,1,0,0:0:0:0:
224,192,30633,1,0,0:0:0:0:
352,192,30633,1,0,0:0:0:0:
288,192,30750,1,0,0:0:0:0:
416,192,30750,1,0,0:0:0:0:
224,192,30868,1,0,0:0:0:0:
352,192,30868,1,0,0:0:0:0:
96,192,31102,1,0,0:0:0:0:
224,192,31102,1,0,0:0:0:0:
288,192,31219,1,0,0:0:0:0:
416,192,31219,1,0,0:0:0:0:
288,192,31336,1,0,0:0:0:0:
416,192,31336,1,0,0:0:0:0:
288,192,31454,1,0,0:0:0:0:
416,192,31454,1,0,0:0:0:0:
96,192,31571,1,0,0:0:0:0:
224,192,31571,1,0,0:0:0:0:
288,192,31571,1,0,0:0:0:0:
416,192,31571,1,0,0:0:0:0:
160,192,31776,1,0,0:0:0:0:
416,192,31805,1,0,0:0:0:0:
288,192,31805,1,0,0:0:0:0:
32,192,31805,1,0,0:0:0:0:
32,192,32040,1,0,0:0:0:0:
96,192,32040,1,0,0:0:0:0:
224,192,32040,1,0,0:0:0:0:
288,192,32040,1,0,0:0:0:0:
416,192,32040,1,0,0:0:0:0:
288,192,32274,1,0,0:0:0:0:
160,192,32274,1,0,0:0:0:0:
352,192,32391,1,0,0:0:0:0:
480,192,32508,1,0,0:0:0:0:
96,192,32508,1,0,0:0:0:0:
224,192,32508,1,0,0:0:0:0:
352,192,32508,1,0,0:0:0:0:
288,192,32625,1,0,0:0:0:0:
416,192,32625,1,0,0:0:0:0:
224,192,32743,1,0,0:0:0:0:
352,192,32743,1,0,0:0:0:0:
96,192,32977,1,0,0:0:0:0:
224,192,32977,1,0,0:0:0:0:
288,192,33094,1,0,0:0:0:0:
416,192,33094,1,0,0:0:0:0:
288,192,33211,1,0,0:0:0:0:
416,192,33211,1,0,0:0:0:0:
288,192,33329,1,0,0:0:0:0:
416,192,33329,1,0,0:0:0:0:
96,192,33446,1,0,0:0:0:0:
224,192,33446,1,0,0:0:0:0:
288,192,33446,1,0,0:0:0:0:
416,192,33446,1,0,0:0:0:0:
160,192,33651,1,0,0:0:0:0:
416,192,33680,1,0,0:0:0:0:
288,192,33680,1,0,0:0:0:0:
32,192,33680,1,0,0:0:0:0:
288,192,33915,1,0,0:0:0:0:
416,192,33915,1,0,0:0:0:0:
224,192,33915,1,0,0:0:0:0:
32,192,33915,1,0,0:0:0:0:
96,192,33915,1,0,0:0:0:0:
160,192,34149,1,0,0:0:0:0:
288,192,34149,1,0,0:0:0:0:
352,192,34266,1,0,0:0:0:0:
224,192,34383,1,0,0:0:0:0:
352,192,34383,1,0,0:0:0:0:
480,192,34383,1,0,0:0:0:0:
96,192,34383,1,0,0:0:0:0:
416,192,34500,1,0,0:0:0:0:
288,192,34500,1,0,0:0:0:0:
352,192,34618,1,0,0:0:0:0:
224,192,34618,1,0,0:0:0:0:
224,192,34852,1,0,0:0:0:0:
96,192,34852,1,0,0:0:0:0:
416,192,34969,1,0,0:0:0:0:
288,192,34969,1,0,0:0:0:0:
416,192,35086,1,0,0:0:0:0:
288,192,35086,1,0,0:0:0:0:
416,192,35204,1,0,0:0:0:0:
288,192,35204,1,0,0:0:0:0:
288,192,35321,1,0,0:0:0:0:
416,192,35321,1,0,0:0:0:0:
96,192,35321,1,0,0:0:0:0:
224,192,35321,1,0,0:0:0:0:
160,192,35526,1,0,0:0:0:0:
32,192,35555,1,0,0:0:0:0:
288,192,35555,1,0,0:0:0:0:
416,192,35555,1,0,0:0:0:0:
32,192,35790,1,0,0:0:0:0:
96,192,35790,1,0,0:0:0:0:
224,192,35790,1,0,0:0:0:0:
288,192,35790,1,0,0:0:0:0:
416,192,35790,1,0,0:0:0:0:
288,192,36024,1,0,0:0:0:0:
160,192,36024,1,0,0:0:0:0:
416,192,36024,1,0,0:0:0:0:
352,192,36141,1,0,0:0:0:0:
480,192,36258,1,0,0:0:0:0:
96,192,36258,1,0,0:0:0:0:
224,192,36258,1,0,0:0:0:0:
352,192,36258,1,0,0:0:0:0:
416,192,36258,1,0,0:0:0:0:
288,192,36258,1,0,0:0:0:0:
224,192,36493,1,0,0:0:0:0:
352,192,36493,1,0,0:0:0:0:
288,192,36493,1,0,0:0:0:0:
416,192,36493,1,0,0:0:0:0:
96,192,36727,1,0,0:0:0:0:
224,192,36727,1,0,0:0:0:0:
288,192,36844,1,0,0:0:0:0:
416,192,36844,1,0,0:0:0:0:
160,192,36961,1,0,0:0:0:0:
288,192,37079,1,0,0:0:0:0:
416,192,37079,1,0,0:0:0:0:
96,192,37196,1,0,0:0:0:0:
224,192,37196,1,0,0:0:0:0:
288,192,37196,1,0,0:0:0:0:
416,192,37196,1,0,0:0:0:0:
160,192,37401,1,0,0:0:0:0:
416,192,37430,1,0,0:0:0:0:
288,192,37430,1,0,0:0:0:0:
32,192,37430,1,0,0:0:0:0:
32,192,37665,1,0,0:0:0:0:
96,192,37665,1,0,0:0:0:0:
224,192,37665,1,0,0:0:0:0:
288,192,37665,1,0,0:0:0:0:
416,192,37665,1,0,0:0:0:0:
288,192,37899,1,0,0:0:0:0:
160,192,37899,1,0,0:0:0:0:
352,192,38016,1,0,0:0:0:0:
480,192,38133,1,0,0:0:0:0:
96,192,38133,1,0,0:0:0:0:
224,192,38133,1,0,0:0:0:0:
352,192,38133,1,0,0:0:0:0:
288,192,38250,1,0,0:0:0:0:
416,192,38250,1,0,0:0:0:0:
224,192,38368,1,0,0:0:0:0:
352,192,38368,1,0,0:0:0:0:
96,192,38602,1,0,0:0:0:0:
224,192,38602,1,0,0:0:0:0:
288,192,38719,1,0,0:0:0:0:
416,192,38719,1,0,0:0:0:0:
288,192,38836,1,0,0:0:0:0:
416,192,38836,1,0,0:0:0:0:
288,192,38954,1,0,0:0:0:0:
416,192,38954,1,0,0:0:0:0:
96,192,39071,1,0,0:0:0:0:
224,192,39071,1,0,0:0:0:0:
288,192,39071,1,0,0:0:0:0:
416,192,39071,1,0,0:0:0:0:
160,192,39276,1,0,0:0:0:0:
416,192,39305,1,0,0:0:0:0:
288,192,39305,1,0,0:0:0:0:
32,192,39305,1,0,0:0:0:0:
32,192,39540,1,0,0:0:0:0:
96,192,39540,1,0,0:0:0:0:
224,192,39540,1,0,0:0:0:0:
288,192,39540,1,0,0:0:0:0:
416,192,39540,1,0,0:0:0:0:
288,192,39774,1,0,0:0:0:0:
160,192,39774,1,0,0:0:0:0:
352,192,39891,1,0,0:0:0:0:
480,192,40008,1,0,0:0:0:0:
96,192,40008,1,0,0:0:0:0:
224,192,40008,1,0,0:0:0:0:
352,192,40008,1,0,0:0:0:0:
288,192,40125,1,0,0:0:0:0:
416,192,40125,1,0,0:0:0:0:
224,192,40243,1,0,0:0:0:0:
352,192,40243,1,0,0:0:0:0:
96,192,40477,1,0,0:0:0:0:
224,192,40477,1,0,0:0:0:0:
288,192,40594,1,0,0:0:0:0:
416,192,40594,1,0,0:0:0:0:
288,192,40711,1,0,0:0:0:0:
416,192,40711,1,0,0:0:0:0:
288,192,40829,1,0,0:0:0:0:
416,192,40829,1,0,0:0:0:0:
96,192,40946,1,0,0:0:0:0:
224,192,40946,1,0,0:0:0:0:
288,192,40946,1,0,0:0:0:0:
416,192,40946,1,0,0:0:0:0:
160,192,41151,1,0,0:0:0:0:
416,192,41180,1,0,0:0:0:0:
288,192,41180,1,0,0:0:0:0:
32,192,41180,1,0,0:0:0:0:
288,192,41415,1,0,0:0:0:0:
416,192,41415,1,0,0:0:0:0:
224,192,41415,1,0,0:0:0:0:
32,192,41415,1,0,0:0:0:0:
96,192,41415,1,0,0:0:0:0:
160,192,41649,1,0,0:0:0:0:
288,192,41649,1,0,0:0:0:0:
352,192,41766,1,0,0:0:0:0:
224,192,41883,1,0,0:0:0:0:
352,192,41883,1,0,0:0:0:0:
480,192,41883,1,0,0:0:0:0:
96,192,41883,1,0,0:0:0:0:
416,192,42000,1,0,0:0:0:0:
288,192,42000,1,0,0:0:0:0:
352,192,42118,1,0,0:0:0:0:
224,192,42118,1,0,0:0:0:0:
224,192,42352,1,0,0:0:0:0:
96,192,42352,1,0,0:0:0:0:
416,192,42469,1,0,0:0:0:0:
288,192,42469,1,0,0:0:0:0:
416,192,42586,1,0,0:0:0:0:
288,192,42586,1,0,0:0:0:0:
416,192,42704,1,0,0:0:0:0:
288,192,42704,1,0,0:0:0:0:
288,192,42821,1,0,0:0:0:0:
416,192,42821,1,0,0:0:0:0:
96,192,42821,1,0,0:0:0:0:
224,192,42821,1,0,0:0:0:0:
160,192,43026,1,0,0:0:0:0:
32,192,43055,1,0,0:0:0:0:
288,192,43055,1,0,0:0:0:0:
416,192,43055,1,0,0:0:0:0:
32,192,43290,1,0,0:0:0:0:
96,192,43290,1,0,0:0:0:0:
224,192,43290,1,0,0:0:0:0:
288,192,43290,1,0,0:0:0:0:
416,192,43290,1,0,0:0:0:0:
288,192,43524,1,0,0:0:0:0:
160,192,43524,1,0,0:0:0:0:
416,192,43524,1,0,0:0:0:0:
352,192,43641,1,0,0:0:0:0:
480,192,43758,1,0,0:0:0:0:
96,192,43758,1,0,0:0:0:0:
224,192,43758,1,0,0:0:0:0:
352,192,43758,1,0,0:0:0:0:
416,192,43758,1,0,0:0:0:0:
288,192,43758,1,0,0:0:0:0:
224,192,43993,1,0,0:0:0:0:
352,192,43993,1,0,0:0:0:0:
288,192,43993,1,0,0:0:0:0:
416,192,43993,1,0,0:0:0:0:
96,192,44227,1,0,0:0:0:0:
224,192,44227,1,0,0:0:0:0:
288,192,44344,1,0,0:0:0:0:
416,192,44344,1,0,0:0:0:0:
160,192,44461,1,0,0:0:0:0:
288,192,44579,1,0,0:0:0:0:
416,192,44579,1,0,0:0:0:0:
96,192,44696,1,0,0:0:0:0:
224,192,44696,1,0,0:0:0:0:
288,192,44696,1,0,0:0:0:0:
416,192,44696,1,0,0:0:0:0:
32,192,44696,1,0,0:0:0:0:
32,192,44813,1,0,0:0:0:0:
160,192,44901,1,0,0:0:0:0:
416,192,44930,1,0,0:0:0:0:
288,192,44930,1,0,0:0:0:0:
32,192,44930,1,0,0:0:0:0:
32,192,45047,1,0,0:0:0:0:
32,192,45165,1,0,0:0:0:0:
96,192,45165,1,0,0:0:0:0:
224,192,45165,1,0,0:0:0:0:
288,192,45165,1,0,0:0:0:0:
416,192,45165,1,0,0:0:0:0:
288,192,45399,1,0,0:0:0:0:
160,192,45399,1,0,0:0:0:0:
32,192,45399,1,0,0:0:0:0:
352,192,45516,1,0,0:0:0:0:
480,192,45633,1,0,0:0:0:0:
96,192,45633,1,0,0:0:0:0:
224,192,45633,1,0,0:0:0:0:
352,192,45633,1,0,0:0:0:0:
288,192,45750,1,0,0:0:0:0:
416,192,45750,1,0,0:0:0:0:
32,192,45750,1,0,0:0:0:0:
224,192,45868,1,0,0:0:0:0:
352,192,45868,1,0,0:0:0:0:
96,192,46102,1,0,0:0:0:0:
224,192,46102,1,0,0:0:0:0:
32,192,46102,1,0,0:0:0:0:
288,192,46219,1,0,0:0:0:0:
416,192,46219,1,0,0:0:0:0:
288,192,46336,1,0,0:0:0:0:
416,192,46336,1,0,0:0:0:0:
32,192,46336,1,0,0:0:0:0:
288,192,46454,1,0,0:0:0:0:
416,192,46454,1,0,0:0:0:0:
96,192,46571,1,0,0:0:0:0:
224,192,46571,1,0,0:0:0:0:
288,192,46571,1,0,0:0:0:0:
416,192,46571,1,0,0:0:0:0:
32,192,46688,1,0,0:0:0:0:
160,192,46776,1,0,0:0:0:0:
416,192,46805,1,0,0:0:0:0:
288,192,46805,1,0,0:0:0:0:
32,192,46805,1,0,0:0:0:0:
32,192,47040,1,0,0:0:0:0:
96,192,47040,1,0,0:0:0:0:
224,192,47040,1,0,0:0:0:0:
288,192,47040,1,0,0:0:0:0:
416,192,47040,1,0,0:0:0:0:
288,192,47274,1,0,0:0:0:0:
160,192,47274,1,0,0:0:0:0:
32,192,47274,1,0,0:0:0:0:
352,192,47391,1,0,0:0:0:0:
32,192,47391,1,0,0:0:0:0:
480,192,47508,1,0,0:0:0:0:
96,192,47508,1,0,0:0:0:0:
224,192,47508,1,0,0:0:0:0:
352,192,47508,1,0,0:0:0:0:
288,192,47625,1,0,0:0:0:0:
416,192,47625,1,0,0:0:0:0:
32,192,47625,1,0,0:0:0:0:
224,192,47743,1,0,0:0:0:0:
352,192,47743,1,0,0:0:0:0:
96,192,47977,1,0,0:0:0:0:
224,192,47977,1,0,0:0:0:0:
32,192,47977,1,0,0:0:0:0:
288,192,48094,1,0,0:0:0:0:
416,192,48094,1,0,0:0:0:0:
32,192,48094,1,0,0:0:0:0:
288,192,48211,1,0,0:0:0:0:
416,192,48211,1,0,0:0:0:0:
32,192,48211,1,0,0:0:0:0:
288,192,48329,1,0,0:0:0:0:
416,192,48329,1,0,0:0:0:0:
32,192,48329,1,0,0:0:0:0:
96,192,48446,1,0,0:0:0:0:
224,192,48446,1,0,0:0:0:0:
288,192,48446,1,0,0:0:0:0:
416,192,48446,1,0,0:0:0:0:
32,192,48446,1,0,0:0:0:0:
32,192,48592,1,0,0:0:0:0:
160,192,48651,1,0,0:0:0:0:
416,192,48680,1,0,0:0:0:0:
288,192,48680,1,0,0:0:0:0:
288,192,48915,1,0,0:0:0:0:
416,192,48915,1,0,0:0:0:0:
224,192,48915,1,0,0:0:0:0:
32,192,48915,1,0,0:0:0:0:
96,192,48915,1,0,0:0:0:0:
160,192,49149,1,0,0:0:0:0:
288,192,49149,1,0,0:0:0:0:
32,192,49149,1,0,0:0:0:0:
352,192,49266,1,0,0:0:0:0:
224,192,49383,1,0,0:0:0:0:
352,192,49383,1,0,0:0:0:0:
480,192,49383,1,0,0:0:0:0:
96,192,49383,1,0,0:0:0:0:
416,192,49500,1,0,0:0:0:0:
288,192,49500,1,0,0:0:0:0:
32,192,49500,1,0,0:0:0:0:
352,192,49618,1,0,0:0:0:0:
224,192,49618,1,0,0:0:0:0:
224,192,49852,1,0,0:0:0:0:
96,192,49852,1,0,0:0:0:0:
32,192,49852,1,0,0:0:0:0:
416,192,49969,1,0,0:0:0:0:
288,192,49969,1,0,0:0:0:0:
416,192,50086,1,0,0:0:0:0:
288,192,50086,1,0,0:0:0:0:
32,192,50086,1,0,0:0:0:0:
416,192,50204,1,0,0:0:0:0:
288,192,50204,1,0,0:0:0:0:
288,192,50321,1,0,0:0:0:0:
416,192,50321,1,0,0:0:0:0:
96,192,50321,1,0,0:0:0:0:
224,192,50321,1,0,0:0:0:0:
32,192,50438,1,0,0:0:0:0:
160,192,50526,1,0,0:0:0:0:
32,192,50555,1,0,0:0:0:0:
288,192,50555,1,0,0:0:0:0:
416,192,50555,1,0,0:0:0:0:
32,192,50790,1,0,0:0:0:0:
96,192,50790,1,0,0:0:0:0:
224,192,50790,1,0,0:0:0:0:
288,192,50790,1,0,0:0:0:0:
416,192,50790,1,0,0:0:0:0:
288,192,51024,1,0,0:0:0:0:
160,192,51024,1,0,0:0:0:0:
416,192,51024,1,0,0:0:0:0:
32,192,51024,1,0,0:0:0:0:
352,192,51141,1,0,0:0:0:0:
480,192,51258,1,0,0:0:0:0:
96,192,51258,1,0,0:0:0:0:
224,192,51258,1,0,0:0:0:0:
352,192,51258,1,0,0:0:0:0:
416,192,51258,1,0,0:0:0:0:
288,192,51258,1,0,0:0:0:0:
32,192,51375,1,0,0:0:0:0:
224,192,51493,1,0,0:0:0:0:
352,192,51493,1,0,0:0:0:0:
288,192,51493,1,0,0:0:0:0:
416,192,51493,1,0,0:0:0:0:
32,192,51610,1,0,0:0:0:0:
96,192,51727,1,0,0:0:0:0:
224,192,51727,1,0,0:0:0:0:
288,192,51844,1,0,0:0:0:0:
416,192,51844,1,0,0:0:0:0:
32,192,51844,1,0,0:0:0:0:
160,192,51961,1,0,0:0:0:0:
32,192,51961,1,0,0:0:0:0:
288,192,52079,1,0,0:0:0:0:
416,192,52079,1,0,0:0:0:0:
32,192,52079,1,0,0:0:0:0:
96,192,52196,1,0,0:0:0:0:
224,192,52196,1,0,0:0:0:0:
288,192,52196,1,0,0:0:0:0:
416,192,52196,1,0,0:0:0:0:
32,192,52196,1,0,0:0:0:0:
160,192,52401,1,0,0:0:0:0:
416,192,52430,1,0,0:0:0:0:
288,192,52430,1,0,0:0:0:0:
32,192,52430,1,0,0:0:0:0:
32,192,52665,1,0,0:0:0:0:
96,192,52665,1,0,0:0:0:0:
224,192,52665,1,0,0:0:0:0:
288,192,52665,1,0,0:0:0:0:
416,192,52665,1,0,0:0:0:0:
288,192,52899,1,0,0:0:0:0:
160,192,52899,1,0,0:0:0:0:
32,192,52899,1,0,0:0:0:0:
352,192,53016,1,0,0:0:0:0:
480,192,53133,1,0,0:0:0:0:
96,192,53133,1,0,0:0:0:0:
224,192,53133,1,0,0:0:0:0:
352,192,53133,1,0,0:0:0:0:
288,192,53250,1,0,0:0:0:0:
416,192,53250,1,0,0:0:0:0:
32,192,53250,1,0,0:0:0:0:
224,192,53368,1,0,0:0:0:0:
352,192,53368,1,0,0:0:0:0:
96,192,53602,1,0,0:0:0:0:
224,192,53602,1,0,0:0:0:0:
32,192,53602,1,0,0:0:0:0:
288,192,53719,1,0,0:0:0:0:
416,192,53719,1,0,0:0:0:0:
288,192,53836,1,0,0:0:0:0:
416,192,53836,1,0,0:0:0:0:
32,192,53836,1,0,0:0:0:0:
288,192,53954,1,0,0:0:0:0:
416,192,53954,1,0,0:0:0:0:
96,192,54071,1,0,0:0:0:0:
224,192,54071,1,0,0:0:0:0:
288,192,54071,1,0,0:0:0:0:
416,192,54071,1,0,0:0:0:0:
32,192,54188,1,0,0:0:0:0:
160,192,54276,1,0,0:0:0:0:
416,192,54305,1,0,0:0:0:0:
288,192,54305,1,0,0:0:0:0:
32,192,54305,1,0,0:0:0:0:
32,192,54540,1,0,0:0:0:0:
96,192,54540,1,0,0:0:0:0:
224,192,54540,1,0,0:0:0:0:
288,192,54540,1,0,0:0:0:0:
416,192,54540,1,0,0:0:0:0:
288,192,54774,1,0,0:0:0:0:
160,192,54774,1,0,0:0:0:0:
32,192,54774,1,0,0:0:0:0:
352,192,54891,1,0,0:0:0:0:
32,192,54891,1,0,0:0:0:0:
480,192,55008,1,0,0:0:0:0:
96,192,55008,1,0,0:0:0:0:
224,192,55008,1,0,0:0:0:0:
352,192,55008,1,0,0:0:0:0:
288,192,55125,1,0,0:0:0:0:
416,192,55125,1,0,0:0:0:0:
32,192,55125,1,0,0:0:0:0:
224,192,55243,1,0,0:0:0:0:
352,192,55243,1,0,0:0:0:0:
96,192,55477,1,0,0:0:0:0:
224,192,55477,1,0,0:0:0:0:
32,192,55477,1,0,0:0:0:0:
288,192,55594,1,0,0:0:0:0:
416,192,55594,1,0,0:0:0:0:
32,192,55594,1,0,0:0:0:0:
288,192,55711,1,0,0:0:0:0:
416,192,55711,1,0,0:0:0:0:
32,192,55711,1,0,0:0:0:0:
288,192,55829,1,0,0:0:0:0:
416,192,55829,1,0,0:0:0:0:
32,192,55829,1,0,0:0:0:0:
96,192,55946,1,0,0:0:0:0:
224,192,55946,1,0,0:0:0:0:
288,192,55946,1,0,0:0:0:0:
416,192,55946,1,0,0:0:0:0:
32,192,55946,1,0,0:0:0:0:
32,192,56092,1,0,0:0:0:0:
160,192,56151,1,0,0:0:0:0:
416,192,56180,1,0,0:0:0:0:
288,192,56180,1,0,0:0:0:0:
288,192,56415,1,0,0:0:0:0:
416,192,56415,1,0,0:0:0:0:
224,192,56415,1,0,0:0:0:0:
32,192,56415,1,0,0:0:0:0:
96,192,56415,1,0,0:0:0:0:
480,192,56415,1,0,0:0:0:0:
160,192,56649,1,0,0:0:0:0:
288,192,56649,1,0,0:0:0:0:
32,192,56649,1,0,0:0:0:0:
96,192,56649,1,0,0:0:0:0:
224,192,56649,1,0,0:0:0:0:
352,192,56766,1,0,0:0:0:0:
224,192,56883,1,0,0:0:0:0:
352,192,56883,1,0,0:0:0:0:
480,192,56883,1,0,0:0:0:0:
96,192,56883,1,0,0:0:0:0:
416,192,57000,1,0,0:0:0:0:
288,192,57000,1,0,0:0:0:0:
32,192,57000,1,0,0:0:0:0:
352,192,57118,1,0,0:0:0:0:
224,192,57118,1,0,0:0:0:0:
96,192,57118,1,0,0:0:0:0:
224,192,57352,1,0,0:0:0:0:
96,192,57352,1,0,0:0:0:0:
32,192,57352,1,0,0:0:0:0:
480,192,57352,1,0,0:0:0:0:
416,192,57469,1,0,0:0:0:0:
288,192,57469,1,0,0:0:0:0:
416,192,57586,1,0,0:0:0:0:
288,192,57586,1,0,0:0:0:0:
32,192,57586,1,0,0:0:0:0:
96,192,57586,1,0,0:0:0:0:
224,192,57586,1,0,0:0:0:0:
416,192,57704,1,0,0:0:0:0:
288,192,57704,1,0,0:0:0:0:
288,192,57821,1,0,0:0:0:0:
416,192,57821,1,0,0:0:0:0:
96,192,57821,1,0,0:0:0:0:
224,192,57821,1,0,0:0:0:0:
480,192,57821,1,0,0:0:0:0:
32,192,57938,1,0,0:0:0:0:
160,192,58026,1,0,0:0:0:0:
32,192,58055,1,0,0:0:0:0:
288,192,58055,1,0,0:0:0:0:
416,192,58055,1,0,0:0:0:0:
96,192,58055,1,0,0:0:0:0:
224,192,58055,1,0,0:0:0:0:
32,192,58290,1,0,0:0:0:0:
96,192,58290,1,0,0:0:0:0:
288,192,58290,1,0,0:0:0:0:
224,192,58290,1,0,0:0:0:0:
288,192,58524,1,0,0:0:0:0:
160,192,58524,1,0,0:0:0:0:
32,192,58524,1,0,0:0:0:0:
352,192,58641,1,0,0:0:0:0:
288,192,58758,1,0,0:0:0:0:
32,192,58758,1,0,0:0:0:0:
480,192,58758,1,0,0:0:0:0:
352,192,58993,1,0,0:0:0:0:
288,192,58993,1,0,0:0:0:0:
32,192,58993,1,0,0:0:0:0:
224,192,59227,1,0,0:0:0:0:
32,192,59227,1,0,0:0:0:0:
416,192,59344,1,0,0:0:0:0:
160,192,59461,1,0,0:0:0:0:
32,192,59461,1,0,0:0:0:0:
416,192,59579,1,0,0:0:0:0:
32,192,59579,1,0,0:0:0:0:
224,192,59696,1,0,0:0:0:0:
416,192,59696,1,0,0:0:0:0:
32,192,59696,1,0,0:0:0:0:
160,192,59901,1,0,0:0:0:0:
416,192,59930,1,0,0:0:0:0:
32,192,59930,1,0,0:0:0:0:
416,192,60165,1,0,0:0:0:0:
480,192,60165,1,0,0:0:0:0:
288,192,60165,1,0,0:0:0:0:
224,192,60165,1,0,0:0:0:0:
32,192,60165,1,0,0:0:0:0:
416,192,60399,1,0,0:0:0:0:
160,192,60633,1,0,0:0:0:0:
480,192,60868,1,0,0:0:0:0:
96,192,61102,128,0,61336:0:0:0:0:
288,192,61336,1,0,0:0:0:0:
352,192,61571,1,0,0:0:0:0:
480,192,61805,1,0,0:0:0:0:
352,192,61805,1,0,0:0:0:0:
224,192,61805,1,0,0:0:0:0:
96,192,61805,1,0,0:0:0:0:
32,192,61805,1,0,0:0:0:0:
416,192,62274,1,0,0:0:0:0:
96,192,62508,1,0,0:0:0:0:
480,192,62743,1,0,0:0:0:0:
352,192,63211,1,0,0:0:0:0:
160,192,63446,1,0,0:0:0:0:
96,192,63680,1,0,0:0:0:0:
416,192,63915,1,0,0:0:0:0:
352,192,63915,1,0,0:0:0:0:
160,192,63915,1,0,0:0:0:0:
96,192,63915,1,0,0:0:0:0:
32,192,63915,1,0,0:0:0:0:
224,192,64149,1,0,0:0:0:0:
96,192,64383,1,0,0:0:0:0:
416,192,64618,1,0,0:0:0:0:
288,192,65086,1,0,0:0:0:0:
224,192,65321,1,0,0:0:0:0:
32,192,65555,1,0,0:0:0:0:
96,192,65555,1,0,0:0:0:0:
160,192,65555,1,0,0:0:0:0:
224,192,65555,1,0,0:0:0:0:
352,192,65555,1,0,0:0:0:0:
224,192,65790,128,0,66024:0:0:0:0:
288,192,66024,1,0,0:0:0:0:
96,192,66493,1,0,0:0:0:0:
160,192,66727,1,0,0:0:0:0:
352,192,66961,128,0,67196:0:0:0:0:
160,192,67196,128,0,67430:0:0:0:0:
224,192,67430,1,0,0:0:0:0:
416,192,67665,1,0,0:0:0:0:
480,192,67665,1,0,0:0:0:0:
288,192,67665,1,0,0:0:0:0:
224,192,67665,1,0,0:0:0:0:
32,192,67665,1,0,0:0:0:0:
416,192,67899,1,0,0:0:0:0:
160,192,68133,1,0,0:0:0:0:
480,192,68368,1,0,0:0:0:0:
96,192,68602,128,0,68836:0:0:0:0:
288,192,68836,1,0,0:0:0:0:
352,192,69071,1,0,0:0:0:0:
480,192,69305,1,0,0:0:0:0:
352,192,69305,1,0,0:0:0:0:
224,192,69305,1,0,0:0:0:0:
96,192,69305,1,0,0:0:0:0:
32,192,69305,1,0,0:0:0:0:
416,192,69774,1,0,0:0:0:0:
96,192,70008,1,0,0:0:0:0:
480,192,70243,1,0,0:0:0:0:
352,192,70711,1,0,0:0:0:0:
160,192,70946,1,0,0:0:0:0:
96,192,71180,1,0,0:0:0:0:
416,192,71415,1,0,0:0:0:0:
352,192,71415,1,0,0:0:0:0:
160,192,71415,1,0,0:0:0:0:
96,192,71415,1,0,0:0:0:0:
32,192,71415,1,0,0:0:0:0:
224,192,71649,1,0,0:0:0:0:
96,192,71883,1,0,0:0:0:0:
416,192,72118,1,0,0:0:0:0:
288,192,72586,1,0,0:0:0:0:
224,192,72821,1,0,0:0:0:0:
32,192,73055,1,0,0:0:0:0:
96,192,73055,1,0,0:0:0:0:
160,192,73055,1,0,0:0:0:0:
224,192,73055,1,0,0:0:0:0:
352,192,73055,1,0,0:0:0:0:
224,192,73290,128,0,73524:0:0:0:0:
288,192,73524,1,0,0:0:0:0:
96,192,73993,1,0,0:0:0:0:
160,192,74227,1,0,0:0:0:0:
352,192,74461,128,0,74696:0:0:0:0:
160,192,74696,128,0,74930:0:0:0:0:
288,192,74930,1,0,0:0:0:0:
224,192,75165,1,0,0:0:0:0:
32,192,75165,1,0,0:0:0:0:
416,192,75399,1,0,0:0:0:0:
160,192,75633,1,0,0:0:0:0:
224,192,75633,1,0,0:0:0:0:
480,192,75868,1,0,0:0:0:0:
96,192,76102,128,0,76336:0:0:0:0:
224,192,76102,1,0,0:0:0:0:
288,192,76336,1,0,0:0:0:0:
352,192,76571,1,0,0:0:0:0:
224,192,76571,1,0,0:0:0:0:
32,192,76805,1,0,0:0:0:0:
224,192,77040,1,0,0:0:0:0:
416,192,77274,1,0,0:0:0:0:
96,192,77508,1,0,0:0:0:0:
224,192,77508,1,0,0:0:0:0:
480,192,77743,1,0,0:0:0:0:
224,192,77977,1,0,0:0:0:0:
352,192,78211,1,0,0:0:0:0:
160,192,78446,1,0,0:0:0:0:
224,192,78446,1,0,0:0:0:0:
96,192,78680,1,0,0:0:0:0:
32,192,78915,1,0,0:0:0:0:
416,192,78915,1,0,0:0:0:0:
224,192,78915,1,0,0:0:0:0:
224,192,79149,1,0,0:0:0:0:
96,192,79383,1,0,0:0:0:0:
224,192,79383,1,0,0:0:0:0:
288,192,79618,1,0,0:0:0:0:
224,192,79852,1,0,0:0:0:0:
288,192,80086,1,0,0:0:0:0:
224,192,80321,1,0,0:0:0:0:
352,192,80321,1,0,0:0:0:0:
32,192,80555,1,0,0:0:0:0:
224,192,80790,128,0,81024:0:0:0:0:
96,192,80790,1,0,0:0:0:0:
288,192,81024,1,0,0:0:0:0:
224,192,81258,1,0,0:0:0:0:
288,192,81493,1,0,0:0:0:0:
160,192,81727,1,0,0:0:0:0:
224,192,81727,1,0,0:0:0:0:
352,192,81961,128,0,82196:0:0:0:0:
160,192,82196,128,0,82430:0:0:0:0:
224,192,82196,1,0,0:0:0:0:
32,192,82196,1,0,0:0:0:0:
480,192,82196,1,0,0:0:0:0:
224,192,82665,1,0,0:0:0:0:
32,192,82665,1,0,0:0:0:0:
416,192,82899,1,0,0:0:0:0:
160,192,83133,1,0,0:0:0:0:
224,192,83133,1,0,0:0:0:0:
480,192,83368,1,0,0:0:0:0:
96,192,83602,128,0,83836:0:0:0:0:
224,192,83602,1,0,0:0:0:0:
288,192,83836,1,0,0:0:0:0:
352,192,84071,1,0,0:0:0:0:
224,192,84071,1,0,0:0:0:0:
480,192,84071,1,0,0:0:0:0:
32,192,84305,1,0,0:0:0:0:
224,192,84540,1,0,0:0:0:0:
416,192,84774,1,0,0:0:0:0:
96,192,85008,1,0,0:0:0:0:
224,192,85008,1,0,0:0:0:0:
480,192,85243,1,0,0:0:0:0:
224,192,85477,1,0,0:0:0:0:
352,192,85711,1,0,0:0:0:0:
224,192,85829,1,0,0:0:0:0:
160,192,85946,1,0,0:0:0:0:
96,192,86180,1,0,0:0:0:0:
224,192,86180,1,0,0:0:0:0:
32,192,86415,1,0,0:0:0:0:
416,192,86415,1,0,0:0:0:0:
224,192,86415,1,0,0:0:0:0:
224,192,86649,1,0,0:0:0:0:
96,192,86883,1,0,0:0:0:0:
224,192,86883,1,0,0:0:0:0:
288,192,87118,1,0,0:0:0:0:
224,192,87118,1,0,0:0:0:0:
224,192,87352,1,0,0:0:0:0:
288,192,87586,1,0,0:0:0:0:
224,192,87586,1,0,0:0:0:0:
224,192,87821,1,0,0:0:0:0:
352,192,87821,1,0,0:0:0:0:
32,192,88055,1,0,0:0:0:0:
224,192,88055,1,0,0:0:0:0:
224,192,88290,128,0,88524:0:0:0:0:
96,192,88290,1,0,0:0:0:0:
352,192,88290,1,0,0:0:0:0:
480,192,88407,1,0,0:0:0:0:
96,192,88407,1,0,0:0:0:0:
288,192,88524,1,0,0:0:0:0:
352,192,88524,1,0,0:0:0:0:
96,192,88524,1,0,0:0:0:0:
96,192,88641,1,0,0:0:0:0:
480,192,88641,1,0,0:0:0:0:
224,192,88758,1,0,0:0:0:0:
96,192,88758,1,0,0:0:0:0:
352,192,88875,1,0,0:0:0:0:
96,192,88875,1,0,0:0:0:0:
288,192,88993,1,0,0:0:0:0:
96,192,88993,1,0,0:0:0:0:
224,192,88993,1,0,0:0:0:0:
480,192,89110,1,0,0:0:0:0:
96,192,89110,1,0,0:0:0:0:
160,192,89227,1,0,0:0:0:0:
224,192,89227,1,0,0:0:0:0:
96,192,89227,1,0,0:0:0:0:
96,192,89344,1,0,0:0:0:0:
480,192,89344,1,0,0:0:0:0:
352,192,89461,128,0,89696:0:0:0:0:
224,192,89461,1,0,0:0:0:0:
96,192,89461,1,0,0:0:0:0:
96,192,89579,1,0,0:0:0:0:
480,192,89579,1,0,0:0:0:0:
160,192,89696,128,0,89930:0:0:0:0:
224,192,89696,1,0,0:0:0:0:
32,192,89696,1,0,0:0:0:0:
480,192,89696,1,0,0:0:0:0:
96,192,89696,1,0,0:0:0:0:
96,192,90165,1,0,0:0:0:0:
224,192,90165,1,0,0:0:0:0:
32,192,90165,1,0,0:0:0:0:
352,192,90165,1,0,0:0:0:0:
416,192,90282,1,0,0:0:0:0:
288,192,90399,1,0,0:0:0:0:
160,192,90399,1,0,0:0:0:0:
32,192,90399,1,0,0:0:0:0:
160,192,90516,1,0,0:0:0:0:
288,192,90516,1,0,0:0:0:0:
480,192,90604,1,0,0:0:0:0:
96,192,90633,1,0,0:0:0:0:
224,192,90633,1,0,0:0:0:0:
352,192,90633,1,0,0:0:0:0:
416,192,90750,1,0,0:0:0:0:
32,192,90750,1,0,0:0:0:0:
288,192,90868,1,0,0:0:0:0:
160,192,90868,1,0,0:0:0:0:
416,192,90985,1,0,0:0:0:0:
32,192,90985,1,0,0:0:0:0:
480,192,91073,1,0,0:0:0:0:
96,192,91102,1,0,0:0:0:0:
224,192,91102,1,0,0:0:0:0:
352,192,91102,1,0,0:0:0:0:
416,192,91219,1,0,0:0:0:0:
32,192,91219,1,0,0:0:0:0:
288,192,91336,1,0,0:0:0:0:
160,192,91336,1,0,0:0:0:0:
416,192,91454,1,0,0:0:0:0:
32,192,91454,1,0,0:0:0:0:
480,192,91541,1,0,0:0:0:0:
96,192,91571,1,0,0:0:0:0:
224,192,91571,1,0,0:0:0:0:
352,192,91571,1,0,0:0:0:0:
32,192,91571,1,0,0:0:0:0:
416,192,91688,1,0,0:0:0:0:
160,192,91805,1,0,0:0:0:0:
288,192,91805,1,0,0:0:0:0:
32,192,91805,1,0,0:0:0:0:
416,192,91922,1,0,0:0:0:0:
32,192,92040,1,0,0:0:0:0:
96,192,92040,1,0,0:0:0:0:
224,192,92040,1,0,0:0:0:0:
352,192,92040,1,0,0:0:0:0:
416,192,92157,1,0,0:0:0:0:
288,192,92274,1,0,0:0:0:0:
32,192,92274,1,0,0:0:0:0:
160,192,92274,1,0,0:0:0:0:
288,192,92391,1,0,0:0:0:0:
160,192,92391,1,0,0:0:0:0:
480,192,92479,1,0,0:0:0:0:
96,192,92508,1,0,0:0:0:0:
352,192,92508,1,0,0:0:0:0:
224,192,92508,1,0,0:0:0:0:
32,192,92625,1,0,0:0:0:0:
416,192,92625,1,0,0:0:0:0:
160,192,92743,1,0,0:0:0:0:
288,192,92743,1,0,0:0:0:0:
416,192,92860,1,0,0:0:0:0:
32,192,92860,1,0,0:0:0:0:
480,192,92948,1,0,0:0:0:0:
352,192,92977,1,0,0:0:0:0:
224,192,92977,1,0,0:0:0:0:
96,192,92977,1,0,0:0:0:0:
416,192,93094,1,0,0:0:0:0:
32,192,93094,1,0,0:0:0:0:
160,192,93211,1,0,0:0:0:0:
288,192,93211,1,0,0:0:0:0:
32,192,93329,1,0,0:0:0:0:
416,192,93329,1,0,0:0:0:0:
480,192,93416,1,0,0:0:0:0:
32,192,93446,1,0,0:0:0:0:
96,192,93446,1,0,0:0:0:0:
352,192,93446,1,0,0:0:0:0:
224,192,93446,1,0,0:0:0:0:
416,192,93563,1,0,0:0:0:0:
288,192,93680,1,0,0:0:0:0:
32,192,93680,1,0,0:0:0:0:
160,192,93680,1,0,0:0:0:0:
416,192,93797,1,0,0:0:0:0:
224,192,93915,1,0,0:0:0:0:
352,192,93915,1,0,0:0:0:0:
32,192,93915,1,0,0:0:0:0:
96,192,93915,1,0,0:0:0:0:
416,192,94032,1,0,0:0:0:0:
160,192,94149,1,0,0:0:0:0:
32,192,94149,1,0,0:0:0:0:
288,192,94149,1,0,0:0:0:0:
160,192,94266,1,0,0:0:0:0:
288,192,94266,1,0,0:0:0:0:
480,192,94354,1,0,0:0:0:0:
224,192,94383,1,0,0:0:0:0:
352,192,94383,1,0,0:0:0:0:
96,192,94383,1,0,0:0:0:0:
416,192,94500,1,0,0:0:0:0:
32,192,94500,1,0,0:0:0:0:
288,192,94618,1,0,0:0:0:0:
160,192,94618,1,0,0:0:0:0:
32,192,94735,1,0,0:0:0:0:
416,192,94735,1,0,0:0:0:0:
480,192,94823,1,0,0:0:0:0:
96,192,94852,1,0,0:0:0:0:
224,192,94852,1,0,0:0:0:0:
352,192,94852,1,0,0:0:0:0:
32,192,94969,1,0,0:0:0:0:
416,192,94969,1,0,0:0:0:0:
288,192,95086,1,0,0:0:0:0:
160,192,95086,1,0,0:0:0:0:
416,192,95204,1,0,0:0:0:0:
32,192,95204,1,0,0:0:0:0:
480,192,95291,1,0,0:0:0:0:
352,192,95321,1,0,0:0:0:0:
224,192,95321,1,0,0:0:0:0:
32,192,95321,1,0,0:0:0:0:
96,192,95321,1,0,0:0:0:0:
416,192,95438,1,0,0:0:0:0:
160,192,95555,1,0,0:0:0:0:
32,192,95555,1,0,0:0:0:0:
288,192,95555,1,0,0:0:0:0:
416,192,95672,1,0,0:0:0:0:
96,192,95790,1,0,0:0:0:0:
224,192,95790,1,0,0:0:0:0:
352,192,95790,1,0,0:0:0:0:
416,192,95907,1,0,0:0:0:0:
288,192,96024,1,0,0:0:0:0:
160,192,96024,1,0,0:0:0:0:
288,192,96141,1,0,0:0:0:0:
160,192,96141,1,0,0:0:0:0:
480,192,96229,1,0,0:0:0:0:
96,192,96258,1,0,0:0:0:0:
352,192,96258,1,0,0:0:0:0:
224,192,96258,1,0,0:0:0:0:
32,192,96258,1,0,0:0:0:0:
416,192,96375,1,0,0:0:0:0:
160,192,96493,1,0,0:0:0:0:
288,192,96493,1,0,0:0:0:0:
32,192,96493,1,0,0:0:0:0:
416,192,96610,1,0,0:0:0:0:
480,192,96698,1,0,0:0:0:0:
352,192,96727,1,0,0:0:0:0:
224,192,96727,1,0,0:0:0:0:
96,192,96727,1,0,0:0:0:0:
32,192,96727,1,0,0:0:0:0:
416,192,96844,1,0,0:0:0:0:
32,192,96844,1,0,0:0:0:0:
160,192,96961,1,0,0:0:0:0:
288,192,96961,1,0,0:0:0:0:
32,192,96961,1,0,0:0:0:0:
416,192,97079,1,0,0:0:0:0:
480,192,97166,1,0,0:0:0:0:
96,192,97196,1,0,0:0:0:0:
352,192,97196,1,0,0:0:0:0:
224,192,97196,1,0,0:0:0:0:
32,192,97196,1,0,0:0:0:0:
416,192,97313,1,0,0:0:0:0:
288,192,97430,1,0,0:0:0:0:
160,192,97430,1,0,0:0:0:0:
416,192,97547,1,0,0:0:0:0:
96,192,97665,1,0,0:0:0:0:
224,192,97665,1,0,0:0:0:0:
32,192,97665,1,0,0:0:0:0:
352,192,97665,1,0,0:0:0:0:
416,192,97782,1,0,0:0:0:0:
288,192,97899,1,0,0:0:0:0:
160,192,97899,1,0,0:0:0:0:
32,192,97899,1,0,0:0:0:0:
160,192,98016,1,0,0:0:0:0:
288,192,98016,1,0,0:0:0:0:
480,192,98104,1,0,0:0:0:0:
96,192,98133,1,0,0:0:0:0:
224,192,98133,1,0,0:0:0:0:
352,192,98133,1,0,0:0:0:0:
416,192,98250,1,0,0:0:0:0:
32,192,98250,1,0,0:0:0:0:
288,192,98368,1,0,0:0:0:0:
160,192,98368,1,0,0:0:0:0:
416,192,98485,1,0,0:0:0:0:
32,192,98485,1,0,0:0:0:0:
480,192,98573,1,0,0:0:0:0:
96,192,98602,1,0,0:0:0:0:
224,192,98602,1,0,0:0:0:0:
352,192,98602,1,0,0:0:0:0:
416,192,98719,1,0,0:0:0:0:
32,192,98719,1,0,0:0:0:0:
288,192,98836,1,0,0:0:0:0:
160,192,98836,1,0,0:0:0:0:
416,192,98954,1,0,0:0:0:0:
32,192,98954,1,0,0:0:0:0:
480,192,99041,1,0,0:0:0:0:
96,192,99071,1,0,0:0:0:0:
224,192,99071,1,0,0:0:0:0:
352,192,99071,1,0,0:0:0:0:
32,192,99071,1,0,0:0:0:0:
416,192,99188,1,0,0:0:0:0:
160,192,99305,1,0,0:0:0:0:
288,192,99305,1,0,0:0:0:0:
32,192,99305,1,0,0:0:0:0:
416,192,99422,1,0,0:0:0:0:
32,192,99540,1,0,0:0:0:0:
96,192,99540,1,0,0:0:0:0:
224,192,99540,1,0,0:0:0:0:
352,192,99540,1,0,0:0:0:0:
416,192,99657,1,0,0:0:0:0:
288,192,99774,1,0,0:0:0:0:
32,192,99774,1,0,0:0:0:0:
160,192,99774,1,0,0:0:0:0:
288,192,99891,1,0,0:0:0:0:
160,192,99891,1,0,0:0:0:0:
480,192,99979,1,0,0:0:0:0:
96,192,100008,1,0,0:0:0:0:
352,192,100008,1,0,0:0:0:0:
224,192,100008,1,0,0:0:0:0:
32,192,100125,1,0,0:0:0:0:
416,192,100125,1,0,0:0:0:0:
160,192,100243,1,0,0:0:0:0:
288,192,100243,1,0,0:0:0:0:
416,192,100360,1,0,0:0:0:0:
32,192,100360,1,0,0:0:0:0:
480,192,100448,1,0,0:0:0:0:
352,192,100477,1,0,0:0:0:0:
224,192,100477,1,0,0:0:0:0:
96,192,100477,1,0,0:0:0:0:
416,192,100594,1,0,0:0:0:0:
32,192,100594,1,0,0:0:0:0:
160,192,100711,1,0,0:0:0:0:
288,192,100711,1,0,0:0:0:0:
32,192,100829,1,0,0:0:0:0:
416,192,100829,1,0,0:0:0:0:
480,192,100916,1,0,0:0:0:0:
32,192,100946,1,0,0:0:0:0:
96,192,100946,1,0,0:0:0:0:
352,192,100946,1,0,0:0:0:0:
224,192,100946,1,0,0:0:0:0:
416,192,101063,1,0,0:0:0:0:
288,192,101180,1,0,0:0:0:0:
32,192,101180,1,0,0:0:0:0:
160,192,101180,1,0,0:0:0:0:
416,192,101297,1,0,0:0:0:0:
224,192,101415,1,0,0:0:0:0:
352,192,101415,1,0,0:0:0:0:
32,192,101415,1,0,0:0:0:0:
96,192,101415,1,0,0:0:0:0:
416,192,101532,1,0,0:0:0:0:
160,192,101649,1,0,0:0:0:0:
32,192,101649,1,0,0:0:0:0:
288,192,101649,1,0,0:0:0:0:
160,192,101766,1,0,0:0:0:0:
288,192,101766,1,0,0:0:0:0:
480,192,101854,1,0,0:0:0:0:
224,192,101883,1,0,0:0:0:0:
352,192,101883,1,0,0:0:0:0:
96,192,101883,1,0,0:0:0:0:
416,192,102000,1,0,0:0:0:0:
32,192,102000,1,0,0:0:0:0:
288,192,102118,1,0,0:0:0:0:
160,192,102118,1,0,0:0:0:0:
32,192,102235,1,0,0:0:0:0:
416,192,102235,1,0,0:0:0:0:
480,192,102323,1,0,0:0:0:0:
96,192,102352,1,0,0:0:0:0:
224,192,102352,1,0,0:0:0:0:
352,192,102352,1,0,0:0:0:0:
32,192,102469,1,0,0:0:0:0:
416,192,102469,1,0,0:0:0:0:
288,192,102586,1,0,0:0:0:0:
160,192,102586,1,0,0:0:0:0:
416,192,102704,1,0,0:0:0:0:
32,192,102704,1,0,0:0:0:0:
480,192,102791,1,0,0:0:0:0:
352,192,102821,1,0,0:0:0:0:
224,192,102821,1,0,0:0:0:0:
32,192,102821,1,0,0:0:0:0:
96,192,102821,1,0,0:0:0:0:
416,192,102938,1,0,0:0:0:0:
160,192,103055,1,0,0:0:0:0:
32,192,103055,1,0,0:0:0:0:
288,192,103055,1,0,0:0:0:0:
416,192,103172,1,0,0:0:0:0:
96,192,103290,1,0,0:0:0:0:
224,192,103290,1,0,0:0:0:0:
352,192,103290,1,0,0:0:0:0:
416,192,103407,1,0,0:0:0:0:
288,192,103524,1,0,0:0:0:0:
160,192,103524,1,0,0:0:0:0:
288,192,103641,1,0,0:0:0:0:
160,192,103641,1,0,0:0:0:0:
480,192,103729,1,0,0:0:0:0:
96,192,103758,1,0,0:0:0:0:
352,192,103758,1,0,0:0:0:0:
224,192,103758,1,0,0:0:0:0:
32,192,103758,1,0,0:0:0:0:
416,192,103875,1,0,0:0:0:0:
160,192,103993,1,0,0:0:0:0:
288,192,103993,1,0,0:0:0:0:
32,192,103993,1,0,0:0:0:0:
416,192,104110,1,0,0:0:0:0:
480,192,104198,1,0,0:0:0:0:
352,192,104227,1,0,0:0:0:0:
224,192,104227,1,0,0:0:0:0:
96,192,104227,1,0,0:0:0:0:
32,192,104227,1,0,0:0:0:0:
416,192,104344,1,0,0:0:0:0:
32,192,104344,1,0,0:0:0:0:
160,192,104461,1,0,0:0:0:0:
288,192,104461,1,0,0:0:0:0:
32,192,104461,1,0,0:0:0:0:
416,192,104579,1,0,0:0:0:0:
480,192,104666,1,0,0:0:0:0:
96,192,104696,1,0,0:0:0:0:
352,192,104696,1,0,0:0:0:0:
224,192,104696,1,0,0:0:0:0:
32,192,104696,1,0,0:0:0:0:
416,192,104813,1,0,0:0:0:0:
32,192,104813,1,0,0:0:0:0:
288,192,104930,1,0,0:0:0:0:
160,192,104930,1,0,0:0:0:0:
32,192,104930,1,0,0:0:0:0:
416,192,105047,1,0,0:0:0:0:
32,192,105047,1,0,0:0:0:0:
352,192,105165,1,0,0:0:0:0:
480,192,105165,1,0,0:0:0:0:
288,192,105165,1,0,0:0:0:0:
96,192,105165,1,0,0:0:0:0:
224,192,105165,1,0,0:0:0:0:
160,192,105399,1,0,0:0:0:0:
416,192,105399,1,0,0:0:0:0:
288,192,105516,1,0,0:0:0:0:
416,192,105516,1,0,0:0:0:0:
480,192,105516,1,0,0:0:0:0:
96,192,105633,1,0,0:0:0:0:
224,192,105633,1,0,0:0:0:0:
288,192,105868,1,0,0:0:0:0:
160,192,105868,1,0,0:0:0:0:
480,192,105868,1,0,0:0:0:0:
416,192,105868,1,0,0:0:0:0:
96,192,106102,1,0,0:0:0:0:
224,192,106102,1,0,0:0:0:0:
160,192,106219,1,0,0:0:0:0:
288,192,106219,1,0,0:0:0:0:
416,192,106219,1,0,0:0:0:0:
160,192,106336,1,0,0:0:0:0:
416,192,106336,1,0,0:0:0:0:
160,192,106571,1,0,0:0:0:0:
288,192,106571,1,0,0:0:0:0:
416,192,106571,1,0,0:0:0:0:
96,192,106571,1,0,0:0:0:0:
224,192,106571,1,0,0:0:0:0:
160,192,106805,1,0,0:0:0:0:
416,192,106805,1,0,0:0:0:0:
288,192,107040,1,0,0:0:0:0:
352,192,107040,1,0,0:0:0:0:
224,192,107040,1,0,0:0:0:0:
480,192,107040,1,0,0:0:0:0:
96,192,107040,1,0,0:0:0:0:
160,192,107274,1,0,0:0:0:0:
416,192,107274,1,0,0:0:0:0:
416,192,107391,1,0,0:0:0:0:
480,192,107391,1,0,0:0:0:0:
288,192,107391,1,0,0:0:0:0:
224,192,107508,1,0,0:0:0:0:
96,192,107508,1,0,0:0:0:0:
480,192,107743,1,0,0:0:0:0:
288,192,107743,1,0,0:0:0:0:
416,192,107743,1,0,0:0:0:0:
160,192,107743,1,0,0:0:0:0:
224,192,107977,1,0,0:0:0:0:
96,192,107977,1,0,0:0:0:0:
416,192,108094,1,0,0:0:0:0:
160,192,108094,1,0,0:0:0:0:
288,192,108094,1,0,0:0:0:0:
416,192,108211,1,0,0:0:0:0:
160,192,108211,1,0,0:0:0:0:
160,192,108446,1,0,0:0:0:0:
416,192,108446,1,0,0:0:0:0:
224,192,108446,1,0,0:0:0:0:
96,192,108446,1,0,0:0:0:0:
288,192,108446,1,0,0:0:0:0:
416,192,108563,1,0,0:0:0:0:
416,192,108680,1,0,0:0:0:0:
160,192,108680,1,0,0:0:0:0:
480,192,108915,1,0,0:0:0:0:
96,192,108915,1,0,0:0:0:0:
224,192,108915,1,0,0:0:0:0:
288,192,108915,1,0,0:0:0:0:
352,192,108915,1,0,0:0:0:0:
416,192,109149,1,0,0:0:0:0:
160,192,109149,1,0,0:0:0:0:
288,192,109266,1,0,0:0:0:0:
480,192,109266,1,0,0:0:0:0:
416,192,109266,1,0,0:0:0:0:
96,192,109383,1,0,0:0:0:0:
224,192,109383,1,0,0:0:0:0:
416,192,109618,1,0,0:0:0:0:
160,192,109618,1,0,0:0:0:0:
480,192,109618,1,0,0:0:0:0:
288,192,109618,1,0,0:0:0:0:
96,192,109852,1,0,0:0:0:0:
224,192,109852,1,0,0:0:0:0:
288,192,109969,1,0,0:0:0:0:
160,192,109969,1,0,0:0:0:0:
416,192,109969,1,0,0:0:0:0:
160,192,110086,1,0,0:0:0:0:
416,192,110086,1,0,0:0:0:0:
96,192,110321,1,0,0:0:0:0:
288,192,110321,1,0,0:0:0:0:
224,192,110321,1,0,0:0:0:0:
160,192,110321,1,0,0:0:0:0:
416,192,110321,1,0,0:0:0:0:
160,192,110555,1,0,0:0:0:0:
416,192,110555,1,0,0:0:0:0:
288,192,110790,1,0,0:0:0:0:
352,192,110790,1,0,0:0:0:0:
224,192,110790,1,0,0:0:0:0:
480,192,110790,1,0,0:0:0:0:
96,192,110790,1,0,0:0:0:0:
160,192,111024,1,0,0:0:0:0:
416,192,111024,1,0,0:0:0:0:
416,192,111141,1,0,0:0:0:0:
480,192,111141,1,0,0:0:0:0:
288,192,111141,1,0,0:0:0:0:
224,192,111258,1,0,0:0:0:0:
96,192,111258,1,0,0:0:0:0:
480,192,111493,1,0,0:0:0:0:
288,192,111493,1,0,0:0:0:0:
416,192,111493,1,0,0:0:0:0:
160,192,111493,1,0,0:0:0:0:
224,192,111727,1,0,0:0:0:0:
96,192,111727,1,0,0:0:0:0:
416,192,111844,1,0,0:0:0:0:
160,192,111844,1,0,0:0:0:0:
288,192,111844,1,0,0:0:0:0:
416,192,111961,1,0,0:0:0:0:
160,192,111961,1,0,0:0:0:0:
160,192,112196,1,0,0:0:0:0:
416,192,112196,1,0,0:0:0:0:
224,192,112196,1,0,0:0:0:0:
96,192,112196,1,0,0:0:0:0:
288,192,112196,1,0,0:0:0:0:
416,192,112313,1,0,0:0:0:0:
416,192,112430,1,0,0:0:0:0:
160,192,112430,1,0,0:0:0:0:
352,192,112665,1,0,0:0:0:0:
480,192,112665,1,0,0:0:0:0:
288,192,112665,1,0,0:0:0:0:
96,192,112665,1,0,0:0:0:0:
224,192,112665,1,0,0:0:0:0:
160,192,112899,1,0,0:0:0:0:
416,192,112899,1,0,0:0:0:0:
288,192,113016,1,0,0:0:0:0:
416,192,113016,1,0,0:0:0:0:
480,192,113016,1,0,0:0:0:0:
96,192,113133,1,0,0:0:0:0:
224,192,113133,1,0,0:0:0:0:
288,192,113368,1,0,0:0:0:0:
160,192,113368,1,0,0:0:0:0:
480,192,113368,1,0,0:0:0:0:
416,192,113368,1,0,0:0:0:0:
96,192,113602,1,0,0:0:0:0:
224,192,113602,1,0,0:0:0:0:
160,192,113719,1,0,0:0:0:0:
288,192,113719,1,0,0:0:0:0:
416,192,113719,1,0,0:0:0:0:
160,192,113836,1,0,0:0:0:0:
416,192,113836,1,0,0:0:0:0:
160,192,114071,1,0,0:0:0:0:
288,192,114071,1,0,0:0:0:0:
416,192,114071,1,0,0:0:0:0:
96,192,114071,1,0,0:0:0:0:
224,192,114071,1,0,0:0:0:0:
160,192,114305,1,0,0:0:0:0:
416,192,114305,1,0,0:0:0:0:
288,192,114540,1,0,0:0:0:0:
352,192,114540,1,0,0:0:0:0:
224,192,114540,1,0,0:0:0:0:
480,192,114540,1,0,0:0:0:0:
96,192,114540,1,0,0:0:0:0:
160,192,114774,1,0,0:0:0:0:
416,192,114774,1,0,0:0:0:0:
416,192,114891,1,0,0:0:0:0:
480,192,114891,1,0,0:0:0:0:
288,192,114891,1,0,0:0:0:0:
224,192,115008,1,0,0:0:0:0:
96,192,115008,1,0,0:0:0:0:
480,192,115243,1,0,0:0:0:0:
288,192,115243,1,0,0:0:0:0:
416,192,115243,1,0,0:0:0:0:
160,192,115243,1,0,0:0:0:0:
224,192,115477,1,0,0:0:0:0:
96,192,115477,1,0,0:0:0:0:
416,192,115594,1,0,0:0:0:0:
160,192,115594,1,0,0:0:0:0:
288,192,115594,1,0,0:0:0:0:
416,192,115711,1,0,0:0:0:0:
160,192,115711,1,0,0:0:0:0:
160,192,115946,1,0,0:0:0:0:
416,192,115946,1,0,0:0:0:0:
224,192,115946,1,0,0:0:0:0:
96,192,115946,1,0,0:0:0:0:
288,192,115946,1,0,0:0:0:0:
416,192,116063,1,0,0:0:0:0:
416,192,116180,1,0,0:0:0:0:
160,192,116180,1,0,0:0:0:0:
480,192,116415,1,0,0:0:0:0:
96,192,116415,1,0,0:0:0:0:
224,192,116415,1,0,0:0:0:0:
288,192,116415,1,0,0:0:0:0:
352,192,116415,1,0,0:0:0:0:
416,192,116649,1,0,0:0:0:0:
160,192,116649,1,0,0:0:0:0:
288,192,116766,1,0,0:0:0:0:
480,192,116766,1,0,0:0:0:0:
416,192,116766,1,0,0:0:0:0:
96,192,116883,1,0,0:0:0:0:
224,192,116883,1,0,0:0:0:0:
416,192,117118,1,0,0:0:0:0:
160,192,117118,1,0,0:0:0:0:
480,192,117118,1,0,0:0:0:0:
288,192,117118,1,0,0:0:0:0:
96,192,117352,1,0,0:0:0:0:
224,192,117352,1,0,0:0:0:0:
288,192,117469,1,0,0:0:0:0:
160,192,117469,1,0,0:0:0:0:
416,192,117469,1,0,0:0:0:0:
160,192,117586,1,0,0:0:0:0:
416,192,117586,1,0,0:0:0:0:
96,192,117821,1,0,0:0:0:0:
288,192,117821,1,0,0:0:0:0:
224,192,117821,1,0,0:0:0:0:
160,192,117821,1,0,0:0:0:0:
416,192,117821,1,0,0:0:0:0:
160,192,118055,1,0,0:0:0:0:
416,192,118055,1,0,0:0:0:0:
288,192,118290,1,0,0:0:0:0:
352,192,118290,1,0,0:0:0:0:
224,192,118290,1,0,0:0:0:0:
480,192,118290,1,0,0:0:0:0:
96,192,118290,1,0,0:0:0:0:
32,192,118290,1,0,0:0:0:0:
160,192,118524,1,0,0:0:0:0:
416,192,118524,1,0,0:0:0:0:
416,192,118641,1,0,0:0:0:0:
480,192,118641,1,0,0:0:0:0:
288,192,118641,1,0,0:0:0:0:
224,192,118758,1,0,0:0:0:0:
96,192,118758,1,0,0:0:0:0:
480,192,118993,1,0,0:0:0:0:
288,192,118993,1,0,0:0:0:0:
416,192,118993,1,0,0:0:0:0:
160,192,118993,1,0,0:0:0:0:
224,192,119227,1,0,0:0:0:0:
96,192,119227,1,0,0:0:0:0:
416,192,119344,1,0,0:0:0:0:
160,192,119344,1,0,0:0:0:0:
288,192,119344,1,0,0:0:0:0:
416,192,119461,1,0,0:0:0:0:
160,192,119461,1,0,0:0:0:0:
160,192,119696,1,0,0:0:0:0:
416,192,119696,1,0,0:0:0:0:
224,192,119696,1,0,0:0:0:0:
96,192,119696,1,0,0:0:0:0:
288,192,119696,1,0,0:0:0:0:
96,192,120165,1,0,0:0:0:0:
224,192,120165,1,0,0:0:0:0:
288,192,120399,1,0,0:0:0:0:
416,192,120399,1,0,0:0:0:0:
352,192,120516,1,0,0:0:0:0:
96,192,120633,1,0,0:0:0:0:
416,192,120633,1,0,0:0:0:0:
352,192,120750,1,0,0:0:0:0:
480,192,120868,1,0,0:0:0:0:
288,192,120985,1,0,0:0:0:0:
160,192,120985,1,0,0:0:0:0:
96,192,121102,1,0,0:0:0:0:
224,192,121102,1,0,0:0:0:0:
480,192,121219,1,0,0:0:0:0:
288,192,121336,1,0,0:0:0:0:
352,192,121454,1,0,0:0:0:0:
96,192,121571,1,0,0:0:0:0:
416,192,121571,1,0,0:0:0:0:
480,192,121805,1,0,0:0:0:0:
32,192,121805,1,0,0:0:0:0:
288,192,121922,1,0,0:0:0:0:
416,192,121922,1,0,0:0:0:0:
224,192,122040,1,0,0:0:0:0:
96,192,122040,1,0,0:0:0:0:
288,192,122274,1,0,0:0:0:0:
160,192,122274,1,0,0:0:0:0:
352,192,122391,1,0,0:0:0:0:
32,192,122391,1,0,0:0:0:0:
416,192,122508,1,0,0:0:0:0:
96,192,122508,1,0,0:0:0:0:
352,192,122625,1,0,0:0:0:0:
480,192,122743,1,0,0:0:0:0:
416,192,122743,1,0,0:0:0:0:
288,192,122860,1,0,0:0:0:0:
160,192,122860,1,0,0:0:0:0:
224,192,122977,1,0,0:0:0:0:
96,192,122977,1,0,0:0:0:0:
352,192,123094,1,0,0:0:0:0:
288,192,123211,1,0,0:0:0:0:
352,192,123329,1,0,0:0:0:0:
416,192,123446,1,0,0:0:0:0:
96,192,123446,1,0,0:0:0:0:
480,192,123680,1,0,0:0:0:0:
288,192,123797,1,0,0:0:0:0:
96,192,123915,1,0,0:0:0:0:
224,192,123915,1,0,0:0:0:0:
288,192,124149,1,0,0:0:0:0:
32,192,124149,1,0,0:0:0:0:
352,192,124266,1,0,0:0:0:0:
160,192,124266,1,0,0:0:0:0:
96,192,124383,1,0,0:0:0:0:
416,192,124383,1,0,0:0:0:0:
352,192,124500,1,0,0:0:0:0:
480,192,124618,1,0,0:0:0:0:
288,192,124735,1,0,0:0:0:0:
416,192,124735,1,0,0:0:0:0:
96,192,124852,1,0,0:0:0:0:
224,192,124852,1,0,0:0:0:0:
288,192,125086,1,0,0:0:0:0:
416,192,125086,1,0,0:0:0:0:
352,192,125204,1,0,0:0:0:0:
160,192,125204,1,0,0:0:0:0:
96,192,125321,1,0,0:0:0:0:
416,192,125321,1,0,0:0:0:0:
480,192,125321,1,0,0:0:0:0:
480,192,125555,1,0,0:0:0:0:
352,192,125555,1,0,0:0:0:0:
288,192,125672,1,0,0:0:0:0:
224,192,125790,1,0,0:0:0:0:
96,192,125790,1,0,0:0:0:0:
288,192,126024,1,0,0:0:0:0:
416,192,126024,1,0,0:0:0:0:
352,192,126141,1,0,0:0:0:0:
416,192,126258,1,0,0:0:0:0:
96,192,126258,1,0,0:0:0:0:
480,192,126493,1,0,0:0:0:0:
416,192,126493,1,0,0:0:0:0:
288,192,126610,1,0,0:0:0:0:
224,192,126727,1,0,0:0:0:0:
96,192,126727,1,0,0:0:0:0:
160,192,126727,1,0,0:0:0:0:
288,192,126961,1,0,0:0:0:0:
160,192,126961,1,0,0:0:0:0:
352,192,127079,1,0,0:0:0:0:
416,192,127196,1,0,0:0:0:0:
96,192,127196,1,0,0:0:0:0:
160,192,127196,1,0,0:0:0:0:
480,192,127430,1,0,0:0:0:0:
160,192,127430,1,0,0:0:0:0:
288,192,127547,1,0,0:0:0:0:
96,192,127665,1,0,0:0:0:0:
224,192,127665,1,0,0:0:0:0:
288,192,127899,1,0,0:0:0:0:
416,192,127899,1,0,0:0:0:0:
352,192,128016,1,0,0:0:0:0:
96,192,128133,1,0,0:0:0:0:
416,192,128133,1,0,0:0:0:0:
352,192,128250,1,0,0:0:0:0:
480,192,128368,1,0,0:0:0:0:
288,192,128485,1,0,0:0:0:0:
160,192,128485,1,0,0:0:0:0:
96,192,128602,1,0,0:0:0:0:
224,192,128602,1,0,0:0:0:0:
480,192,128719,1,0,0:0:0:0:
288,192,128836,1,0,0:0:0:0:
352,192,128954,1,0,0:0:0:0:
96,192,129071,1,0,0:0:0:0:
416,192,129071,1,0,0:0:0:0:
480,192,129305,1,0,0:0:0:0:
32,192,129305,1,0,0:0:0:0:
288,192,129422,1,0,0:0:0:0:
416,192,129422,1,0,0:0:0:0:
224,192,129540,1,0,0:0:0:0:
96,192,129540,1,0,0:0:0:0:
288,192,129774,1,0,0:0:0:0:
160,192,129774,1,0,0:0:0:0:
352,192,129891,1,0,0:0:0:0:
32,192,129891,1,0,0:0:0:0:
416,192,130008,1,0,0:0:0:0:
96,192,130008,1,0,0:0:0:0:
352,192,130125,1,0,0:0:0:0:
480,192,130243,1,0,0:0:0:0:
416,192,130243,1,0,0:0:0:0:
288,192,130360,1,0,0:0:0:0:
160,192,130360,1,0,0:0:0:0:
224,192,130477,1,0,0:0:0:0:
96,192,130477,1,0,0:0:0:0:
352,192,130594,1,0,0:0:0:0:
288,192,130711,1,0,0:0:0:0:
352,192,130829,1,0,0:0:0:0:
416,192,130946,1,0,0:0:0:0:
96,192,130946,1,0,0:0:0:0:
480,192,131180,1,0,0:0:0:0:
288,192,131297,1,0,0:0:0:0:
96,192,131415,1,0,0:0:0:0:
224,192,131415,1,0,0:0:0:0:
288,192,131649,1,0,0:0:0:0:
32,192,131649,1,0,0:0:0:0:
352,192,131766,1,0,0:0:0:0:
160,192,131766,1,0,0:0:0:0:
96,192,131883,1,0,0:0:0:0:
416,192,131883,1,0,0:0:0:0:
352,192,132000,1,0,0:0:0:0:
480,192,132118,1,0,0:0:0:0:
288,192,132235,1,0,0:0:0:0:
416,192,132235,1,0,0:0:0:0:
96,192,132352,1,0,0:0:0:0:
224,192,132352,1,0,0:0:0:0:
288,192,132586,1,0,0:0:0:0:
416,192,132586,1,0,0:0:0:0:
352,192,132704,1,0,0:0:0:0:
160,192,132704,1,0,0:0:0:0:
96,192,132821,1,0,0:0:0:0:
416,192,132821,1,0,0:0:0:0:
480,192,132821,1,0,0:0:0:0:
480,192,133055,1,0,0:0:0:0:
352,192,133055,1,0,0:0:0:0:
288,192,133172,1,0,0:0:0:0:
224,192,133290,1,0,0:0:0:0:
96,192,133290,1,0,0:0:0:0:
288,192,133524,1,0,0:0:0:0:
416,192,133524,1,0,0:0:0:0:
352,192,133641,1,0,0:0:0:0:
416,192,133758,1,0,0:0:0:0:
96,192,133758,1,0,0:0:0:0:
480,192,133993,1,0,0:0:0:0:
416,192,133993,1,0,0:0:0:0:
288,192,134110,1,0,0:0:0:0:
224,192,134227,1,0,0:0:0:0:
96,192,134227,1,0,0:0:0:0:
160,192,134227,1,0,0:0:0:0:
288,192,134461,1,0,0:0:0:0:
352,192,134579,1,0,0:0:0:0:
416,192,134696,1,0,0:0:0:0:
96,192,134696,1,0,0:0:0:0:
480,192,134930,1,0,0:0:0:0:
288,192,135047,1,0,0:0:0:0:
224,192,135165,1,0,0:0:0:0:
96,192,135165,1,0,0:0:0:0:
160,192,135165,1,0,0:0:0:0:
160,192,135282,1,0,0:0:0:0:
416,192,135399,1,0,0:0:0:0:
288,192,135399,1,0,0:0:0:0:
160,192,135399,1,0,0:0:0:0:
352,192,135516,1,0,0:0:0:0:
160,192,135516,1,0,0:0:0:0:
416,192,135633,1,0,0:0:0:0:
96,192,135633,1,0,0:0:0:0:
160,192,135633,1,0,0:0:0:0:
352,192,135750,1,0,0:0:0:0:
160,192,135750,1,0,0:0:0:0:
480,192,135868,1,0,0:0:0:0:
160,192,135868,1,0,0:0:0:0:
160,192,135985,1,0,0:0:0:0:
288,192,135985,1,0,0:0:0:0:
224,192,136102,1,0,0:0:0:0:
96,192,136102,1,0,0:0:0:0:
480,192,136219,1,0,0:0:0:0:
160,192,136219,1,0,0:0:0:0:
288,192,136336,1,0,0:0:0:0:
352,192,136454,1,0,0:0:0:0:
160,192,136454,1,0,0:0:0:0:
416,192,136571,1,0,0:0:0:0:
96,192,136571,1,0,0:0:0:0:
160,192,136571,1,0,0:0:0:0:
32,192,136805,1,0,0:0:0:0:
480,192,136805,1,0,0:0:0:0:
160,192,136805,1,0,0:0:0:0:
416,192,136922,1,0,0:0:0:0:
288,192,136922,1,0,0:0:0:0:
160,192,136922,1,0,0:0:0:0:
96,192,137040,1,0,0:0:0:0:
224,192,137040,1,0,0:0:0:0:
160,192,137040,1,0,0:0:0:0:
160,192,137157,1,0,0:0:0:0:
160,192,137274,1,0,0:0:0:0:
288,192,137274,1,0,0:0:0:0:
32,192,137391,1,0,0:0:0:0:
352,192,137391,1,0,0:0:0:0:
160,192,137391,1,0,0:0:0:0:
96,192,137508,1,0,0:0:0:0:
416,192,137508,1,0,0:0:0:0:
160,192,137508,1,0,0:0:0:0:
352,192,137625,1,0,0:0:0:0:
416,192,137743,1,0,0:0:0:0:
480,192,137743,1,0,0:0:0:0:
160,192,137860,1,0,0:0:0:0:
288,192,137860,1,0,0:0:0:0:
96,192,137977,1,0,0:0:0:0:
224,192,137977,1,0,0:0:0:0:
160,192,137977,1,0,0:0:0:0:
352,192,138094,1,0,0:0:0:0:
160,192,138094,1,0,0:0:0:0:
288,192,138211,1,0,0:0:0:0:
160,192,138211,1,0,0:0:0:0:
352,192,138329,1,0,0:0:0:0:
160,192,138329,1,0,0:0:0:0:
96,192,138446,1,0,0:0:0:0:
416,192,138446,1,0,0:0:0:0:
160,192,138446,1,0,0:0:0:0:
480,192,138680,1,0,0:0:0:0:
160,192,138680,1,0,0:0:0:0:
288,192,138797,1,0,0:0:0:0:
224,192,138915,1,0,0:0:0:0:
96,192,138915,1,0,0:0:0:0:
160,192,138915,1,0,0:0:0:0:
160,192,139032,1,0,0:0:0:0:
32,192,139149,1,0,0:0:0:0:
288,192,139149,1,0,0:0:0:0:
160,192,139149,1,0,0:0:0:0:
160,192,139266,1,0,0:0:0:0:
352,192,139266,1,0,0:0:0:0:
416,192,139383,1,0,0:0:0:0:
96,192,139383,1,0,0:0:0:0:
160,192,139383,1,0,0:0:0:0:
352,192,139500,1,0,0:0:0:0:
480,192,139618,1,0,0:0:0:0:
160,192,139618,1,0,0:0:0:0:
416,192,139735,1,0,0:0:0:0:
288,192,139735,1,0,0:0:0:0:
224,192,139852,1,0,0:0:0:0:
96,192,139852,1,0,0:0:0:0:
160,192,139852,1,0,0:0:0:0:
160,192,139969,1,0,0:0:0:0:
416,192,140086,1,0,0:0:0:0:
288,192,140086,1,0,0:0:0:0:
160,192,140204,1,0,0:0:0:0:
352,192,140204,1,0,0:0:0:0:
480,192,140321,1,0,0:0:0:0:
416,192,140321,1,0,0:0:0:0:
96,192,140321,1,0,0:0:0:0:
160,192,140321,1,0,0:0:0:0:
352,192,140555,1,0,0:0:0:0:
480,192,140555,1,0,0:0:0:0:
160,192,140555,1,0,0:0:0:0:
288,192,140672,1,0,0:0:0:0:
96,192,140790,1,0,0:0:0:0:
224,192,140790,1,0,0:0:0:0:
160,192,140790,1,0,0:0:0:0:
160,192,140907,1,0,0:0:0:0:
416,192,141024,1,0,0:0:0:0:
288,192,141024,1,0,0:0:0:0:
160,192,141024,1,0,0:0:0:0:
352,192,141141,1,0,0:0:0:0:
160,192,141141,1,0,0:0:0:0:
96,192,141258,1,0,0:0:0:0:
416,192,141258,1,0,0:0:0:0:
160,192,141258,1,0,0:0:0:0:
416,192,141493,1,0,0:0:0:0:
480,192,141493,1,0,0:0:0:0:
160,192,141493,1,0,0:0:0:0:
288,192,141610,1,0,0:0:0:0:
160,192,141610,1,0,0:0:0:0:
160,192,141727,1,0,0:0:0:0:
96,192,141727,1,0,0:0:0:0:
224,192,141727,1,0,0:0:0:0:
160,192,141844,1,0,0:0:0:0:
160,192,141961,1,0,0:0:0:0:
288,192,141961,1,0,0:0:0:0:
352,192,142079,1,0,0:0:0:0:
160,192,142079,1,0,0:0:0:0:
160,192,142196,1,0,0:0:0:0:
96,192,142196,1,0,0:0:0:0:
416,192,142196,1,0,0:0:0:0:
160,192,142430,1,0,0:0:0:0:
480,192,142430,1,0,0:0:0:0:
288,192,142547,1,0,0:0:0:0:
160,192,142547,1,0,0:0:0:0:
224,192,142665,1,0,0:0:0:0:
96,192,142665,1,0,0:0:0:0:
160,192,142665,1,0,0:0:0:0:
160,192,142782,1,0,0:0:0:0:
416,192,142899,1,0,0:0:0:0:
288,192,142899,1,0,0:0:0:0:
160,192,142899,1,0,0:0:0:0:
352,192,143016,1,0,0:0:0:0:
160,192,143016,1,0,0:0:0:0:
416,192,143133,1,0,0:0:0:0:
96,192,143133,1,0,0:0:0:0:
160,192,143133,1,0,0:0:0:0:
352,192,143250,1,0,0:0:0:0:
160,192,143250,1,0,0:0:0:0:
480,192,143368,1,0,0:0:0:0:
160,192,143368,1,0,0:0:0:0:
160,192,143485,1,0,0:0:0:0:
288,192,143485,1,0,0:0:0:0:
224,192,143602,1,0,0:0:0:0:
96,192,143602,1,0,0:0:0:0:
480,192,143719,1,0,0:0:0:0:
160,192,143719,1,0,0:0:0:0:
288,192,143836,1,0,0:0:0:0:
352,192,143954,1,0,0:0:0:0:
160,192,143954,1,0,0:0:0:0:
416,192,144071,1,0,0:0:0:0:
96,192,144071,1,0,0:0:0:0:
160,192,144071,1,0,0:0:0:0:
32,192,144305,1,0,0:0:0:0:
480,192,144305,1,0,0:0:0:0:
160,192,144305,1,0,0:0:0:0:
416,192,144422,1,0,0:0:0:0:
288,192,144422,1,0,0:0:0:0:
160,192,144422,1,0,0:0:0:0:
96,192,144540,1,0,0:0:0:0:
224,192,144540,1,0,0:0:0:0:
160,192,144540,1,0,0:0:0:0:
160,192,144657,1,0,0:0:0:0:
160,192,144774,1,0,0:0:0:0:
288,192,144774,1,0,0:0:0:0:
32,192,144891,1,0,0:0:0:0:
352,192,144891,1,0,0:0:0:0:
160,192,144891,1,0,0:0:0:0:
96,192,145008,1,0,0:0:0:0:
416,192,145008,1,0,0:0:0:0:
160,192,145008,1,0,0:0:0:0:
352,192,145125,1,0,0:0:0:0:
416,192,145243,1,0,0:0:0:0:
480,192,145243,1,0,0:0:0:0:
160,192,145360,1,0,0:0:0:0:
288,192,145360,1,0,0:0:0:0:
96,192,145477,1,0,0:0:0:0:
224,192,145477,1,0,0:0:0:0:
160,192,145477,1,0,0:0:0:0:
352,192,145594,1,0,0:0:0:0:
160,192,145594,1,0,0:0:0:0:
288,192,145711,1,0,0:0:0:0:
160,192,145711,1,0,0:0:0:0:
352,192,145829,1,0,0:0:0:0:
160,192,145829,1,0,0:0:0:0:
96,192,145946,1,0,0:0:0:0:
416,192,145946,1,0,0:0:0:0:
160,192,145946,1,0,0:0:0:0:
480,192,146180,1,0,0:0:0:0:
160,192,146180,1,0,0:0:0:0:
288,192,146297,1,0,0:0:0:0:
224,192,146415,1,0,0:0:0:0:
96,192,146415,1,0,0:0:0:0:
160,192,146415,1,0,0:0:0:0:
160,192,146532,1,0,0:0:0:0:
32,192,146649,1,0,0:0:0:0:
288,192,146649,1,0,0:0:0:0:
160,192,146649,1,0,0:0:0:0:
160,192,146766,1,0,0:0:0:0:
352,192,146766,1,0,0:0:0:0:
416,192,146883,1,0,0:0:0:0:
96,192,146883,1,0,0:0:0:0:
160,192,146883,1,0,0:0:0:0:
352,192,147000,1,0,0:0:0:0:
480,192,147118,1,0,0:0:0:0:
160,192,147118,1,0,0:0:0:0:
416,192,147235,1,0,0:0:0:0:
288,192,147235,1,0,0:0:0:0:
224,192,147352,1,0,0:0:0:0:
96,192,147352,1,0,0:0:0:0:
160,192,147352,1,0,0:0:0:0:
160,192,147469,1,0,0:0:0:0:
416,192,147586,1,0,0:0:0:0:
288,192,147586,1,0,0:0:0:0:
160,192,147704,1,0,0:0:0:0:
352,192,147704,1,0,0:0:0:0:
480,192,147821,1,0,0:0:0:0:
416,192,147821,1,0,0:0:0:0:
96,192,147821,1,0,0:0:0:0:
160,192,147821,1,0,0:0:0:0:
352,192,148055,1,0,0:0:0:0:
480,192,148055,1,0,0:0:0:0:
160,192,148055,1,0,0:0:0:0:
288,192,148172,1,0,0:0:0:0:
96,192,148290,1,0,0:0:0:0:
224,192,148290,1,0,0:0:0:0:
160,192,148290,1,0,0:0:0:0:
160,192,148407,1,0,0:0:0:0:
416,192,148524,1,0,0:0:0:0:
288,192,148524,1,0,0:0:0:0:
160,192,148524,1,0,0:0:0:0:
352,192,148641,1,0,0:0:0:0:
160,192,148641,1,0,0:0:0:0:
96,192,148758,1,0,0:0:0:0:
416,192,148758,1,0,0:0:0:0:
160,192,148758,1,0,0:0:0:0:
416,192,148993,5,0,0:0:0:0:
480,192,148993,1,0,0:0:0:0:
160,192,148993,1,0,0:0:0:0:
288,192,149110,1,0,0:0:0:0:
160,192,149110,1,0,0:0:0:0:
160,192,149227,1,0,0:0:0:0:
96,192,149227,1,0,0:0:0:0:
224,192,149227,1,0,0:0:0:0:
160,192,149344,1,0,0:0:0:0:
160,192,149461,1,0,0:0:0:0:
288,192,149461,1,0,0:0:0:0:
352,192,149579,1,0,0:0:0:0:
160,192,149579,1,0,0:0:0:0:
160,192,149696,1,0,0:0:0:0:
96,192,149696,1,0,0:0:0:0:
416,192,149696,1,0,0:0:0:0:
160,192,149930,1,0,0:0:0:0:
480,192,149930,1,0,0:0:0:0:
288,192,150047,1,0,0:0:0:0:
160,192,150047,1,0,0:0:0:0:
224,192,150165,5,0,0:0:0:0:
32,192,150165,1,0,0:0:0:0:
288,192,150165,1,0,0:0:0:0:
416,192,150165,1,0,0:0:0:0:
480,192,150165,1,0,0:0:0:0:
416,192,150399,1,0,0:0:0:0:
160,192,150633,1,0,0:0:0:0:
480,192,150868,1,0,0:0:0:0:
96,192,151102,128,0,151336:0:0:0:0:
288,192,151336,1,0,0:0:0:0:
352,192,151571,1,0,0:0:0:0:
96,192,151805,1,0,0:0:0:0:
32,192,151805,1,0,0:0:0:0:
224,192,151805,1,0,0:0:0:0:
480,192,151805,1,0,0:0:0:0:
352,192,151805,1,0,0:0:0:0:
416,192,152274,1,0,0:0:0:0:
96,192,152508,1,0,0:0:0:0:
480,192,152743,1,0,0:0:0:0:
352,192,153211,1,0,0:0:0:0:
160,192,153446,1,0,0:0:0:0:
96,192,153680,1,0,0:0:0:0:
96,192,153915,1,0,0:0:0:0:
32,192,153915,1,0,0:0:0:0:
160,192,153915,1,0,0:0:0:0:
416,192,153915,1,0,0:0:0:0:
352,192,153915,1,0,0:0:0:0:
224,192,154149,1,0,0:0:0:0:
96,192,154383,1,0,0:0:0:0:
416,192,154618,1,0,0:0:0:0:
288,192,155086,1,0,0:0:0:0:
224,192,155321,1,0,0:0:0:0:
224,192,155555,1,0,0:0:0:0:
352,192,155555,1,0,0:0:0:0:
160,192,155555,1,0,0:0:0:0:
32,192,155555,1,0,0:0:0:0:
96,192,155555,1,0,0:0:0:0:
224,192,155790,128,0,156024:0:0:0:0:
288,192,156024,1,0,0:0:0:0:
96,192,156493,1,0,0:0:0:0:
160,192,156727,1,0,0:0:0:0:
352,192,156961,128,0,157196:0:0:0:0:
160,192,157196,128,0,157430:0:0:0:0:
224,192,157430,1,0,0:0:0:0:
224,192,157665,1,0,0:0:0:0:
32,192,157665,1,0,0:0:0:0:
288,192,157665,1,0,0:0:0:0:
416,192,157665,1,0,0:0:0:0:
480,192,157665,1,0,0:0:0:0:
416,192,157899,1,0,0:0:0:0:
224,192,157899,1,0,0:0:0:0:
224,192,158016,1,0,0:0:0:0:
160,192,158133,1,0,0:0:0:0:
224,192,158133,1,0,0:0:0:0:
224,192,158250,1,0,0:0:0:0:
480,192,158368,1,0,0:0:0:0:
224,192,158368,1,0,0:0:0:0:
224,192,158485,1,0,0:0:0:0:
96,192,158602,128,0,158836:0:0:0:0:
224,192,158719,1,0,0:0:0:0:
288,192,158836,1,0,0:0:0:0:
224,192,158836,1,0,0:0:0:0:
224,192,158954,1,0,0:0:0:0:
352,192,159071,1,0,0:0:0:0:
224,192,159071,1,0,0:0:0:0:
96,192,159305,1,0,0:0:0:0:
32,192,159305,1,0,0:0:0:0:
224,192,159305,1,0,0:0:0:0:
480,192,159305,1,0,0:0:0:0:
352,192,159305,1,0,0:0:0:0:
224,192,159657,1,0,0:0:0:0:
416,192,159774,1,0,0:0:0:0:
224,192,159774,1,0,0:0:0:0:
224,192,159891,1,0,0:0:0:0:
96,192,160008,1,0,0:0:0:0:
224,192,160008,1,0,0:0:0:0:
480,192,160243,1,0,0:0:0:0:
224,192,160243,1,0,0:0:0:0:
224,192,160360,1,0,0:0:0:0:
352,192,160711,1,0,0:0:0:0:
224,192,160711,1,0,0:0:0:0:
224,192,160829,1,0,0:0:0:0:
160,192,160946,1,0,0:0:0:0:
224,192,160946,1,0,0:0:0:0:
96,192,161180,1,0,0:0:0:0:
224,192,161180,1,0,0:0:0:0:
224,192,161297,1,0,0:0:0:0:
96,192,161415,1,0,0:0:0:0:
32,192,161415,1,0,0:0:0:0:
160,192,161415,1,0,0:0:0:0:
416,192,161415,1,0,0:0:0:0:
352,192,161415,1,0,0:0:0:0:
224,192,161415,1,0,0:0:0:0:
224,192,161532,1,0,0:0:0:0:
224,192,161649,1,0,0:0:0:0:
224,192,161766,1,0,0:0:0:0:
96,192,161883,1,0,0:0:0:0:
224,192,161883,1,0,0:0:0:0:
224,192,162000,1,0,0:0:0:0:
416,192,162118,1,0,0:0:0:0:
224,192,162118,1,0,0:0:0:0:
224,192,162235,1,0,0:0:0:0:
224,192,162469,1,0,0:0:0:0:
288,192,162586,1,0,0:0:0:0:
224,192,162586,1,0,0:0:0:0:
224,192,162704,1,0,0:0:0:0:
224,192,162821,1,0,0:0:0:0:
224,192,163055,1,0,0:0:0:0:
352,192,163055,1,0,0:0:0:0:
160,192,163055,1,0,0:0:0:0:
32,192,163055,1,0,0:0:0:0:
96,192,163055,1,0,0:0:0:0:
224,192,163290,128,0,163524:0:0:0:0:
288,192,163524,1,0,0:0:0:0:
224,192,163641,1,0,0:0:0:0:
224,192,163758,1,0,0:0:0:0:
224,192,163875,1,0,0:0:0:0:
96,192,163993,1,0,0:0:0:0:
224,192,163993,1,0,0:0:0:0:
160,192,164227,1,0,0:0:0:0:
96,192,164227,1,0,0:0:0:0:
224,192,164256,1,0,0:0:0:0:
352,192,164286,1,0,0:0:0:0:
480,192,164315,1,0,0:0:0:0:
96,192,164344,1,0,0:0:0:0:
224,192,164373,1,0,0:0:0:0:
352,192,164403,1,0,0:0:0:0:
480,192,164432,1,0,0:0:0:0:
96,192,164461,1,0,0:0:0:0:
224,192,164579,1,0,0:0:0:0:
160,192,164696,128,0,164930:0:0:0:0:
224,192,164696,1,0,0:0:0:0:
288,192,164930,1,0,0:0:0:0:
224,192,164930,1,0,0:0:0:0:
224,192,165165,1,0,0:0:0:0:
32,192,165165,1,0,0:0:0:0:
288,192,165165,1,0,0:0:0:0:
416,192,165165,1,0,0:0:0:0:
480,192,165165,1,0,0:0:0:0:
96,192,165165,1,0,0:0:0:0:
416,192,165399,1,0,0:0:0:0:
224,192,165399,1,0,0:0:0:0:
224,192,165516,1,0,0:0:0:0:
160,192,165633,1,0,0:0:0:0:
224,192,165633,1,0,0:0:0:0:
96,192,165633,1,0,0:0:0:0:
224,192,165750,1,0,0:0:0:0:
480,192,165868,1,0,0:0:0:0:
224,192,165868,1,0,0:0:0:0:
224,192,165985,1,0,0:0:0:0:
96,192,166102,128,0,166336:0:0:0:0:
352,192,166102,1,0,0:0:0:0:
224,192,166219,1,0,0:0:0:0:
288,192,166336,1,0,0:0:0:0:
224,192,166336,1,0,0:0:0:0:
224,192,166454,1,0,0:0:0:0:
352,192,166571,1,0,0:0:0:0:
224,192,166571,1,0,0:0:0:0:
96,192,166571,1,0,0:0:0:0:
96,192,166805,1,0,0:0:0:0:
32,192,166805,1,0,0:0:0:0:
224,192,166805,1,0,0:0:0:0:
480,192,166805,1,0,0:0:0:0:
352,192,166805,1,0,0:0:0:0:
96,192,167040,1,0,0:0:0:0:
224,192,167157,1,0,0:0:0:0:
416,192,167274,1,0,0:0:0:0:
224,192,167274,1,0,0:0:0:0:
224,192,167391,1,0,0:0:0:0:
96,192,167508,1,0,0:0:0:0:
224,192,167508,1,0,0:0:0:0:
480,192,167743,1,0,0:0:0:0:
224,192,167743,1,0,0:0:0:0:
224,192,167860,1,0,0:0:0:0:
96,192,167977,1,0,0:0:0:0:
352,192,168211,1,0,0:0:0:0:
224,192,168211,1,0,0:0:0:0:
224,192,168329,1,0,0:0:0:0:
160,192,168446,1,0,0:0:0:0:
224,192,168446,1,0,0:0:0:0:
96,192,168446,1,0,0:0:0:0:
96,192,168680,1,0,0:0:0:0:
224,192,168680,1,0,0:0:0:0:
224,192,168797,1,0,0:0:0:0:
96,192,168915,1,0,0:0:0:0:
32,192,168915,1,0,0:0:0:0:
160,192,168915,1,0,0:0:0:0:
416,192,168915,1,0,0:0:0:0:
352,192,168915,1,0,0:0:0:0:
224,192,168915,1,0,0:0:0:0:
224,192,169032,1,0,0:0:0:0:
224,192,169149,1,0,0:0:0:0:
224,192,169266,1,0,0:0:0:0:
96,192,169383,1,0,0:0:0:0:
224,192,169383,1,0,0:0:0:0:
224,192,169500,1,0,0:0:0:0:
416,192,169618,1,0,0:0:0:0:
224,192,169618,1,0,0:0:0:0:
224,192,169735,1,0,0:0:0:0:
96,192,169852,1,0,0:0:0:0:
224,192,169969,1,0,0:0:0:0:
288,192,170086,1,0,0:0:0:0:
224,192,170086,1,0,0:0:0:0:
224,192,170204,1,0,0:0:0:0:
224,192,170321,1,0,0:0:0:0:
96,192,170321,1,0,0:0:0:0:
224,192,170555,1,0,0:0:0:0:
352,192,170555,1,0,0:0:0:0:
160,192,170555,1,0,0:0:0:0:
32,192,170555,1,0,0:0:0:0:
96,192,170555,1,0,0:0:0:0:
224,192,170790,128,0,171024:0:0:0:0:
96,192,170790,1,0,0:0:0:0:
288,192,171024,1,0,0:0:0:0:
224,192,171141,1,0,0:0:0:0:
224,192,171258,1,0,0:0:0:0:
96,192,171258,1,0,0:0:0:0:
224,192,171375,1,0,0:0:0:0:
96,192,171493,1,0,0:0:0:0:
224,192,171493,1,0,0:0:0:0:
160,192,171727,1,0,0:0:0:0:
96,192,171727,1,0,0:0:0:0:
224,192,171756,1,0,0:0:0:0:
352,192,171786,1,0,0:0:0:0:
480,192,171815,1,0,0:0:0:0:
96,192,171844,1,0,0:0:0:0:
224,192,171873,1,0,0:0:0:0:
352,192,171903,1,0,0:0:0:0:
480,192,171932,1,0,0:0:0:0:
96,192,171961,1,0,0:0:0:0:
224,192,172079,1,0,0:0:0:0:
160,192,172196,128,0,172430:0:0:0:0:
224,192,172196,1,0,0:0:0:0:
96,192,172196,1,0,0:0:0:0:
288,192,172430,1,0,0:0:0:0:
224,192,172430,1,0,0:0:0:0:
224,192,172665,1,0,0:0:0:0:
32,192,172665,1,0,0:0:0:0:
288,192,172665,1,0,0:0:0:0:
416,192,172665,1,0,0:0:0:0:
480,192,172665,1,0,0:0:0:0:
96,192,172665,1,0,0:0:0:0:
416,192,172899,1,0,0:0:0:0:
224,192,172899,1,0,0:0:0:0:
224,192,173016,1,0,0:0:0:0:
160,192,173133,1,0,0:0:0:0:
224,192,173133,1,0,0:0:0:0:
96,192,173133,1,0,0:0:0:0:
224,192,173250,1,0,0:0:0:0:
480,192,173368,1,0,0:0:0:0:
224,192,173368,1,0,0:0:0:0:
224,192,173485,1,0,0:0:0:0:
96,192,173602,128,0,173836:0:0:0:0:
352,192,173602,1,0,0:0:0:0:
224,192,173719,1,0,0:0:0:0:
288,192,173836,1,0,0:0:0:0:
224,192,173836,1,0,0:0:0:0:
224,192,173954,1,0,0:0:0:0:
352,192,174071,1,0,0:0:0:0:
224,192,174071,1,0,0:0:0:0:
96,192,174071,1,0,0:0:0:0:
96,192,174305,1,0,0:0:0:0:
32,192,174305,1,0,0:0:0:0:
224,192,174305,1,0,0:0:0:0:
480,192,174305,1,0,0:0:0:0:
352,192,174305,1,0,0:0:0:0:
96,192,174540,1,0,0:0:0:0:
224,192,174657,1,0,0:0:0:0:
416,192,174774,1,0,0:0:0:0:
224,192,174774,1,0,0:0:0:0:
224,192,174891,1,0,0:0:0:0:
96,192,175008,1,0,0:0:0:0:
224,192,175008,1,0,0:0:0:0:
480,192,175243,1,0,0:0:0:0:
224,192,175243,1,0,0:0:0:0:
224,192,175360,1,0,0:0:0:0:
96,192,175477,1,0,0:0:0:0:
352,192,175711,1,0,0:0:0:0:
224,192,175711,1,0,0:0:0:0:
224,192,175829,1,0,0:0:0:0:
96,192,175829,1,0,0:0:0:0:
160,192,175946,1,0,0:0:0:0:
224,192,175946,1,0,0:0:0:0:
96,192,176180,1,0,0:0:0:0:
224,192,176180,1,0,0:0:0:0:
224,192,176297,1,0,0:0:0:0:
32,192,176415,1,0,0:0:0:0:
416,192,176415,1,0,0:0:0:0:
224,192,176415,1,0,0:0:0:0:
224,192,176649,1,0,0:0:0:0:
96,192,176883,1,0,0:0:0:0:
224,192,176883,1,0,0:0:0:0:
288,192,177118,1,0,0:0:0:0:
224,192,177118,1,0,0:0:0:0:
224,192,177352,1,0,0:0:0:0:
288,192,177586,1,0,0:0:0:0:
224,192,177586,1,0,0:0:0:0:
224,192,177821,1,0,0:0:0:0:
352,192,177821,1,0,0:0:0:0:
32,192,178055,1,0,0:0:0:0:
224,192,178055,1,0,0:0:0:0:
224,192,178290,128,0,178524:0:0:0:0:
96,192,178290,1,0,0:0:0:0:
480,192,178407,1,0,0:0:0:0:
288,192,178524,1,0,0:0:0:0:
352,192,178524,1,0,0:0:0:0:
96,192,178641,1,0,0:0:0:0:
224,192,178758,1,0,0:0:0:0:
352,192,178875,1,0,0:0:0:0:
288,192,178993,1,0,0:0:0:0:
96,192,178993,1,0,0:0:0:0:
480,192,179110,1,0,0:0:0:0:
160,192,179227,1,0,0:0:0:0:
224,192,179227,1,0,0:0:0:0:
96,192,179344,1,0,0:0:0:0:
352,192,179461,128,0,179696:0:0:0:0:
224,192,179461,1,0,0:0:0:0:
96,192,179579,1,0,0:0:0:0:
160,192,179696,128,0,179930:0:0:0:0:
224,192,179696,1,0,0:0:0:0:
32,192,179696,1,0,0:0:0:0:
480,192,179696,1,0,0:0:0:0:
96,192,180165,1,0,0:0:0:0:
224,192,180165,1,0,0:0:0:0:
352,192,180165,1,0,0:0:0:0:
32,192,180165,1,0,0:0:0:0:
416,192,180282,1,0,0:0:0:0:
288,192,180399,1,0,0:0:0:0:
160,192,180399,1,0,0:0:0:0:
32,192,180399,1,0,0:0:0:0:
160,192,180516,1,0,0:0:0:0:
288,192,180516,1,0,0:0:0:0:
480,192,180604,1,0,0:0:0:0:
96,192,180633,1,0,0:0:0:0:
224,192,180633,1,0,0:0:0:0:
352,192,180633,1,0,0:0:0:0:
32,192,180633,1,0,0:0:0:0:
416,192,180750,1,0,0:0:0:0:
288,192,180868,1,0,0:0:0:0:
160,192,180868,1,0,0:0:0:0:
32,192,180868,1,0,0:0:0:0:
416,192,180985,1,0,0:0:0:0:
480,192,181073,1,0,0:0:0:0:
96,192,181102,1,0,0:0:0:0:
224,192,181102,1,0,0:0:0:0:
352,192,181102,1,0,0:0:0:0:
416,192,181219,1,0,0:0:0:0:
288,192,181336,1,0,0:0:0:0:
160,192,181336,1,0,0:0:0:0:
416,192,181454,1,0,0:0:0:0:
480,192,181541,1,0,0:0:0:0:
96,192,181571,1,0,0:0:0:0:
224,192,181571,1,0,0:0:0:0:
352,192,181571,1,0,0:0:0:0:
416,192,181688,1,0,0:0:0:0:
160,192,181805,1,0,0:0:0:0:
288,192,181805,1,0,0:0:0:0:
416,192,181922,1,0,0:0:0:0:
96,192,182040,1,0,0:0:0:0:
224,192,182040,1,0,0:0:0:0:
352,192,182040,1,0,0:0:0:0:
32,192,182040,1,0,0:0:0:0:
416,192,182157,1,0,0:0:0:0:
288,192,182274,1,0,0:0:0:0:
160,192,182274,1,0,0:0:0:0:
32,192,182274,1,0,0:0:0:0:
288,192,182391,1,0,0:0:0:0:
160,192,182391,1,0,0:0:0:0:
480,192,182479,1,0,0:0:0:0:
96,192,182508,1,0,0:0:0:0:
352,192,182508,1,0,0:0:0:0:
224,192,182508,1,0,0:0:0:0:
32,192,182508,1,0,0:0:0:0:
416,192,182625,1,0,0:0:0:0:
160,192,182743,1,0,0:0:0:0:
288,192,182743,1,0,0:0:0:0:
32,192,182743,1,0,0:0:0:0:
416,192,182860,1,0,0:0:0:0:
480,192,182948,1,0,0:0:0:0:
352,192,182977,1,0,0:0:0:0:
224,192,182977,1,0,0:0:0:0:
96,192,182977,1,0,0:0:0:0:
416,192,183094,1,0,0:0:0:0:
160,192,183211,1,0,0:0:0:0:
288,192,183211,1,0,0:0:0:0:
416,192,183329,1,0,0:0:0:0:
480,192,183416,1,0,0:0:0:0:
96,192,183446,1,0,0:0:0:0:
352,192,183446,1,0,0:0:0:0:
224,192,183446,1,0,0:0:0:0:
416,192,183563,1,0,0:0:0:0:
288,192,183680,1,0,0:0:0:0:
160,192,183680,1,0,0:0:0:0:
416,192,183797,1,0,0:0:0:0:
224,192,183915,1,0,0:0:0:0:
352,192,183915,1,0,0:0:0:0:
96,192,183915,1,0,0:0:0:0:
32,192,183915,1,0,0:0:0:0:
416,192,184032,1,0,0:0:0:0:
160,192,184149,1,0,0:0:0:0:
288,192,184149,1,0,0:0:0:0:
32,192,184149,1,0,0:0:0:0:
160,192,184266,1,0,0:0:0:0:
288,192,184266,1,0,0:0:0:0:
480,192,184354,1,0,0:0:0:0:
224,192,184383,1,0,0:0:0:0:
352,192,184383,1,0,0:0:0:0:
96,192,184383,1,0,0:0:0:0:
32,192,184383,1,0,0:0:0:0:
416,192,184500,1,0,0:0:0:0:
288,192,184618,1,0,0:0:0:0:
160,192,184618,1,0,0:0:0:0:
32,192,184618,1,0,0:0:0:0:
416,192,184735,1,0,0:0:0:0:
480,192,184823,1,0,0:0:0:0:
96,192,184852,1,0,0:0:0:0:
224,192,184852,1,0,0:0:0:0:
352,192,184852,1,0,0:0:0:0:
416,192,184969,1,0,0:0:0:0:
288,192,185086,1,0,0:0:0:0:
160,192,185086,1,0,0:0:0:0:
416,192,185204,1,0,0:0:0:0:
480,192,185291,1,0,0:0:0:0:
352,192,185321,1,0,0:0:0:0:
224,192,185321,1,0,0:0:0:0:
96,192,185321,1,0,0:0:0:0:
416,192,185438,1,0,0:0:0:0:
160,192,185555,1,0,0:0:0:0:
288,192,185555,1,0,0:0:0:0:
416,192,185672,1,0,0:0:0:0:
96,192,185790,1,0,0:0:0:0:
224,192,185790,1,0,0:0:0:0:
352,192,185790,1,0,0:0:0:0:
32,192,185790,1,0,0:0:0:0:
416,192,185907,1,0,0:0:0:0:
288,192,186024,1,0,0:0:0:0:
160,192,186024,1,0,0:0:0:0:
32,192,186024,1,0,0:0:0:0:
288,192,186141,1,0,0:0:0:0:
160,192,186141,1,0,0:0:0:0:
480,192,186229,1,0,0:0:0:0:
96,192,186258,1,0,0:0:0:0:
352,192,186258,1,0,0:0:0:0:
224,192,186258,1,0,0:0:0:0:
32,192,186258,1,0,0:0:0:0:
416,192,186375,1,0,0:0:0:0:
160,192,186493,1,0,0:0:0:0:
288,192,186493,1,0,0:0:0:0:
32,192,186493,1,0,0:0:0:0:
416,192,186610,1,0,0:0:0:0:
480,192,186698,1,0,0:0:0:0:
352,192,186727,1,0,0:0:0:0:
224,192,186727,1,0,0:0:0:0:
96,192,186727,1,0,0:0:0:0:
416,192,186844,1,0,0:0:0:0:
160,192,186961,1,0,0:0:0:0:
288,192,186961,1,0,0:0:0:0:
32,192,186961,1,0,0:0:0:0:
416,192,187079,1,0,0:0:0:0:
480,192,187166,1,0,0:0:0:0:
96,192,187196,1,0,0:0:0:0:
352,192,187196,1,0,0:0:0:0:
224,192,187196,1,0,0:0:0:0:
32,192,187196,1,0,0:0:0:0:
416,192,187313,1,0,0:0:0:0:
288,192,187430,1,0,0:0:0:0:
160,192,187430,1,0,0:0:0:0:
32,192,187430,1,0,0:0:0:0:
416,192,187547,1,0,0:0:0:0:
96,192,187665,1,0,0:0:0:0:
224,192,187665,1,0,0:0:0:0:
352,192,187665,1,0,0:0:0:0:
32,192,187665,1,0,0:0:0:0:
416,192,187782,1,0,0:0:0:0:
288,192,187899,1,0,0:0:0:0:
160,192,187899,1,0,0:0:0:0:
32,192,187899,1,0,0:0:0:0:
160,192,188016,1,0,0:0:0:0:
288,192,188016,1,0,0:0:0:0:
480,192,188104,1,0,0:0:0:0:
96,192,188133,1,0,0:0:0:0:
224,192,188133,1,0,0:0:0:0:
352,192,188133,1,0,0:0:0:0:
32,192,188133,1,0,0:0:0:0:
416,192,188250,1,0,0:0:0:0:
288,192,188368,1,0,0:0:0:0:
160,192,188368,1,0,0:0:0:0:
32,192,188368,1,0,0:0:0:0:
416,192,188485,1,0,0:0:0:0:
480,192,188573,1,0,0:0:0:0:
96,192,188602,1,0,0:0:0:0:
224,192,188602,1,0,0:0:0:0:
352,192,188602,1,0,0:0:0:0:
416,192,188719,1,0,0:0:0:0:
288,192,188836,1,0,0:0:0:0:
160,192,188836,1,0,0:0:0:0:
416,192,188954,1,0,0:0:0:0:
480,192,189041,1,0,0:0:0:0:
96,192,189071,1,0,0:0:0:0:
224,192,189071,1,0,0:0:0:0:
352,192,189071,1,0,0:0:0:0:
416,192,189188,1,0,0:0:0:0:
160,192,189305,1,0,0:0:0:0:
288,192,189305,1,0,0:0:0:0:
416,192,189422,1,0,0:0:0:0:
96,192,189540,1,0,0:0:0:0:
224,192,189540,1,0,0:0:0:0:
352,192,189540,1,0,0:0:0:0:
32,192,189540,1,0,0:0:0:0:
416,192,189657,1,0,0:0:0:0:
288,192,189774,1,0,0:0:0:0:
160,192,189774,1,0,0:0:0:0:
32,192,189774,1,0,0:0:0:0:
288,192,189891,1,0,0:0:0:0:
160,192,189891,1,0,0:0:0:0:
480,192,189979,1,0,0:0:0:0:
96,192,190008,1,0,0:0:0:0:
352,192,190008,1,0,0:0:0:0:
224,192,190008,1,0,0:0:0:0:
32,192,190008,1,0,0:0:0:0:
416,192,190125,1,0,0:0:0:0:
160,192,190243,1,0,0:0:0:0:
288,192,190243,1,0,0:0:0:0:
32,192,190243,1,0,0:0:0:0:
416,192,190360,1,0,0:0:0:0:
480,192,190448,1,0,0:0:0:0:
352,192,190477,1,0,0:0:0:0:
224,192,190477,1,0,0:0:0:0:
96,192,190477,1,0,0:0:0:0:
416,192,190594,1,0,0:0:0:0:
160,192,190711,1,0,0:0:0:0:
288,192,190711,1,0,0:0:0:0:
416,192,190829,1,0,0:0:0:0:
480,192,190916,1,0,0:0:0:0:
96,192,190946,1,0,0:0:0:0:
352,192,190946,1,0,0:0:0:0:
224,192,190946,1,0,0:0:0:0:
416,192,191063,1,0,0:0:0:0:
288,192,191180,1,0,0:0:0:0:
160,192,191180,1,0,0:0:0:0:
416,192,191297,1,0,0:0:0:0:
224,192,191415,1,0,0:0:0:0:
352,192,191415,1,0,0:0:0:0:
96,192,191415,1,0,0:0:0:0:
32,192,191415,1,0,0:0:0:0:
416,192,191532,1,0,0:0:0:0:
160,192,191649,1,0,0:0:0:0:
288,192,191649,1,0,0:0:0:0:
32,192,191649,1,0,0:0:0:0:
160,192,191766,1,0,0:0:0:0:
288,192,191766,1,0,0:0:0:0:
480,192,191854,1,0,0:0:0:0:
224,192,191883,1,0,0:0:0:0:
352,192,191883,1,0,0:0:0:0:
96,192,191883,1,0,0:0:0:0:
32,192,191883,1,0,0:0:0:0:
416,192,192000,1,0,0:0:0:0:
288,192,192118,1,0,0:0:0:0:
160,192,192118,1,0,0:0:0:0:
32,192,192118,1,0,0:0:0:0:
416,192,192235,1,0,0:0:0:0:
480,192,192323,1,0,0:0:0:0:
96,192,192352,1,0,0:0:0:0:
224,192,192352,1,0,0:0:0:0:
352,192,192352,1,0,0:0:0:0:
416,192,192469,1,0,0:0:0:0:
288,192,192586,1,0,0:0:0:0:
160,192,192586,1,0,0:0:0:0:
416,192,192704,1,0,0:0:0:0:
480,192,192791,1,0,0:0:0:0:
352,192,192821,1,0,0:0:0:0:
224,192,192821,1,0,0:0:0:0:
96,192,192821,1,0,0:0:0:0:
416,192,192938,1,0,0:0:0:0:
160,192,193055,1,0,0:0:0:0:
288,192,193055,1,0,0:0:0:0:
416,192,193172,1,0,0:0:0:0:
96,192,193290,1,0,0:0:0:0:
224,192,193290,1,0,0:0:0:0:
352,192,193290,1,0,0:0:0:0:
32,192,193290,1,0,0:0:0:0:
416,192,193407,1,0,0:0:0:0:
288,192,193524,1,0,0:0:0:0:
160,192,193524,1,0,0:0:0:0:
32,192,193524,1,0,0:0:0:0:
288,192,193641,1,0,0:0:0:0:
160,192,193641,1,0,0:0:0:0:
480,192,193729,1,0,0:0:0:0:
96,192,193758,1,0,0:0:0:0:
352,192,193758,1,0,0:0:0:0:
224,192,193758,1,0,0:0:0:0:
32,192,193758,1,0,0:0:0:0:
416,192,193875,1,0,0:0:0:0:
160,192,193993,1,0,0:0:0:0:
288,192,193993,1,0,0:0:0:0:
32,192,193993,1,0,0:0:0:0:
416,192,194110,1,0,0:0:0:0:
480,192,194198,1,0,0:0:0:0:
352,192,194227,1,0,0:0:0:0:
224,192,194227,1,0,0:0:0:0:
96,192,194227,1,0,0:0:0:0:
416,192,194344,1,0,0:0:0:0:
160,192,194461,1,0,0:0:0:0:
288,192,194461,1,0,0:0:0:0:
32,192,194461,1,0,0:0:0:0:
416,192,194579,1,0,0:0:0:0:
480,192,194666,1,0,0:0:0:0:
96,192,194696,1,0,0:0:0:0:
352,192,194696,1,0,0:0:0:0:
224,192,194696,1,0,0:0:0:0:
32,192,194696,1,0,0:0:0:0:
416,192,194813,1,0,0:0:0:0:
288,192,194930,1,0,0:0:0:0:
160,192,194930,1,0,0:0:0:0:
32,192,194930,1,0,0:0:0:0:
416,192,195047,1,0,0:0:0:0:
352,192,195165,1,0,0:0:0:0:
32,192,195165,1,0,0:0:0:0:
96,192,195165,1,0,0:0:0:0:
224,192,195165,1,0,0:0:0:0:
416,192,195282,1,0,0:0:0:0:
32,192,195399,1,0,0:0:0:0:
160,192,195399,1,0,0:0:0:0:
288,192,195399,1,0,0:0:0:0:
288,192,195516,1,0,0:0:0:0:
160,192,195516,1,0,0:0:0:0:
480,192,195604,1,0,0:0:0:0:
352,192,195633,1,0,0:0:0:0:
32,192,195633,1,0,0:0:0:0:
96,192,195633,1,0,0:0:0:0:
224,192,195633,1,0,0:0:0:0:
416,192,195750,1,0,0:0:0:0:
32,192,195868,1,0,0:0:0:0:
160,192,195868,1,0,0:0:0:0:
288,192,195868,1,0,0:0:0:0:
416,192,195985,1,0,0:0:0:0:
480,192,196073,1,0,0:0:0:0:
352,192,196102,1,0,0:0:0:0:
224,192,196102,1,0,0:0:0:0:
96,192,196102,1,0,0:0:0:0:
416,192,196219,1,0,0:0:0:0:
160,192,196336,1,0,0:0:0:0:
288,192,196336,1,0,0:0:0:0:
416,192,196454,1,0,0:0:0:0:
480,192,196541,1,0,0:0:0:0:
352,192,196571,1,0,0:0:0:0:
224,192,196571,1,0,0:0:0:0:
96,192,196571,1,0,0:0:0:0:
416,192,196688,1,0,0:0:0:0:
288,192,196805,1,0,0:0:0:0:
160,192,196805,1,0,0:0:0:0:
416,192,196922,1,0,0:0:0:0:
352,192,197040,1,0,0:0:0:0:
32,192,197040,1,0,0:0:0:0:
96,192,197040,1,0,0:0:0:0:
224,192,197040,1,0,0:0:0:0:
416,192,197157,1,0,0:0:0:0:
32,192,197274,1,0,0:0:0:0:
160,192,197274,1,0,0:0:0:0:
288,192,197274,1,0,0:0:0:0:
160,192,197391,1,0,0:0:0:0:
288,192,197391,1,0,0:0:0:0:
480,192,197479,1,0,0:0:0:0:
224,192,197508,1,0,0:0:0:0:
32,192,197508,1,0,0:0:0:0:
96,192,197508,1,0,0:0:0:0:
352,192,197508,1,0,0:0:0:0:
416,192,197625,1,0,0:0:0:0:
32,192,197743,1,0,0:0:0:0:
288,192,197743,1,0,0:0:0:0:
160,192,197743,1,0,0:0:0:0:
416,192,197860,1,0,0:0:0:0:
480,192,197948,1,0,0:0:0:0:
96,192,197977,1,0,0:0:0:0:
224,192,197977,1,0,0:0:0:0:
352,192,197977,1,0,0:0:0:0:
416,192,198094,1,0,0:0:0:0:
288,192,198211,1,0,0:0:0:0:
160,192,198211,1,0,0:0:0:0:
416,192,198329,1,0,0:0:0:0:
480,192,198416,1,0,0:0:0:0:
224,192,198446,1,0,0:0:0:0:
352,192,198446,1,0,0:0:0:0:
96,192,198446,1,0,0:0:0:0:
416,192,198563,1,0,0:0:0:0:
160,192,198680,1,0,0:0:0:0:
288,192,198680,1,0,0:0:0:0:
416,192,198797,1,0,0:0:0:0:
96,192,198915,1,0,0:0:0:0:
32,192,198915,1,0,0:0:0:0:
224,192,198915,1,0,0:0:0:0:
352,192,198915,1,0,0:0:0:0:
416,192,199032,1,0,0:0:0:0:
32,192,199149,1,0,0:0:0:0:
288,192,199149,1,0,0:0:0:0:
160,192,199149,1,0,0:0:0:0:
288,192,199266,1,0,0:0:0:0:
160,192,199266,1,0,0:0:0:0:
480,192,199354,1,0,0:0:0:0:
96,192,199383,1,0,0:0:0:0:
32,192,199383,1,0,0:0:0:0:
224,192,199383,1,0,0:0:0:0:
352,192,199383,1,0,0:0:0:0:
416,192,199500,1,0,0:0:0:0:
32,192,199618,1,0,0:0:0:0:
160,192,199618,1,0,0:0:0:0:
288,192,199618,1,0,0:0:0:0:
416,192,199735,1,0,0:0:0:0:
480,192,199823,1,0,0:0:0:0:
352,192,199852,1,0,0:0:0:0:
224,192,199852,1,0,0:0:0:0:
96,192,199852,1,0,0:0:0:0:
416,192,199969,1,0,0:0:0:0:
160,192,200086,1,0,0:0:0:0:
288,192,200086,1,0,0:0:0:0:
416,192,200204,1,0,0:0:0:0:
480,192,200291,1,0,0:0:0:0:
96,192,200321,1,0,0:0:0:0:
224,192,200321,1,0,0:0:0:0:
352,192,200321,1,0,0:0:0:0:
416,192,200438,1,0,0:0:0:0:
288,192,200555,1,0,0:0:0:0:
160,192,200555,1,0,0:0:0:0:
416,192,200672,1,0,0:0:0:0:
352,192,200790,1,0,0:0:0:0:
32,192,200790,1,0,0:0:0:0:
96,192,200790,1,0,0:0:0:0:
224,192,200790,1,0,0:0:0:0:
416,192,200907,1,0,0:0:0:0:
32,192,201024,1,0,0:0:0:0:
160,192,201024,1,0,0:0:0:0:
288,192,201024,1,0,0:0:0:0:
160,192,201141,1,0,0:0:0:0:
288,192,201141,1,0,0:0:0:0:
480,192,201229,1,0,0:0:0:0:
224,192,201258,1,0,0:0:0:0:
32,192,201258,1,0,0:0:0:0:
96,192,201258,1,0,0:0:0:0:
352,192,201258,1,0,0:0:0:0:
416,192,201375,1,0,0:0:0:0:
32,192,201493,1,0,0:0:0:0:
288,192,201493,1,0,0:0:0:0:
160,192,201493,1,0,0:0:0:0:
416,192,201610,1,0,0:0:0:0:
480,192,201698,1,0,0:0:0:0:
96,192,201727,1,0,0:0:0:0:
224,192,201727,1,0,0:0:0:0:
352,192,201727,1,0,0:0:0:0:
416,192,201844,1,0,0:0:0:0:
32,192,201961,1,0,0:0:0:0:
288,192,201961,1,0,0:0:0:0:
160,192,201961,1,0,0:0:0:0:
416,192,202079,1,0,0:0:0:0:
480,192,202166,1,0,0:0:0:0:
224,192,202196,1,0,0:0:0:0:
32,192,202196,1,0,0:0:0:0:
96,192,202196,1,0,0:0:0:0:
352,192,202196,1,0,0:0:0:0:
416,192,202313,1,0,0:0:0:0:
32,192,202430,1,0,0:0:0:0:
160,192,202430,1,0,0:0:0:0:
288,192,202430,1,0,0:0:0:0:
416,192,202547,1,0,0:0:0:0:
96,192,202665,1,0,0:0:0:0:
224,192,202665,1,0,0:0:0:0:
352,192,202665,1,0,0:0:0:0:
32,192,202665,1,0,0:0:0:0:
416,192,202782,1,0,0:0:0:0:
288,192,202899,1,0,0:0:0:0:
160,192,202899,1,0,0:0:0:0:
32,192,202899,1,0,0:0:0:0:
160,192,203016,1,0,0:0:0:0:
288,192,203016,1,0,0:0:0:0:
480,192,203104,1,0,0:0:0:0:
96,192,203133,1,0,0:0:0:0:
224,192,203133,1,0,0:0:0:0:
352,192,203133,1,0,0:0:0:0:
32,192,203133,1,0,0:0:0:0:
416,192,203250,1,0,0:0:0:0:
288,192,203368,1,0,0:0:0:0:
160,192,203368,1,0,0:0:0:0:
32,192,203368,1,0,0:0:0:0:
416,192,203485,1,0,0:0:0:0:
480,192,203573,1,0,0:0:0:0:
96,192,203602,1,0,0:0:0:0:
224,192,203602,1,0,0:0:0:0:
352,192,203602,1,0,0:0:0:0:
416,192,203719,1,0,0:0:0:0:
288,192,203836,1,0,0:0:0:0:
160,192,203836,1,0,0:0:0:0:
416,192,203954,1,0,0:0:0:0:
480,192,204041,1,0,0:0:0:0:
96,192,204071,1,0,0:0:0:0:
224,192,204071,1,0,0:0:0:0:
352,192,204071,1,0,0:0:0:0:
416,192,204188,1,0,0:0:0:0:
160,192,204305,1,0,0:0:0:0:
288,192,204305,1,0,0:0:0:0:
416,192,204422,1,0,0:0:0:0:
96,192,204540,1,0,0:0:0:0:
224,192,204540,1,0,0:0:0:0:
352,192,204540,1,0,0:0:0:0:
32,192,204540,1,0,0:0:0:0:
416,192,204657,1,0,0:0:0:0:
288,192,204774,1,0,0:0:0:0:
160,192,204774,1,0,0:0:0:0:
32,192,204774,1,0,0:0:0:0:
288,192,204891,1,0,0:0:0:0:
160,192,204891,1,0,0:0:0:0:
480,192,204979,1,0,0:0:0:0:
96,192,205008,1,0,0:0:0:0:
352,192,205008,1,0,0:0:0:0:
224,192,205008,1,0,0:0:0:0:
32,192,205008,1,0,0:0:0:0:
416,192,205125,1,0,0:0:0:0:
160,192,205243,1,0,0:0:0:0:
288,192,205243,1,0,0:0:0:0:
32,192,205243,1,0,0:0:0:0:
416,192,205360,1,0,0:0:0:0:
480,192,205448,1,0,0:0:0:0:
352,192,205477,1,0,0:0:0:0:
224,192,205477,1,0,0:0:0:0:
96,192,205477,1,0,0:0:0:0:
416,192,205594,1,0,0:0:0:0:
160,192,205711,1,0,0:0:0:0:
288,192,205711,1,0,0:0:0:0:
480,192,205799,1,0,0:0:0:0:
416,192,205829,1,0,0:0:0:0:
352,192,205829,1,0,0:0:0:0:
224,192,205829,1,0,0:0:0:0:
96,192,205829,1,0,0:0:0:0:
416,192,206063,1,0,0:0:0:0:
480,192,206151,1,0,0:0:0:0:
96,192,206180,1,0,0:0:0:0:
352,192,206180,1,0,0:0:0:0:
224,192,206180,1,0,0:0:0:0:
288,192,206180,1,0,0:0:0:0:
160,192,206180,1,0,0:0:0:0:
416,192,206297,1,0,0:0:0:0:
224,192,206415,1,0,0:0:0:0:
352,192,206415,1,0,0:0:0:0:
96,192,206415,1,0,0:0:0:0:
32,192,206415,1,0,0:0:0:0:
416,192,206532,1,0,0:0:0:0:
160,192,206649,1,0,0:0:0:0:
288,192,206649,1,0,0:0:0:0:
32,192,206649,1,0,0:0:0:0:
96,192,206649,1,0,0:0:0:0:
224,192,206649,1,0,0:0:0:0:
352,192,206649,1,0,0:0:0:0:
160,192,206766,1,0,0:0:0:0:
288,192,206766,1,0,0:0:0:0:
480,192,206854,1,0,0:0:0:0:
224,192,206883,1,0,0:0:0:0:
352,192,206883,1,0,0:0:0:0:
96,192,206883,1,0,0:0:0:0:
32,192,206883,1,0,0:0:0:0:
416,192,207000,1,0,0:0:0:0:
288,192,207118,1,0,0:0:0:0:
160,192,207118,1,0,0:0:0:0:
32,192,207118,1,0,0:0:0:0:
96,192,207118,1,0,0:0:0:0:
224,192,207118,1,0,0:0:0:0:
352,192,207118,1,0,0:0:0:0:
416,192,207235,1,0,0:0:0:0:
480,192,207323,1,0,0:0:0:0:
96,192,207352,1,0,0:0:0:0:
224,192,207352,1,0,0:0:0:0:
352,192,207352,1,0,0:0:0:0:
416,192,207469,1,0,0:0:0:0:
288,192,207586,1,0,0:0:0:0:
160,192,207586,1,0,0:0:0:0:
96,192,207586,1,0,0:0:0:0:
224,192,207586,1,0,0:0:0:0:
352,192,207586,1,0,0:0:0:0:
416,192,207704,1,0,0:0:0:0:
480,192,207791,1,0,0:0:0:0:
352,192,207821,1,0,0:0:0:0:
224,192,207821,1,0,0:0:0:0:
96,192,207821,1,0,0:0:0:0:
416,192,207938,1,0,0:0:0:0:
160,192,208055,1,0,0:0:0:0:
288,192,208055,1,0,0:0:0:0:
96,192,208055,1,0,0:0:0:0:
224,192,208055,1,0,0:0:0:0:
352,192,208055,1,0,0:0:0:0:
416,192,208172,1,0,0:0:0:0:
96,192,208290,1,0,0:0:0:0:
224,192,208290,1,0,0:0:0:0:
352,192,208290,1,0,0:0:0:0:
32,192,208290,1,0,0:0:0:0:
416,192,208407,1,0,0:0:0:0:
96,192,208407,1,0,0:0:0:0:
224,192,208407,1,0,0:0:0:0:
352,192,208407,1,0,0:0:0:0:
288,192,208524,1,0,0:0:0:0:
160,192,208524,1,0,0:0:0:0:
32,192,208524,1,0,0:0:0:0:
352,192,208524,1,0,0:0:0:0:
224,192,208524,1,0,0:0:0:0:
96,192,208524,1,0,0:0:0:0:
288,192,208641,1,0,0:0:0:0:
160,192,208641,1,0,0:0:0:0:
96,192,208641,1,0,0:0:0:0:
224,192,208641,1,0,0:0:0:0:
352,192,208641,1,0,0:0:0:0:
480,192,208729,1,0,0:0:0:0:
96,192,208758,1,0,0:0:0:0:
352,192,208758,1,0,0:0:0:0:
224,192,208758,1,0,0:0:0:0:
32,192,208758,1,0,0:0:0:0:
416,192,208875,1,0,0:0:0:0:
352,192,208875,1,0,0:0:0:0:
224,192,208875,1,0,0:0:0:0:
96,192,208875,1,0,0:0:0:0:
160,192,208993,1,0,0:0:0:0:
288,192,208993,1,0,0:0:0:0:
32,192,208993,1,0,0:0:0:0:
96,192,208993,1,0,0:0:0:0:
224,192,208993,1,0,0:0:0:0:
352,192,208993,1,0,0:0:0:0:
416,192,209110,1,0,0:0:0:0:
352,192,209110,1,0,0:0:0:0:
224,192,209110,1,0,0:0:0:0:
96,192,209110,1,0,0:0:0:0:
480,192,209198,1,0,0:0:0:0:
352,192,209227,1,0,0:0:0:0:
224,192,209227,1,0,0:0:0:0:
96,192,209227,1,0,0:0:0:0:
416,192,209344,1,0,0:0:0:0:
160,192,209461,1,0,0:0:0:0:
288,192,209461,1,0,0:0:0:0:
32,192,209461,1,0,0:0:0:0:
416,192,209579,1,0,0:0:0:0:
480,192,209666,1,0,0:0:0:0:
96,192,209696,1,0,0:0:0:0:
352,192,209696,1,0,0:0:0:0:
224,192,209696,1,0,0:0:0:0:
32,192,209696,1,0,0:0:0:0:
416,192,209813,1,0,0:0:0:0:
288,192,209930,1,0,0:0:0:0:
160,192,209930,1,0,0:0:0:0:
32,192,209930,1,0,0:0:0:0:
416,192,210047,1,0,0:0:0:0:
96,192,210165,1,0,0:0:0:0:
224,192,210165,1,0,0:0:0:0:
32,192,210165,1,0,0:0:0:0:
352,192,210165,1,0,0:0:0:0:
416,192,210282,1,0,0:0:0:0:
288,192,210399,1,0,0:0:0:0:
160,192,210399,1,0,0:0:0:0:
32,192,210399,1,0,0:0:0:0:
160,192,210516,1,0,0:0:0:0:
288,192,210516,1,0,0:0:0:0:
480,192,210604,1,0,0:0:0:0:
96,192,210633,1,0,0:0:0:0:
224,192,210633,1,0,0:0:0:0:
352,192,210633,1,0,0:0:0:0:
416,192,210750,1,0,0:0:0:0:
32,192,210750,1,0,0:0:0:0:
288,192,210868,1,0,0:0:0:0:
160,192,210868,1,0,0:0:0:0:
416,192,210985,1,0,0:0:0:0:
32,192,210985,1,0,0:0:0:0:
480,192,211073,1,0,0:0:0:0:
96,192,211102,1,0,0:0:0:0:
224,192,211102,1,0,0:0:0:0:
352,192,211102,1,0,0:0:0:0:
416,192,211219,1,0,0:0:0:0:
32,192,211219,1,0,0:0:0:0:
288,192,211336,1,0,0:0:0:0:
160,192,211336,1,0,0:0:0:0:
416,192,211454,1,0,0:0:0:0:
32,192,211454,1,0,0:0:0:0:
480,192,211541,1,0,0:0:0:0:
96,192,211571,1,0,0:0:0:0:
224,192,211571,1,0,0:0:0:0:
352,192,211571,1,0,0:0:0:0:
32,192,211571,1,0,0:0:0:0:
416,192,211688,1,0,0:0:0:0:
160,192,211805,1,0,0:0:0:0:
288,192,211805,1,0,0:0:0:0:
32,192,211805,1,0,0:0:0:0:
416,192,211922,1,0,0:0:0:0:
32,192,212040,1,0,0:0:0:0:
96,192,212040,1,0,0:0:0:0:
224,192,212040,1,0,0:0:0:0:
352,192,212040,1,0,0:0:0:0:
416,192,212157,1,0,0:0:0:0:
288,192,212274,1,0,0:0:0:0:
32,192,212274,1,0,0:0:0:0:
160,192,212274,1,0,0:0:0:0:
288,192,212391,1,0,0:0:0:0:
160,192,212391,1,0,0:0:0:0:
480,192,212479,1,0,0:0:0:0:
96,192,212508,1,0,0:0:0:0:
352,192,212508,1,0,0:0:0:0:
224,192,212508,1,0,0:0:0:0:
32,192,212625,1,0,0:0:0:0:
416,192,212625,1,0,0:0:0:0:
160,192,212743,1,0,0:0:0:0:
288,192,212743,1,0,0:0:0:0:
416,192,212860,1,0,0:0:0:0:
32,192,212860,1,0,0:0:0:0:
480,192,212948,1,0,0:0:0:0:
352,192,212977,1,0,0:0:0:0:
224,192,212977,1,0,0:0:0:0:
96,192,212977,1,0,0:0:0:0:
416,192,213094,1,0,0:0:0:0:
32,192,213094,1,0,0:0:0:0:
160,192,213211,1,0,0:0:0:0:
288,192,213211,1,0,0:0:0:0:
32,192,213329,1,0,0:0:0:0:
416,192,213329,1,0,0:0:0:0:
480,192,213416,1,0,0:0:0:0:
32,192,213446,1,0,0:0:0:0:
96,192,213446,1,0,0:0:0:0:
352,192,213446,1,0,0:0:0:0:
224,192,213446,1,0,0:0:0:0:
416,192,213563,1,0,0:0:0:0:
288,192,213680,1,0,0:0:0:0:
32,192,213680,1,0,0:0:0:0:
160,192,213680,1,0,0:0:0:0:
416,192,213797,1,0,0:0:0:0:
224,192,213915,1,0,0:0:0:0:
352,192,213915,1,0,0:0:0:0:
32,192,213915,1,0,0:0:0:0:
96,192,213915,1,0,0:0:0:0:
416,192,214032,1,0,0:0:0:0:
160,192,214149,1,0,0:0:0:0:
32,192,214149,1,0,0:0:0:0:
288,192,214149,1,0,0:0:0:0:
160,192,214266,1,0,0:0:0:0:
288,192,214266,1,0,0:0:0:0:
480,192,214354,1,0,0:0:0:0:
224,192,214383,1,0,0:0:0:0:
352,192,214383,1,0,0:0:0:0:
96,192,214383,1,0,0:0:0:0:
416,192,214500,1,0,0:0:0:0:
32,192,214500,1,0,0:0:0:0:
288,192,214618,1,0,0:0:0:0:
160,192,214618,1,0,0:0:0:0:
32,192,214735,1,0,0:0:0:0:
416,192,214735,1,0,0:0:0:0:
480,192,214823,1,0,0:0:0:0:
96,192,214852,1,0,0:0:0:0:
224,192,214852,1,0,0:0:0:0:
352,192,214852,1,0,0:0:0:0:
32,192,214969,1,0,0:0:0:0:
416,192,214969,1,0,0:0:0:0:
288,192,215086,1,0,0:0:0:0:
160,192,215086,1,0,0:0:0:0:
416,192,215204,1,0,0:0:0:0:
32,192,215204,1,0,0:0:0:0:
480,192,215291,1,0,0:0:0:0:
352,192,215321,1,0,0:0:0:0:
224,192,215321,1,0,0:0:0:0:
32,192,215321,1,0,0:0:0:0:
96,192,215321,1,0,0:0:0:0:
416,192,215438,1,0,0:0:0:0:
160,192,215555,1,0,0:0:0:0:
32,192,215555,1,0,0:0:0:0:
288,192,215555,1,0,0:0:0:0:
416,192,215672,1,0,0:0:0:0:
96,192,215790,1,0,0:0:0:0:
224,192,215790,1,0,0:0:0:0:
352,192,215790,1,0,0:0:0:0:
416,192,215907,1,0,0:0:0:0:
288,192,216024,1,0,0:0:0:0:
160,192,216024,1,0,0:0:0:0:
288,192,216141,1,0,0:0:0:0:
160,192,216141,1,0,0:0:0:0:
480,192,216229,1,0,0:0:0:0:
96,192,216258,1,0,0:0:0:0:
352,192,216258,1,0,0:0:0:0:
224,192,216258,1,0,0:0:0:0:
32,192,216258,1,0,0:0:0:0:
416,192,216375,1,0,0:0:0:0:
160,192,216493,1,0,0:0:0:0:
288,192,216493,1,0,0:0:0:0:
32,192,216493,1,0,0:0:0:0:
416,192,216610,1,0,0:0:0:0:
480,192,216698,1,0,0:0:0:0:
352,192,216727,1,0,0:0:0:0:
224,192,216727,1,0,0:0:0:0:
96,192,216727,1,0,0:0:0:0:
32,192,216727,1,0,0:0:0:0:
416,192,216844,1,0,0:0:0:0:
32,192,216844,1,0,0:0:0:0:
160,192,216961,1,0,0:0:0:0:
288,192,216961,1,0,0:0:0:0:
32,192,216961,1,0,0:0:0:0:
416,192,217079,1,0,0:0:0:0:
480,192,217166,1,0,0:0:0:0:
96,192,217196,1,0,0:0:0:0:
352,192,217196,1,0,0:0:0:0:
224,192,217196,1,0,0:0:0:0:
32,192,217196,1,0,0:0:0:0:
416,192,217313,1,0,0:0:0:0:
288,192,217430,1,0,0:0:0:0:
160,192,217430,1,0,0:0:0:0:
416,192,217547,1,0,0:0:0:0:
32,192,217665,1,0,0:0:0:0:
352,192,217665,1,0,0:0:0:0:
96,192,217665,1,0,0:0:0:0:
224,192,217665,1,0,0:0:0:0:
416,192,217782,1,0,0:0:0:0:
32,192,217899,1,0,0:0:0:0:
160,192,217899,1,0,0:0:0:0:
288,192,217899,1,0,0:0:0:0:
288,192,218016,1,0,0:0:0:0:
160,192,218016,1,0,0:0:0:0:
480,192,218104,1,0,0:0:0:0:
352,192,218133,1,0,0:0:0:0:
224,192,218133,1,0,0:0:0:0:
96,192,218133,1,0,0:0:0:0:
32,192,218250,1,0,0:0:0:0:
416,192,218250,1,0,0:0:0:0:
160,192,218368,1,0,0:0:0:0:
288,192,218368,1,0,0:0:0:0:
32,192,218485,1,0,0:0:0:0:
416,192,218485,1,0,0:0:0:0:
480,192,218573,1,0,0:0:0:0:
352,192,218602,1,0,0:0:0:0:
224,192,218602,1,0,0:0:0:0:
96,192,218602,1,0,0:0:0:0:
32,192,218719,1,0,0:0:0:0:
416,192,218719,1,0,0:0:0:0:
160,192,218836,1,0,0:0:0:0:
288,192,218836,1,0,0:0:0:0:
32,192,218954,1,0,0:0:0:0:
416,192,218954,1,0,0:0:0:0:
480,192,219041,1,0,0:0:0:0:
352,192,219071,1,0,0:0:0:0:
32,192,219071,1,0,0:0:0:0:
96,192,219071,1,0,0:0:0:0:
224,192,219071,1,0,0:0:0:0:
416,192,219188,1,0,0:0:0:0:
32,192,219305,1,0,0:0:0:0:
288,192,219305,1,0,0:0:0:0:
160,192,219305,1,0,0:0:0:0:
416,192,219422,1,0,0:0:0:0:
224,192,219540,1,0,0:0:0:0:
352,192,219540,1,0,0:0:0:0:
32,192,219540,1,0,0:0:0:0:
96,192,219540,1,0,0:0:0:0:
416,192,219657,1,0,0:0:0:0:
160,192,219774,1,0,0:0:0:0:
32,192,219774,1,0,0:0:0:0:
288,192,219774,1,0,0:0:0:0:
160,192,219891,1,0,0:0:0:0:
288,192,219891,1,0,0:0:0:0:
480,192,219979,1,0,0:0:0:0:
224,192,220008,1,0,0:0:0:0:
352,192,220008,1,0,0:0:0:0:
96,192,220008,1,0,0:0:0:0:
416,192,220125,1,0,0:0:0:0:
32,192,220125,1,0,0:0:0:0:
288,192,220243,1,0,0:0:0:0:
160,192,220243,1,0,0:0:0:0:
32,192,220360,1,0,0:0:0:0:
416,192,220360,1,0,0:0:0:0:
480,192,220448,1,0,0:0:0:0:
96,192,220477,1,0,0:0:0:0:
224,192,220477,1,0,0:0:0:0:
352,192,220477,1,0,0:0:0:0:
32,192,220594,1,0,0:0:0:0:
416,192,220594,1,0,0:0:0:0:
288,192,220711,1,0,0:0:0:0:
160,192,220711,1,0,0:0:0:0:
416,192,220829,1,0,0:0:0:0:
32,192,220829,1,0,0:0:0:0:
480,192,220916,1,0,0:0:0:0:
352,192,220946,1,0,0:0:0:0:
224,192,220946,1,0,0:0:0:0:
32,192,220946,1,0,0:0:0:0:
96,192,220946,1,0,0:0:0:0:
416,192,221063,1,0,0:0:0:0:
160,192,221180,1,0,0:0:0:0:
32,192,221180,1,0,0:0:0:0:
288,192,221180,1,0,0:0:0:0:
416,192,221297,1,0,0:0:0:0:
32,192,221415,1,0,0:0:0:0:
96,192,221415,1,0,0:0:0:0:
224,192,221415,1,0,0:0:0:0:
352,192,221415,1,0,0:0:0:0:
416,192,221532,1,0,0:0:0:0:
288,192,221649,1,0,0:0:0:0:
32,192,221649,1,0,0:0:0:0:
160,192,221649,1,0,0:0:0:0:
288,192,221766,1,0,0:0:0:0:
160,192,221766,1,0,0:0:0:0:
480,192,221854,1,0,0:0:0:0:
96,192,221883,1,0,0:0:0:0:
352,192,221883,1,0,0:0:0:0:
224,192,221883,1,0,0:0:0:0:
32,192,222000,1,0,0:0:0:0:
416,192,222000,1,0,0:0:0:0:
160,192,222118,1,0,0:0:0:0:
288,192,222118,1,0,0:0:0:0:
416,192,222235,1,0,0:0:0:0:
32,192,222235,1,0,0:0:0:0:
480,192,222323,1,0,0:0:0:0:
352,192,222352,1,0,0:0:0:0:
224,192,222352,1,0,0:0:0:0:
96,192,222352,1,0,0:0:0:0:
416,192,222469,1,0,0:0:0:0:
32,192,222469,1,0,0:0:0:0:
160,192,222586,1,0,0:0:0:0:
288,192,222586,1,0,0:0:0:0:
32,192,222704,1,0,0:0:0:0:
416,192,222704,1,0,0:0:0:0:
480,192,222791,1,0,0:0:0:0:
32,192,222821,1,0,0:0:0:0:
96,192,222821,1,0,0:0:0:0:
352,192,222821,1,0,0:0:0:0:
224,192,222821,1,0,0:0:0:0:
416,192,222938,1,0,0:0:0:0:
288,192,223055,1,0,0:0:0:0:
32,192,223055,1,0,0:0:0:0:
160,192,223055,1,0,0:0:0:0:
416,192,223172,1,0,0:0:0:0:
352,192,223290,1,0,0:0:0:0:
224,192,223290,1,0,0:0:0:0:
96,192,223290,1,0,0:0:0:0:
416,192,223407,1,0,0:0:0:0:
160,192,223524,1,0,0:0:0:0:
288,192,223524,1,0,0:0:0:0:
160,192,223641,1,0,0:0:0:0:
288,192,223641,1,0,0:0:0:0:
480,192,223729,1,0,0:0:0:0:
224,192,223758,1,0,0:0:0:0:
32,192,223758,1,0,0:0:0:0:
96,192,223758,1,0,0:0:0:0:
352,192,223758,1,0,0:0:0:0:
416,192,223875,1,0,0:0:0:0:
32,192,223993,1,0,0:0:0:0:
288,192,223993,1,0,0:0:0:0:
160,192,223993,1,0,0:0:0:0:
416,192,224110,1,0,0:0:0:0:
480,192,224198,1,0,0:0:0:0:
96,192,224227,1,0,0:0:0:0:
32,192,224227,1,0,0:0:0:0:
352,192,224227,1,0,0:0:0:0:
224,192,224227,1,0,0:0:0:0:
32,192,224344,1,0,0:0:0:0:
416,192,224344,1,0,0:0:0:0:
32,192,224461,1,0,0:0:0:0:
288,192,224461,1,0,0:0:0:0:
160,192,224461,1,0,0:0:0:0:
416,192,224579,1,0,0:0:0:0:
480,192,224666,1,0,0:0:0:0:
224,192,224696,1,0,0:0:0:0:
32,192,224696,1,0,0:0:0:0:
96,192,224696,1,0,0:0:0:0:
352,192,224696,1,0,0:0:0:0:
416,192,224813,1,0,0:0:0:0:
32,192,224813,1,0,0:0:0:0:
160,192,224930,1,0,0:0:0:0:
288,192,224930,1,0,0:0:0:0:
32,192,224930,1,0,0:0:0:0:
416,192,225047,1,0,0:0:0:0:
32,192,225047,1,0,0:0:0:0:
352,192,225165,1,0,0:0:0:0:
480,192,225165,1,0,0:0:0:0:
288,192,225165,1,0,0:0:0:0:
96,192,225165,1,0,0:0:0:0:
224,192,225165,1,0,0:0:0:0:
160,192,225399,1,0,0:0:0:0:
416,192,225399,1,0,0:0:0:0:
288,192,225516,1,0,0:0:0:0:
416,192,225516,1,0,0:0:0:0:
480,192,225516,1,0,0:0:0:0:
96,192,225633,1,0,0:0:0:0:
224,192,225633,1,0,0:0:0:0:
288,192,225868,1,0,0:0:0:0:
160,192,225868,1,0,0:0:0:0:
480,192,225868,1,0,0:0:0:0:
416,192,225868,1,0,0:0:0:0:
96,192,226102,1,0,0:0:0:0:
224,192,226102,1,0,0:0:0:0:
160,192,226219,1,0,0:0:0:0:
288,192,226219,1,0,0:0:0:0:
416,192,226219,1,0,0:0:0:0:
160,192,226336,1,0,0:0:0:0:
416,192,226336,1,0,0:0:0:0:
160,192,226571,1,0,0:0:0:0:
288,192,226571,1,0,0:0:0:0:
416,192,226571,1,0,0:0:0:0:
96,192,226571,1,0,0:0:0:0:
224,192,226571,1,0,0:0:0:0:
160,192,226805,1,0,0:0:0:0:
416,192,226805,1,0,0:0:0:0:
288,192,227040,1,0,0:0:0:0:
352,192,227040,1,0,0:0:0:0:
224,192,227040,1,0,0:0:0:0:
480,192,227040,1,0,0:0:0:0:
96,192,227040,1,0,0:0:0:0:
160,192,227274,1,0,0:0:0:0:
416,192,227274,1,0,0:0:0:0:
416,192,227391,1,0,0:0:0:0:
480,192,227391,1,0,0:0:0:0:
288,192,227391,1,0,0:0:0:0:
224,192,227508,1,0,0:0:0:0:
96,192,227508,1,0,0:0:0:0:
480,192,227743,1,0,0:0:0:0:
288,192,227743,1,0,0:0:0:0:
416,192,227743,1,0,0:0:0:0:
160,192,227743,1,0,0:0:0:0:
224,192,227977,1,0,0:0:0:0:
96,192,227977,1,0,0:0:0:0:
416,192,228094,1,0,0:0:0:0:
160,192,228094,1,0,0:0:0:0:
288,192,228094,1,0,0:0:0:0:
416,192,228211,1,0,0:0:0:0:
160,192,228211,1,0,0:0:0:0:
160,192,228446,1,0,0:0:0:0:
416,192,228446,1,0,0:0:0:0:
224,192,228446,1,0,0:0:0:0:
96,192,228446,1,0,0:0:0:0:
288,192,228446,1,0,0:0:0:0:
416,192,228563,1,0,0:0:0:0:
416,192,228680,1,0,0:0:0:0:
160,192,228680,1,0,0:0:0:0:
480,192,228915,1,0,0:0:0:0:
96,192,228915,1,0,0:0:0:0:
224,192,228915,1,0,0:0:0:0:
288,192,228915,1,0,0:0:0:0:
352,192,228915,1,0,0:0:0:0:
416,192,229149,1,0,0:0:0:0:
160,192,229149,1,0,0:0:0:0:
288,192,229266,1,0,0:0:0:0:
480,192,229266,1,0,0:0:0:0:
416,192,229266,1,0,0:0:0:0:
96,192,229383,1,0,0:0:0:0:
224,192,229383,1,0,0:0:0:0:
416,192,229618,1,0,0:0:0:0:
160,192,229618,1,0,0:0:0:0:
480,192,229618,1,0,0:0:0:0:
288,192,229618,1,0,0:0:0:0:
96,192,229852,1,0,0:0:0:0:
224,192,229852,1,0,0:0:0:0:
288,192,229969,1,0,0:0:0:0:
160,192,229969,1,0,0:0:0:0:
416,192,229969,1,0,0:0:0:0:
160,192,230086,1,0,0:0:0:0:
416,192,230086,1,0,0:0:0:0:
96,192,230321,1,0,0:0:0:0:
288,192,230321,1,0,0:0:0:0:
224,192,230321,1,0,0:0:0:0:
160,192,230321,1,0,0:0:0:0:
416,192,230321,1,0,0:0:0:0:
160,192,230555,1,0,0:0:0:0:
416,192,230555,1,0,0:0:0:0:
288,192,230790,1,0,0:0:0:0:
352,192,230790,1,0,0:0:0:0:
224,192,230790,1,0,0:0:0:0:
480,192,230790,1,0,0:0:0:0:
96,192,230790,1,0,0:0:0:0:
160,192,231024,1,0,0:0:0:0:
416,192,231024,1,0,0:0:0:0:
416,192,231141,1,0,0:0:0:0:
480,192,231141,1,0,0:0:0:0:
288,192,231141,1,0,0:0:0:0:
224,192,231258,1,0,0:0:0:0:
96,192,231258,1,0,0:0:0:0:
480,192,231493,1,0,0:0:0:0:
288,192,231493,1,0,0:0:0:0:
416,192,231493,1,0,0:0:0:0:
160,192,231493,1,0,0:0:0:0:
224,192,231727,1,0,0:0:0:0:
96,192,231727,1,0,0:0:0:0:
416,192,231844,1,0,0:0:0:0:
160,192,231844,1,0,0:0:0:0:
288,192,231844,1,0,0:0:0:0:
416,192,231961,1,0,0:0:0:0:
160,192,231961,1,0,0:0:0:0:
160,192,232196,1,0,0:0:0:0:
416,192,232196,1,0,0:0:0:0:
224,192,232196,1,0,0:0:0:0:
96,192,232196,1,0,0:0:0:0:
288,192,232196,1,0,0:0:0:0:
416,192,232313,1,0,0:0:0:0:
416,192,232430,1,0,0:0:0:0:
160,192,232430,1,0,0:0:0:0:
96,192,232665,1,0,0:0:0:0:
288,192,232665,1,0,0:0:0:0:
352,192,232665,1,0,0:0:0:0:
480,192,232665,1,0,0:0:0:0:
416,192,232899,1,0,0:0:0:0:
160,192,232899,1,0,0:0:0:0:
480,192,233016,1,0,0:0:0:0:
416,192,233016,1,0,0:0:0:0:
288,192,233016,1,0,0:0:0:0:
480,192,233368,1,0,0:0:0:0:
416,192,233368,1,0,0:0:0:0:
160,192,233368,1,0,0:0:0:0:
416,192,233719,1,0,0:0:0:0:
288,192,233719,1,0,0:0:0:0:
160,192,233719,1,0,0:0:0:0:
416,192,233836,1,0,0:0:0:0:
160,192,233836,1,0,0:0:0:0:
416,192,234071,1,0,0:0:0:0:
160,192,234071,1,0,0:0:0:0:
288,192,234071,1,0,0:0:0:0:
416,192,234305,1,0,0:0:0:0:
160,192,234305,1,0,0:0:0:0:
480,192,234540,1,0,0:0:0:0:
288,192,234540,1,0,0:0:0:0:
352,192,234540,1,0,0:0:0:0:
416,192,234774,1,0,0:0:0:0:
160,192,234774,1,0,0:0:0:0:
288,192,234891,1,0,0:0:0:0:
480,192,234891,1,0,0:0:0:0:
416,192,234891,1,0,0:0:0:0:
416,192,235243,1,0,0:0:0:0:
160,192,235243,1,0,0:0:0:0:
480,192,235243,1,0,0:0:0:0:
288,192,235594,1,0,0:0:0:0:
160,192,235594,1,0,0:0:0:0:
416,192,235594,1,0,0:0:0:0:
160,192,235711,1,0,0:0:0:0:
416,192,235711,1,0,0:0:0:0:
288,192,235946,1,0,0:0:0:0:
160,192,235946,1,0,0:0:0:0:
416,192,235946,1,0,0:0:0:0:
416,192,236063,1,0,0:0:0:0:
160,192,236180,1,0,0:0:0:0:
416,192,236180,1,0,0:0:0:0:
288,192,236415,1,0,0:0:0:0:
352,192,236415,1,0,0:0:0:0:
480,192,236415,1,0,0:0:0:0:
160,192,236649,1,0,0:0:0:0:
416,192,236649,1,0,0:0:0:0:
416,192,236766,1,0,0:0:0:0:
480,192,236766,1,0,0:0:0:0:
288,192,236766,1,0,0:0:0:0:
480,192,237118,1,0,0:0:0:0:
416,192,237118,1,0,0:0:0:0:
160,192,237118,1,0,0:0:0:0:
416,192,237469,1,0,0:0:0:0:
160,192,237469,1,0,0:0:0:0:
288,192,237469,1,0,0:0:0:0:
416,192,237586,1,0,0:0:0:0:
160,192,237586,1,0,0:0:0:0:
160,192,237821,1,0,0:0:0:0:
416,192,237821,1,0,0:0:0:0:
288,192,237821,1,0,0:0:0:0:
416,192,238055,1,0,0:0:0:0:
160,192,238055,1,0,0:0:0:0:
480,192,238290,1,0,0:0:0:0:
288,192,238290,1,0,0:0:0:0:
352,192,238290,1,0,0:0:0:0:
416,192,238524,1,0,0:0:0:0:
160,192,238524,1,0,0:0:0:0:
288,192,238641,1,0,0:0:0:0:
480,192,238641,1,0,0:0:0:0:
416,192,238641,1,0,0:0:0:0:
416,192,238993,5,0,0:0:0:0:
160,192,238993,1,0,0:0:0:0:
480,192,238993,1,0,0:0:0:0:
288,192,239344,1,0,0:0:0:0:
160,192,239344,1,0,0:0:0:0:
416,192,239344,1,0,0:0:0:0:
160,192,239461,1,0,0:0:0:0:
416,192,239461,1,0,0:0:0:0:
288,192,239696,1,0,0:0:0:0:
160,192,239696,1,0,0:0:0:0:
416,192,239696,1,0,0:0:0:0:
416,192,239813,1,0,0:0:0:0:
160,192,239930,1,0,0:0:0:0:
416,192,239930,1,0,0:0:0:0:
32,192,240165,5,0,0:0:0:0:
96,192,240165,1,0,0:0:0:0:
224,192,240165,1,0,0:0:0:0:
288,192,240165,1,0,0:0:0:0:
416,192,240165,1,0,0:0:0:0:
288,192,240399,1,0,0:0:0:0:
160,192,240399,1,0,0:0:0:0:
352,192,240516,1,0,0:0:0:0:
480,192,240633,1,0,0:0:0:0:
96,192,240633,1,0,0:0:0:0:
224,192,240633,1,0,0:0:0:0:
352,192,240633,1,0,0:0:0:0:
288,192,240750,1,0,0:0:0:0:
416,192,240750,1,0,0:0:0:0:
224,192,240868,1,0,0:0:0:0:
352,192,240868,1,0,0:0:0:0:
96,192,241102,1,0,0:0:0:0:
224,192,241102,1,0,0:0:0:0:
288,192,241219,1,0,0:0:0:0:
416,192,241219,1,0,0:0:0:0:
288,192,241336,1,0,0:0:0:0:
416,192,241336,1,0,0:0:0:0:
288,192,241454,1,0,0:0:0:0:
416,192,241454,1,0,0:0:0:0:
96,192,241571,1,0,0:0:0:0:
224,192,241571,1,0,0:0:0:0:
288,192,241571,1,0,0:0:0:0:
416,192,241571,1,0,0:0:0:0:
160,192,241776,1,0,0:0:0:0:
416,192,241805,1,0,0:0:0:0:
288,192,241805,1,0,0:0:0:0:
32,192,241805,1,0,0:0:0:0:
32,192,242040,1,0,0:0:0:0:
96,192,242040,1,0,0:0:0:0:
224,192,242040,1,0,0:0:0:0:
288,192,242040,1,0,0:0:0:0:
416,192,242040,1,0,0:0:0:0:
288,192,242274,1,0,0:0:0:0:
160,192,242274,1,0,0:0:0:0:
352,192,242391,1,0,0:0:0:0:
480,192,242508,1,0,0:0:0:0:
96,192,242508,1,0,0:0:0:0:
224,192,242508,1,0,0:0:0:0:
352,192,242508,1,0,0:0:0:0:
288,192,242625,1,0,0:0:0:0:
416,192,242625,1,0,0:0:0:0:
224,192,242743,1,0,0:0:0:0:
352,192,242743,1,0,0:0:0:0:
96,192,242977,1,0,0:0:0:0:
224,192,242977,1,0,0:0:0:0:
288,192,243094,1,0,0:0:0:0:
416,192,243094,1,0,0:0:0:0:
288,192,243211,1,0,0:0:0:0:
416,192,243211,1,0,0:0:0:0:
288,192,243329,1,0,0:0:0:0:
416,192,243329,1,0,0:0:0:0:
96,192,243446,1,0,0:0:0:0:
224,192,243446,1,0,0:0:0:0:
288,192,243446,1,0,0:0:0:0:
416,192,243446,1,0,0:0:0:0:
160,192,243651,1,0,0:0:0:0:
416,192,243680,1,0,0:0:0:0:
288,192,243680,1,0,0:0:0:0:
32,192,243680,1,0,0:0:0:0:
288,192,243915,1,0,0:0:0:0:
416,192,243915,1,0,0:0:0:0:
224,192,243915,1,0,0:0:0:0:
32,192,243915,1,0,0:0:0:0:
96,192,243915,1,0,0:0:0:0:
160,192,244149,1,0,0:0:0:0:
288,192,244149,1,0,0:0:0:0:
352,192,244266,1,0,0:0:0:0:
224,192,244383,1,0,0:0:0:0:
352,192,244383,1,0,0:0:0:0:
480,192,244383,1,0,0:0:0:0:
96,192,244383,1,0,0:0:0:0:
416,192,244500,1,0,0:0:0:0:
288,192,244500,1,0,0:0:0:0:
352,192,244618,1,0,0:0:0:0:
224,192,244618,1,0,0:0:0:0:
224,192,244852,1,0,0:0:0:0:
96,192,244852,1,0,0:0:0:0:
416,192,244969,1,0,0:0:0:0:
288,192,244969,1,0,0:0:0:0:
416,192,245086,1,0,0:0:0:0:
288,192,245086,1,0,0:0:0:0:
416,192,245204,1,0,0:0:0:0:
288,192,245204,1,0,0:0:0:0:
288,192,245321,1,0,0:0:0:0:
416,192,245321,1,0,0:0:0:0:
96,192,245321,1,0,0:0:0:0:
224,192,245321,1,0,0:0:0:0:
160,192,245526,1,0,0:0:0:0:
32,192,245555,1,0,0:0:0:0:
288,192,245555,1,0,0:0:0:0:
416,192,245555,1,0,0:0:0:0:
288,192,245790,1,0,0:0:0:0:
352,192,245790,1,0,0:0:0:0:
480,192,245790,1,0,0:0:0:0:
96,192,245790,1,0,0:0:0:0:
224,192,245790,1,0,0:0:0:0:
352,192,246024,1,0,0:0:0:0:
480,192,246141,1,0,0:0:0:0:
416,192,246141,1,0,0:0:0:0:
288,192,246141,1,0,0:0:0:0:
224,192,246258,1,0,0:0:0:0:
96,192,246258,1,0,0:0:0:0:
160,192,246493,1,0,0:0:0:0:
480,192,246493,1,0,0:0:0:0:
416,192,246493,1,0,0:0:0:0:
96,192,246727,1,0,0:0:0:0:
224,192,246727,1,0,0:0:0:0:
288,192,246844,1,0,0:0:0:0:
160,192,246844,1,0,0:0:0:0:
416,192,246844,1,0,0:0:0:0:
352,192,246961,1,0,0:0:0:0:
416,192,247196,1,0,0:0:0:0:
288,192,247196,1,0,0:0:0:0:
160,192,247196,1,0,0:0:0:0:
224,192,247196,1,0,0:0:0:0:
96,192,247196,1,0,0:0:0:0:
32,192,247430,1,0,0:0:0:0:
352,192,247430,1,0,0:0:0:0:
32,192,247665,1,0,0:0:0:0:
96,192,247665,1,0,0:0:0:0:
224,192,247665,1,0,0:0:0:0:
288,192,247665,1,0,0:0:0:0:
416,192,247665,1,0,0:0:0:0:
288,192,247899,1,0,0:0:0:0:
160,192,247899,1,0,0:0:0:0:
352,192,248016,1,0,0:0:0:0:
480,192,248133,1,0,0:0:0:0:
96,192,248133,1,0,0:0:0:0:
224,192,248133,1,0,0:0:0:0:
352,192,248133,1,0,0:0:0:0:
288,192,248250,1,0,0:0:0:0:
416,192,248250,1,0,0:0:0:0:
224,192,248368,1,0,0:0:0:0:
352,192,248368,1,0,0:0:0:0:
96,192,248602,1,0,0:0:0:0:
224,192,248602,1,0,0:0:0:0:
288,192,248719,1,0,0:0:0:0:
416,192,248719,1,0,0:0:0:0:
288,192,248836,1,0,0:0:0:0:
416,192,248836,1,0,0:0:0:0:
288,192,248954,1,0,0:0:0:0:
416,192,248954,1,0,0:0:0:0:
96,192,249071,1,0,0:0:0:0:
224,192,249071,1,0,0:0:0:0:
288,192,249071,1,0,0:0:0:0:
416,192,249071,1,0,0:0:0:0:
160,192,249276,1,0,0:0:0:0:
416,192,249305,1,0,0:0:0:0:
288,192,249305,1,0,0:0:0:0:
32,192,249305,1,0,0:0:0:0:
32,192,249540,1,0,0:0:0:0:
96,192,249540,1,0,0:0:0:0:
224,192,249540,1,0,0:0:0:0:
288,192,249540,1,0,0:0:0:0:
416,192,249540,1,0,0:0:0:0:
288,192,249774,1,0,0:0:0:0:
160,192,249774,1,0,0:0:0:0:
352,192,249891,1,0,0:0:0:0:
480,192,250008,1,0,0:0:0:0:
96,192,250008,1,0,0:0:0:0:
224,192,250008,1,0,0:0:0:0:
352,192,250008,1,0,0:0:0:0:
288,192,250125,1,0,0:0:0:0:
416,192,250125,1,0,0:0:0:0:
224,192,250243,1,0,0:0:0:0:
352,192,250243,1,0,0:0:0:0:
96,192,250477,1,0,0:0:0:0:
224,192,250477,1,0,0:0:0:0:
288,192,250594,1,0,0:0:0:0:
416,192,250594,1,0,0:0:0:0:
288,192,250711,1,0,0:0:0:0:
416,192,250711,1,0,0:0:0:0:
288,192,250829,1,0,0:0:0:0:
416,192,250829,1,0,0:0:0:0:
96,192,250946,1,0,0:0:0:0:
224,192,250946,1,0,0:0:0:0:
288,192,250946,1,0,0:0:0:0:
416,192,250946,1,0,0:0:0:0:
160,192,251151,1,0,0:0:0:0:
416,192,251180,1,0,0:0:0:0:
288,192,251180,1,0,0:0:0:0:
32,192,251180,1,0,0:0:0:0:
288,192,251415,1,0,0:0:0:0:
416,192,251415,1,0,0:0:0:0:
224,192,251415,1,0,0:0:0:0:
32,192,251415,1,0,0:0:0:0:
96,192,251415,1,0,0:0:0:0:
160,192,251649,1,0,0:0:0:0:
288,192,251649,1,0,0:0:0:0:
352,192,251766,1,0,0:0:0:0:
224,192,251883,1,0,0:0:0:0:
352,192,251883,1,0,0:0:0:0:
480,192,251883,1,0,0:0:0:0:
96,192,251883,1,0,0:0:0:0:
416,192,252000,1,0,0:0:0:0:
288,192,252000,1,0,0:0:0:0:
352,192,252118,1,0,0:0:0:0:
224,192,252118,1,0,0:0:0:0:
224,192,252352,1,0,0:0:0:0:
96,192,252352,1,0,0:0:0:0:
416,192,252469,1,0,0:0:0:0:
288,192,252469,1,0,0:0:0:0:
416,192,252586,1,0,0:0:0:0:
288,192,252586,1,0,0:0:0:0:
416,192,252704,1,0,0:0:0:0:
288,192,252704,1,0,0:0:0:0:
288,192,252821,1,0,0:0:0:0:
416,192,252821,1,0,0:0:0:0:
96,192,252821,1,0,0:0:0:0:
224,192,252821,1,0,0:0:0:0:
160,192,253026,1,0,0:0:0:0:
32,192,253055,1,0,0:0:0:0:
288,192,253055,1,0,0:0:0:0:
416,192,253055,1,0,0:0:0:0:
288,192,253290,1,0,0:0:0:0:
352,192,253290,1,0,0:0:0:0:
480,192,253290,1,0,0:0:0:0:
96,192,253290,1,0,0:0:0:0:
224,192,253290,1,0,0:0:0:0:
352,192,253524,1,0,0:0:0:0:
480,192,253641,1,0,0:0:0:0:
416,192,253641,1,0,0:0:0:0:
288,192,253641,1,0,0:0:0:0:
224,192,253758,1,0,0:0:0:0:
96,192,253758,1,0,0:0:0:0:
160,192,253993,1,0,0:0:0:0:
480,192,253993,1,0,0:0:0:0:
416,192,253993,1,0,0:0:0:0:
96,192,254227,1,0,0:0:0:0:
224,192,254227,1,0,0:0:0:0:
288,192,254344,1,0,0:0:0:0:
160,192,254344,1,0,0:0:0:0:
416,192,254344,1,0,0:0:0:0:
352,192,254461,1,0,0:0:0:0:
416,192,254696,1,0,0:0:0:0:
288,192,254696,1,0,0:0:0:0:
160,192,254696,1,0,0:0:0:0:
224,192,254696,1,0,0:0:0:0:
96,192,254696,1,0,0:0:0:0:
32,192,254696,1,0,0:0:0:0:
32,192,254813,1,0,0:0:0:0:
32,192,254930,1,0,0:0:0:0:
352,192,254930,1,0,0:0:0:0:
32,192,255047,1,0,0:0:0:0:
32,192,255165,1,0,0:0:0:0:
96,192,255165,1,0,0:0:0:0:
224,192,255165,1,0,0:0:0:0:
288,192,255165,1,0,0:0:0:0:
416,192,255165,1,0,0:0:0:0:
288,192,255399,1,0,0:0:0:0:
160,192,255399,1,0,0:0:0:0:
32,192,255399,1,0,0:0:0:0:
352,192,255516,1,0,0:0:0:0:
480,192,255633,1,0,0:0:0:0:
96,192,255633,1,0,0:0:0:0:
224,192,255633,1,0,0:0:0:0:
352,192,255633,1,0,0:0:0:0:
288,192,255750,1,0,0:0:0:0:
416,192,255750,1,0,0:0:0:0:
32,192,255750,1,0,0:0:0:0:
224,192,255868,1,0,0:0:0:0:
352,192,255868,1,0,0:0:0:0:
96,192,256102,1,0,0:0:0:0:
224,192,256102,1,0,0:0:0:0:
32,192,256102,1,0,0:0:0:0:
288,192,256219,1,0,0:0:0:0:
416,192,256219,1,0,0:0:0:0:
288,192,256336,1,0,0:0:0:0:
416,192,256336,1,0,0:0:0:0:
32,192,256336,1,0,0:0:0:0:
288,192,256454,1,0,0:0:0:0:
416,192,256454,1,0,0:0:0:0:
96,192,256571,1,0,0:0:0:0:
224,192,256571,1,0,0:0:0:0:
288,192,256571,1,0,0:0:0:0:
416,192,256571,1,0,0:0:0:0:
32,192,256688,1,0,0:0:0:0:
160,192,256776,1,0,0:0:0:0:
416,192,256805,1,0,0:0:0:0:
288,192,256805,1,0,0:0:0:0:
32,192,256805,1,0,0:0:0:0:
32,192,257040,1,0,0:0:0:0:
96,192,257040,1,0,0:0:0:0:
224,192,257040,1,0,0:0:0:0:
288,192,257040,1,0,0:0:0:0:
416,192,257040,1,0,0:0:0:0:
288,192,257274,1,0,0:0:0:0:
160,192,257274,1,0,0:0:0:0:
32,192,257274,1,0,0:0:0:0:
352,192,257391,1,0,0:0:0:0:
32,192,257391,1,0,0:0:0:0:
480,192,257508,1,0,0:0:0:0:
96,192,257508,1,0,0:0:0:0:
224,192,257508,1,0,0:0:0:0:
352,192,257508,1,0,0:0:0:0:
288,192,257625,1,0,0:0:0:0:
416,192,257625,1,0,0:0:0:0:
32,192,257625,1,0,0:0:0:0:
224,192,257743,1,0,0:0:0:0:
352,192,257743,1,0,0:0:0:0:
96,192,257977,1,0,0:0:0:0:
224,192,257977,1,0,0:0:0:0:
32,192,257977,1,0,0:0:0:0:
288,192,258094,1,0,0:0:0:0:
416,192,258094,1,0,0:0:0:0:
32,192,258094,1,0,0:0:0:0:
288,192,258211,1,0,0:0:0:0:
416,192,258211,1,0,0:0:0:0:
32,192,258211,1,0,0:0:0:0:
288,192,258329,1,0,0:0:0:0:
416,192,258329,1,0,0:0:0:0:
32,192,258329,1,0,0:0:0:0:
96,192,258446,1,0,0:0:0:0:
224,192,258446,1,0,0:0:0:0:
288,192,258446,1,0,0:0:0:0:
416,192,258446,1,0,0:0:0:0:
32,192,258446,1,0,0:0:0:0:
32,192,258592,1,0,0:0:0:0:
160,192,258651,1,0,0:0:0:0:
416,192,258680,1,0,0:0:0:0:
288,192,258680,1,0,0:0:0:0:
288,192,258915,1,0,0:0:0:0:
416,192,258915,1,0,0:0:0:0:
224,192,258915,1,0,0:0:0:0:
32,192,258915,1,0,0:0:0:0:
96,192,258915,1,0,0:0:0:0:
160,192,259149,1,0,0:0:0:0:
288,192,259149,1,0,0:0:0:0:
32,192,259149,1,0,0:0:0:0:
352,192,259266,1,0,0:0:0:0:
224,192,259383,1,0,0:0:0:0:
352,192,259383,1,0,0:0:0:0:
480,192,259383,1,0,0:0:0:0:
96,192,259383,1,0,0:0:0:0:
416,192,259500,1,0,0:0:0:0:
288,192,259500,1,0,0:0:0:0:
32,192,259500,1,0,0:0:0:0:
352,192,259618,1,0,0:0:0:0:
224,192,259618,1,0,0:0:0:0:
224,192,259852,1,0,0:0:0:0:
96,192,259852,1,0,0:0:0:0:
32,192,259852,1,0,0:0:0:0:
416,192,259969,1,0,0:0:0:0:
288,192,259969,1,0,0:0:0:0:
416,192,260086,1,0,0:0:0:0:
288,192,260086,1,0,0:0:0:0:
32,192,260086,1,0,0:0:0:0:
416,192,260204,1,0,0:0:0:0:
288,192,260204,1,0,0:0:0:0:
288,192,260321,1,0,0:0:0:0:
416,192,260321,1,0,0:0:0:0:
96,192,260321,1,0,0:0:0:0:
224,192,260321,1,0,0:0:0:0:
32,192,260438,1,0,0:0:0:0:
160,192,260526,1,0,0:0:0:0:
32,192,260555,1,0,0:0:0:0:
288,192,260555,1,0,0:0:0:0:
416,192,260555,1,0,0:0:0:0:
96,192,260790,1,0,0:0:0:0:
224,192,260790,1,0,0:0:0:0:
480,192,260790,1,0,0:0:0:0:
288,192,260790,1,0,0:0:0:0:
352,192,260790,1,0,0:0:0:0:
352,192,261024,1,0,0:0:0:0:
288,192,261141,1,0,0:0:0:0:
416,192,261141,1,0,0:0:0:0:
480,192,261141,1,0,0:0:0:0:
96,192,261258,1,0,0:0:0:0:
224,192,261258,1,0,0:0:0:0:
416,192,261493,1,0,0:0:0:0:
480,192,261493,1,0,0:0:0:0:
160,192,261493,1,0,0:0:0:0:
224,192,261727,1,0,0:0:0:0:
96,192,261727,1,0,0:0:0:0:
416,192,261844,1,0,0:0:0:0:
160,192,261844,1,0,0:0:0:0:
288,192,261844,1,0,0:0:0:0:
352,192,261961,1,0,0:0:0:0:
224,192,262196,1,0,0:0:0:0:
96,192,262196,1,0,0:0:0:0:
160,192,262196,1,0,0:0:0:0:
416,192,262196,1,0,0:0:0:0:
288,192,262196,1,0,0:0:0:0:
352,192,262430,1,0,0:0:0:0:
32,192,262430,1,0,0:0:0:0:
32,192,262665,1,0,0:0:0:0:
96,192,262665,1,0,0:0:0:0:
224,192,262665,1,0,0:0:0:0:
288,192,262665,1,0,0:0:0:0:
416,192,262665,1,0,0:0:0:0:
288,192,262899,1,0,0:0:0:0:
160,192,262899,1,0,0:0:0:0:
32,192,262899,1,0,0:0:0:0:
352,192,263016,1,0,0:0:0:0:
480,192,263133,1,0,0:0:0:0:
96,192,263133,1,0,0:0:0:0:
224,192,263133,1,0,0:0:0:0:
352,192,263133,1,0,0:0:0:0:
288,192,263250,1,0,0:0:0:0:
416,192,263250,1,0,0:0:0:0:
32,192,263250,1,0,0:0:0:0:
224,192,263368,1,0,0:0:0:0:
352,192,263368,1,0,0:0:0:0:
96,192,263602,1,0,0:0:0:0:
224,192,263602,1,0,0:0:0:0:
32,192,263602,1,0,0:0:0:0:
288,192,263719,1,0,0:0:0:0:
416,192,263719,1,0,0:0:0:0:
288,192,263836,1,0,0:0:0:0:
416,192,263836,1,0,0:0:0:0:
32,192,263836,1,0,0:0:0:0:
288,192,263954,1,0,0:0:0:0:
416,192,263954,1,0,0:0:0:0:
96,192,264071,1,0,0:0:0:0:
224,192,264071,1,0,0:0:0:0:
288,192,264071,1,0,0:0:0:0:
416,192,264071,1,0,0:0:0:0:
32,192,264188,1,0,0:0:0:0:
160,192,264276,1,0,0:0:0:0:
416,192,264305,1,0,0:0:0:0:
288,192,264305,1,0,0:0:0:0:
32,192,264305,1,0,0:0:0:0:
32,192,264540,1,0,0:0:0:0:
96,192,264540,1,0,0:0:0:0:
224,192,264540,1,0,0:0:0:0:
288,192,264540,1,0,0:0:0:0:
416,192,264540,1,0,0:0:0:0:
288,192,264774,1,0,0:0:0:0:
160,192,264774,1,0,0:0:0:0:
32,192,264774,1,0,0:0:0:0:
352,192,264891,1,0,0:0:0:0:
32,192,264891,1,0,0:0:0:0:
480,192,265008,1,0,0:0:0:0:
96,192,265008,1,0,0:0:0:0:
224,192,265008,1,0,0:0:0:0:
352,192,265008,1,0,0:0:0:0:
288,192,265125,1,0,0:0:0:0:
416,192,265125,1,0,0:0:0:0:
32,192,265125,1,0,0:0:0:0:
224,192,265243,1,0,0:0:0:0:
352,192,265243,1,0,0:0:0:0:
96,192,265477,1,0,0:0:0:0:
224,192,265477,1,0,0:0:0:0:
32,192,265477,1,0,0:0:0:0:
288,192,265594,1,0,0:0:0:0:
416,192,265594,1,0,0:0:0:0:
32,192,265594,1,0,0:0:0:0:
288,192,265711,1,0,0:0:0:0:
416,192,265711,1,0,0:0:0:0:
32,192,265711,1,0,0:0:0:0:
288,192,265829,1,0,0:0:0:0:
416,192,265829,1,0,0:0:0:0:
32,192,265829,1,0,0:0:0:0:
96,192,265946,1,0,0:0:0:0:
224,192,265946,1,0,0:0:0:0:
288,192,265946,1,0,0:0:0:0:
416,192,265946,1,0,0:0:0:0:
32,192,265946,1,0,0:0:0:0:
32,192,266092,1,0,0:0:0:0:
160,192,266151,1,0,0:0:0:0:
416,192,266180,1,0,0:0:0:0:
288,192,266180,1,0,0:0:0:0:
32,192,266415,1,0,0:0:0:0:
96,192,266415,1,0,0:0:0:0:
224,192,266415,1,0,0:0:0:0:
288,192,266415,1,0,0:0:0:0:
416,192,266415,1,0,0:0:0:0:
288,192,266649,1,0,0:0:0:0:
160,192,266649,1,0,0:0:0:0:
32,192,266649,1,0,0:0:0:0:
352,192,266766,1,0,0:0:0:0:
480,192,266883,1,0,0:0:0:0:
96,192,266883,1,0,0:0:0:0:
224,192,266883,1,0,0:0:0:0:
352,192,266883,1,0,0:0:0:0:
288,192,267000,1,0,0:0:0:0:
416,192,267000,1,0,0:0:0:0:
32,192,267000,1,0,0:0:0:0:
224,192,267118,1,0,0:0:0:0:
352,192,267118,1,0,0:0:0:0:
96,192,267352,1,0,0:0:0:0:
224,192,267352,1,0,0:0:0:0:
32,192,267352,1,0,0:0:0:0:
288,192,267469,1,0,0:0:0:0:
416,192,267469,1,0,0:0:0:0:
288,192,267586,1,0,0:0:0:0:
416,192,267586,1,0,0:0:0:0:
32,192,267586,1,0,0:0:0:0:
288,192,267704,1,0,0:0:0:0:
416,192,267704,1,0,0:0:0:0:
96,192,267821,1,0,0:0:0:0:
224,192,267821,1,0,0:0:0:0:
288,192,267821,1,0,0:0:0:0:
416,192,267821,1,0,0:0:0:0:
32,192,267938,1,0,0:0:0:0:
160,192,268026,1,0,0:0:0:0:
416,192,268055,1,0,0:0:0:0:
288,192,268055,1,0,0:0:0:0:
32,192,268055,1,0,0:0:0:0:
32,192,268290,1,0,0:0:0:0:
96,192,268290,1,0,0:0:0:0:
224,192,268290,1,0,0:0:0:0:
288,192,268290,1,0,0:0:0:0:
480,192,268290,1,0,0:0:0:0:
352,192,268290,1,0,0:0:0:0:
288,192,268524,1,0,0:0:0:0:
160,192,268524,1,0,0:0:0:0:
32,192,268524,1,0,0:0:0:0:
32,192,268641,1,0,0:0:0:0:
480,192,268641,1,0,0:0:0:0:
416,192,268641,1,0,0:0:0:0:
288,192,268641,1,0,0:0:0:0:
480,192,268758,1,0,0:0:0:0:
96,192,268758,1,0,0:0:0:0:
224,192,268758,1,0,0:0:0:0:
352,192,268758,1,0,0:0:0:0:
416,192,268875,1,0,0:0:0:0:
32,192,268875,1,0,0:0:0:0:
288,192,268875,1,0,0:0:0:0:
224,192,268993,1,0,0:0:0:0:
352,192,268993,1,0,0:0:0:0:
416,192,268993,1,0,0:0:0:0:
480,192,268993,1,0,0:0:0:0:
160,192,268993,1,0,0:0:0:0:
96,192,269227,1,0,0:0:0:0:
224,192,269227,1,0,0:0:0:0:
32,192,269227,1,0,0:0:0:0:
416,192,269227,1,0,0:0:0:0:
288,192,269344,1,0,0:0:0:0:
416,192,269344,1,0,0:0:0:0:
32,192,269344,1,0,0:0:0:0:
160,192,269344,1,0,0:0:0:0:
288,192,269461,1,0,0:0:0:0:
416,192,269461,1,0,0:0:0:0:
32,192,269461,1,0,0:0:0:0:
288,192,269579,1,0,0:0:0:0:
416,192,269579,1,0,0:0:0:0:
32,192,269579,1,0,0:0:0:0:
96,192,269696,1,0,0:0:0:0:
224,192,269696,1,0,0:0:0:0:
288,192,269696,1,0,0:0:0:0:
416,192,269696,1,0,0:0:0:0:
32,192,269696,1,0,0:0:0:0:
160,192,269696,1,0,0:0:0:0:
32,192,269842,1,0,0:0:0:0:
160,192,269901,1,0,0:0:0:0:
416,192,269930,1,0,0:0:0:0:
288,192,269930,1,0,0:0:0:0:
224,192,270165,5,0,0:0:0:0:
352,192,270165,1,0,0:0:0:0:
96,192,270165,1,0,0:0:0:0:
416,192,270282,1,0,0:0:0:0:
288,192,270399,1,0,0:0:0:0:
480,192,270516,1,0,0:0:0:0:
224,192,270633,1,0,0:0:0:0:
352,192,270633,1,0,0:0:0:0:
96,192,270633,1,0,0:0:0:0:
288,192,270868,1,0,0:0:0:0:
416,192,270985,1,0,0:0:0:0:
352,192,271014,1,0,0:0:0:0:
160,192,271102,1,0,0:0:0:0:
96,192,271102,1,0,0:0:0:0:
224,192,271219,1,0,0:0:0:0:
416,192,271278,1,0,0:0:0:0:
224,192,271336,1,0,0:0:0:0:
288,192,271336,1,0,0:0:0:0:
224,192,271454,1,0,0:0:0:0:
416,192,271512,1,0,0:0:0:0:
480,192,271541,1,0,0:0:0:0:
224,192,271571,1,0,0:0:0:0:
352,192,271571,1,0,0:0:0:0:
96,192,271571,1,0,0:0:0:0:
288,192,271805,1,0,0:0:0:0:
160,192,271805,1,0,0:0:0:0:
416,192,272040,1,0,0:0:0:0:
32,192,272040,1,0,0:0:0:0:
96,192,272040,1,0,0:0:0:0:
160,192,272157,1,0,0:0:0:0:
416,192,272157,1,0,0:0:0:0:
224,192,272245,1,0,0:0:0:0:
288,192,272274,1,0,0:0:0:0:
32,192,272274,1,0,0:0:0:0:
416,192,272450,1,0,0:0:0:0:
480,192,272479,1,0,0:0:0:0:
352,192,272508,1,0,0:0:0:0:
96,192,272508,1,0,0:0:0:0:
32,192,272625,1,0,0:0:0:0:
224,192,272713,1,0,0:0:0:0:
288,192,272743,1,0,0:0:0:0:
32,192,272860,1,0,0:0:0:0:
416,192,272948,1,0,0:0:0:0:
96,192,272977,1,0,0:0:0:0:
32,192,273094,1,0,0:0:0:0:
416,192,273094,1,0,0:0:0:0:
224,192,273182,1,0,0:0:0:0:
288,192,273211,1,0,0:0:0:0:
32,192,273329,1,0,0:0:0:0:
416,192,273387,1,0,0:0:0:0:
480,192,273416,1,0,0:0:0:0:
352,192,273446,1,0,0:0:0:0:
32,192,273446,1,0,0:0:0:0:
96,192,273446,1,0,0:0:0:0:
224,192,273651,1,0,0:0:0:0:
288,192,273680,1,0,0:0:0:0:
32,192,273680,1,0,0:0:0:0:
480,192,273827,1,0,0:0:0:0:
224,192,273915,1,0,0:0:0:0:
352,192,273915,1,0,0:0:0:0:
96,192,273915,1,0,0:0:0:0:
416,192,274032,1,0,0:0:0:0:
288,192,274149,1,0,0:0:0:0:
480,192,274266,1,0,0:0:0:0:
224,192,274383,1,0,0:0:0:0:
352,192,274383,1,0,0:0:0:0:
96,192,274383,1,0,0:0:0:0:
416,192,274500,1,0,0:0:0:0:
288,192,274618,1,0,0:0:0:0:
416,192,274735,1,0,0:0:0:0:
352,192,274764,1,0,0:0:0:0:
160,192,274852,1,0,0:0:0:0:
96,192,274852,1,0,0:0:0:0:
224,192,274969,1,0,0:0:0:0:
416,192,275028,1,0,0:0:0:0:
224,192,275086,1,0,0:0:0:0:
288,192,275086,1,0,0:0:0:0:
224,192,275204,1,0,0:0:0:0:
416,192,275262,1,0,0:0:0:0:
480,192,275291,1,0,0:0:0:0:
224,192,275321,1,0,0:0:0:0:
352,192,275321,1,0,0:0:0:0:
96,192,275321,1,0,0:0:0:0:
288,192,275555,1,0,0:0:0:0:
160,192,275555,1,0,0:0:0:0:
416,192,275790,1,0,0:0:0:0:
32,192,275790,1,0,0:0:0:0:
96,192,275790,1,0,0:0:0:0:
160,192,275907,1,0,0:0:0:0:
224,192,275995,1,0,0:0:0:0:
288,192,276024,1,0,0:0:0:0:
32,192,276024,1,0,0:0:0:0:
416,192,276200,1,0,0:0:0:0:
480,192,276229,1,0,0:0:0:0:
352,192,276258,1,0,0:0:0:0:
96,192,276258,1,0,0:0:0:0:
32,192,276375,1,0,0:0:0:0:
224,192,276463,1,0,0:0:0:0:
288,192,276493,1,0,0:0:0:0:
32,192,276610,1,0,0:0:0:0:
416,192,276698,1,0,0:0:0:0:
96,192,276727,1,0,0:0:0:0:
32,192,276756,1,0,0:0:0:0:
224,192,276932,1,0,0:0:0:0:
288,192,276961,1,0,0:0:0:0:
32,192,276961,1,0,0:0:0:0:
32,192,277108,1,0,0:0:0:0:
416,192,277137,1,0,0:0:0:0:
480,192,277166,1,0,0:0:0:0:
352,192,277196,1,0,0:0:0:0:
96,192,277196,1,0,0:0:0:0:
32,192,277225,1,0,0:0:0:0:
32,192,277342,1,0,0:0:0:0:
224,192,277401,1,0,0:0:0:0:
288,192,277430,1,0,0:0:0:0:
32,192,277459,1,0,0:0:0:0:
480,192,277577,1,0,0:0:0:0:
32,192,277577,1,0,0:0:0:0:
224,192,277665,5,0,0:0:0:0:
352,192,277665,1,0,0:0:0:0:
96,192,277665,1,0,0:0:0:0:
416,192,277782,1,0,0:0:0:0:
288,192,277899,1,0,0:0:0:0:
480,192,278016,1,0,0:0:0:0:
224,192,278133,1,0,0:0:0:0:
352,192,278133,1,0,0:0:0:0:
96,192,278133,1,0,0:0:0:0:
288,192,278368,1,0,0:0:0:0:
416,192,278485,1,0,0:0:0:0:
352,192,278514,1,0,0:0:0:0:
160,192,278602,1,0,0:0:0:0:
96,192,278602,1,0,0:0:0:0:
224,192,278719,1,0,0:0:0:0:
416,192,278778,1,0,0:0:0:0:
224,192,278836,1,0,0:0:0:0:
288,192,278836,1,0,0:0:0:0:
224,192,278954,1,0,0:0:0:0:
416,192,279012,1,0,0:0:0:0:
480,192,279041,1,0,0:0:0:0:
224,192,279071,1,0,0:0:0:0:
352,192,279071,1,0,0:0:0:0:
96,192,279071,1,0,0:0:0:0:
288,192,279305,1,0,0:0:0:0:
160,192,279305,1,0,0:0:0:0:
416,192,279540,1,0,0:0:0:0:
32,192,279540,1,0,0:0:0:0:
96,192,279540,1,0,0:0:0:0:
160,192,279657,1,0,0:0:0:0:
416,192,279657,1,0,0:0:0:0:
224,192,279745,1,0,0:0:0:0:
288,192,279774,1,0,0:0:0:0:
32,192,279774,1,0,0:0:0:0:
416,192,279950,1,0,0:0:0:0:
480,192,279979,1,0,0:0:0:0:
352,192,280008,1,0,0:0:0:0:
96,192,280008,1,0,0:0:0:0:
32,192,280125,1,0,0:0:0:0:
224,192,280213,1,0,0:0:0:0:
288,192,280243,1,0,0:0:0:0:
32,192,280360,1,0,0:0:0:0:
416,192,280448,1,0,0:0:0:0:
96,192,280477,1,0,0:0:0:0:
32,192,280594,1,0,0:0:0:0:
416,192,280594,1,0,0:0:0:0:
224,192,280682,1,0,0:0:0:0:
288,192,280711,1,0,0:0:0:0:
32,192,280829,1,0,0:0:0:0:
416,192,280887,1,0,0:0:0:0:
480,192,280916,1,0,0:0:0:0:
352,192,280946,1,0,0:0:0:0:
32,192,280946,1,0,0:0:0:0:
96,192,280946,1,0,0:0:0:0:
224,192,281151,1,0,0:0:0:0:
288,192,281180,1,0,0:0:0:0:
32,192,281180,1,0,0:0:0:0:
480,192,281327,1,0,0:0:0:0:
224,192,281415,1,0,0:0:0:0:
352,192,281415,1,0,0:0:0:0:
96,192,281415,1,0,0:0:0:0:
416,192,281532,1,0,0:0:0:0:
288,192,281649,1,0,0:0:0:0:
480,192,281766,1,0,0:0:0:0:
224,192,281883,1,0,0:0:0:0:
352,192,281883,1,0,0:0:0:0:
96,192,281883,1,0,0:0:0:0:
416,192,282000,1,0,0:0:0:0:
288,192,282118,1,0,0:0:0:0:
416,192,282235,1,0,0:0:0:0:
352,192,282264,1,0,0:0:0:0:
160,192,282352,1,0,0:0:0:0:
96,192,282352,1,0,0:0:0:0:
224,192,282469,1,0,0:0:0:0:
416,192,282528,1,0,0:0:0:0:
224,192,282586,1,0,0:0:0:0:
288,192,282586,1,0,0:0:0:0:
224,192,282704,1,0,0:0:0:0:
416,192,282762,1,0,0:0:0:0:
480,192,282791,1,0,0:0:0:0:
224,192,282821,1,0,0:0:0:0:
352,192,282821,1,0,0:0:0:0:
96,192,282821,1,0,0:0:0:0:
288,192,283055,1,0,0:0:0:0:
160,192,283055,1,0,0:0:0:0:
416,192,283290,1,0,0:0:0:0:
32,192,283290,1,0,0:0:0:0:
96,192,283290,1,0,0:0:0:0:
160,192,283407,1,0,0:0:0:0:
224,192,283495,1,0,0:0:0:0:
288,192,283524,1,0,0:0:0:0:
32,192,283524,1,0,0:0:0:0:
416,192,283700,1,0,0:0:0:0:
480,192,283729,1,0,0:0:0:0:
352,192,283758,1,0,0:0:0:0:
96,192,283758,1,0,0:0:0:0:
32,192,283875,1,0,0:0:0:0:
224,192,283963,1,0,0:0:0:0:
288,192,283993,1,0,0:0:0:0:
32,192,284110,1,0,0:0:0:0:
416,192,284198,1,0,0:0:0:0:
96,192,284227,1,0,0:0:0:0:
32,192,284256,1,0,0:0:0:0:
224,192,284432,1,0,0:0:0:0:
288,192,284461,1,0,0:0:0:0:
32,192,284461,1,0,0:0:0:0:
32,192,284608,1,0,0:0:0:0:
416,192,284637,1,0,0:0:0:0:
480,192,284666,1,0,0:0:0:0:
352,192,284696,1,0,0:0:0:0:
96,192,284696,1,0,0:0:0:0:
32,192,284725,1,0,0:0:0:0:
32,192,284842,1,0,0:0:0:0:
224,192,284901,1,0,0:0:0:0:
288,192,284930,1,0,0:0:0:0:
32,192,284959,1,0,0:0:0:0:
480,192,285077,1,0,0:0:0:0:
32,192,285077,1,0,0:0:0:0:
224,192,285165,5,0,0:0:0:0:
96,192,285165,1,0,0:0:0:0:
352,192,285165,1,0,0:0:0:0:
416,192,285282,1,0,0:0:0:0:
288,192,285399,1,0,0:0:0:0:
480,192,285516,1,0,0:0:0:0:
96,192,285633,1,0,0:0:0:0:
352,192,285633,1,0,0:0:0:0:
224,192,285633,1,0,0:0:0:0:
288,192,285868,1,0,0:0:0:0:
416,192,285985,1,0,0:0:0:0:
352,192,286014,1,0,0:0:0:0:
96,192,286102,1,0,0:0:0:0:
160,192,286102,1,0,0:0:0:0:
224,192,286219,1,0,0:0:0:0:
416,192,286278,1,0,0:0:0:0:
288,192,286336,1,0,0:0:0:0:
224,192,286336,1,0,0:0:0:0:
224,192,286454,1,0,0:0:0:0:
416,192,286512,1,0,0:0:0:0:
480,192,286541,1,0,0:0:0:0:
96,192,286571,1,0,0:0:0:0:
352,192,286571,1,0,0:0:0:0:
224,192,286571,1,0,0:0:0:0:
160,192,286805,1,0,0:0:0:0:
288,192,286805,1,0,0:0:0:0:
96,192,287040,1,0,0:0:0:0:
32,192,287040,1,0,0:0:0:0:
416,192,287040,1,0,0:0:0:0:
416,192,287157,1,0,0:0:0:0:
160,192,287157,1,0,0:0:0:0:
224,192,287245,1,0,0:0:0:0:
32,192,287274,1,0,0:0:0:0:
288,192,287274,1,0,0:0:0:0:
416,192,287450,1,0,0:0:0:0:
480,192,287479,1,0,0:0:0:0:
96,192,287508,1,0,0:0:0:0:
352,192,287508,1,0,0:0:0:0:
32,192,287625,1,0,0:0:0:0:
224,192,287713,1,0,0:0:0:0:
288,192,287743,1,0,0:0:0:0:
32,192,287860,1,0,0:0:0:0:
416,192,287948,1,0,0:0:0:0:
96,192,287977,1,0,0:0:0:0:
416,192,288094,1,0,0:0:0:0:
32,192,288094,1,0,0:0:0:0:
224,192,288182,1,0,0:0:0:0:
288,192,288211,1,0,0:0:0:0:
32,192,288329,1,0,0:0:0:0:
416,192,288387,1,0,0:0:0:0:
480,192,288416,1,0,0:0:0:0:
96,192,288446,1,0,0:0:0:0:
32,192,288446,1,0,0:0:0:0:
352,192,288446,1,0,0:0:0:0:
224,192,288651,1,0,0:0:0:0:
32,192,288680,1,0,0:0:0:0:
288,192,288680,1,0,0:0:0:0:
480,192,288827,1,0,0:0:0:0:
96,192,288915,1,0,0:0:0:0:
352,192,288915,1,0,0:0:0:0:
224,192,288915,1,0,0:0:0:0:
416,192,289032,1,0,0:0:0:0:
288,192,289149,1,0,0:0:0:0:
480,192,289266,1,0,0:0:0:0:
96,192,289383,1,0,0:0:0:0:
352,192,289383,1,0,0:0:0:0:
224,192,289383,1,0,0:0:0:0:
416,192,289500,1,0,0:0:0:0:
288,192,289618,1,0,0:0:0:0:
416,192,289735,1,0,0:0:0:0:
352,192,289764,1,0,0:0:0:0:
96,192,289852,1,0,0:0:0:0:
160,192,289852,1,0,0:0:0:0:
224,192,289969,1,0,0:0:0:0:
416,192,290028,1,0,0:0:0:0:
288,192,290086,1,0,0:0:0:0:
224,192,290086,1,0,0:0:0:0:
224,192,290204,1,0,0:0:0:0:
416,192,290262,1,0,0:0:0:0:
480,192,290291,1,0,0:0:0:0:
96,192,290321,1,0,0:0:0:0:
352,192,290321,1,0,0:0:0:0:
224,192,290321,1,0,0:0:0:0:
160,192,290555,1,0,0:0:0:0:
288,192,290555,1,0,0:0:0:0:
96,192,290790,1,0,0:0:0:0:
32,192,290790,1,0,0:0:0:0:
416,192,290790,1,0,0:0:0:0:
160,192,290907,1,0,0:0:0:0:
224,192,290995,1,0,0:0:0:0:
32,192,291024,1,0,0:0:0:0:
288,192,291024,1,0,0:0:0:0:
416,192,291200,1,0,0:0:0:0:
480,192,291229,1,0,0:0:0:0:
96,192,291258,1,0,0:0:0:0:
352,192,291258,1,0,0:0:0:0:
32,192,291375,1,0,0:0:0:0:
224,192,291463,1,0,0:0:0:0:
288,192,291493,1,0,0:0:0:0:
32,192,291610,1,0,0:0:0:0:
416,192,291698,1,0,0:0:0:0:
96,192,291727,1,0,0:0:0:0:
32,192,291756,1,0,0:0:0:0:
224,192,291932,1,0,0:0:0:0:
32,192,291961,1,0,0:0:0:0:
288,192,291961,1,0,0:0:0:0:
32,192,292108,1,0,0:0:0:0:
416,192,292137,1,0,0:0:0:0:
480,192,292166,1,0,0:0:0:0:
96,192,292196,1,0,0:0:0:0:
352,192,292196,1,0,0:0:0:0:
32,192,292225,1,0,0:0:0:0:
32,192,292342,1,0,0:0:0:0:
224,192,292401,1,0,0:0:0:0:
288,192,292430,1,0,0:0:0:0:
32,192,292459,1,0,0:0:0:0:
32,192,292577,1,0,0:0:0:0:
480,192,292577,1,0,0:0:0:0:
224,192,292665,5,0,0:0:0:0:
352,192,292665,1,0,0:0:0:0:
96,192,292665,1,0,0:0:0:0:
416,192,292782,1,0,0:0:0:0:
288,192,292899,1,0,0:0:0:0:
480,192,293016,1,0,0:0:0:0:
224,192,293133,1,0,0:0:0:0:
352,192,293133,1,0,0:0:0:0:
96,192,293133,1,0,0:0:0:0:
288,192,293368,1,0,0:0:0:0:
416,192,293485,1,0,0:0:0:0:
352,192,293514,1,0,0:0:0:0:
160,192,293602,1,0,0:0:0:0:
96,192,293602,1,0,0:0:0:0:
224,192,293719,1,0,0:0:0:0:
416,192,293778,1,0,0:0:0:0:
224,192,293836,1,0,0:0:0:0:
288,192,293836,1,0,0:0:0:0:
224,192,293954,1,0,0:0:0:0:
416,192,294012,1,0,0:0:0:0:
480,192,294041,1,0,0:0:0:0:
224,192,294071,1,0,0:0:0:0:
352,192,294071,1,0,0:0:0:0:
96,192,294071,1,0,0:0:0:0:
288,192,294305,1,0,0:0:0:0:
160,192,294305,1,0,0:0:0:0:
416,192,294540,1,0,0:0:0:0:
32,192,294540,1,0,0:0:0:0:
96,192,294540,1,0,0:0:0:0:
160,192,294657,1,0,0:0:0:0:
416,192,294657,1,0,0:0:0:0:
224,192,294745,1,0,0:0:0:0:
288,192,294774,1,0,0:0:0:0:
32,192,294774,1,0,0:0:0:0:
416,192,294950,1,0,0:0:0:0:
480,192,294979,1,0,0:0:0:0:
352,192,295008,1,0,0:0:0:0:
96,192,295008,1,0,0:0:0:0:
32,192,295125,1,0,0:0:0:0:
224,192,295213,1,0,0:0:0:0:
288,192,295243,1,0,0:0:0:0:
32,192,295360,1,0,0:0:0:0:
416,192,295448,1,0,0:0:0:0:
96,192,295477,1,0,0:0:0:0:
32,192,295594,1,0,0:0:0:0:
416,192,295594,1,0,0:0:0:0:
224,192,295682,1,0,0:0:0:0:
288,192,295711,1,0,0:0:0:0:
32,192,295829,1,0,0:0:0:0:
416,192,295887,1,0,0:0:0:0:
480,192,295916,1,0,0:0:0:0:
352,192,295946,1,0,0:0:0:0:
32,192,295946,1,0,0:0:0:0:
96,192,295946,1,0,0:0:0:0:
224,192,296151,1,0,0:0:0:0:
288,192,296180,1,0,0:0:0:0:
32,192,296180,1,0,0:0:0:0:
480,192,296327,1,0,0:0:0:0:
224,192,296415,1,0,0:0:0:0:
352,192,296415,1,0,0:0:0:0:
96,192,296415,1,0,0:0:0:0:
416,192,296532,1,0,0:0:0:0:
288,192,296649,1,0,0:0:0:0:
480,192,296766,1,0,0:0:0:0:
224,192,296883,1,0,0:0:0:0:
352,192,296883,1,0,0:0:0:0:
96,192,296883,1,0,0:0:0:0:
416,192,297000,1,0,0:0:0:0:
288,192,297118,1,0,0:0:0:0:
416,192,297235,1,0,0:0:0:0:
352,192,297264,1,0,0:0:0:0:
160,192,297352,1,0,0:0:0:0:
96,192,297352,1,0,0:0:0:0:
224,192,297469,1,0,0:0:0:0:
416,192,297528,1,0,0:0:0:0:
224,192,297586,1,0,0:0:0:0:
288,192,297586,1,0,0:0:0:0:
224,192,297704,1,0,0:0:0:0:
416,192,297762,1,0,0:0:0:0:
480,192,297791,1,0,0:0:0:0:
224,192,297821,1,0,0:0:0:0:
352,192,297821,1,0,0:0:0:0:
96,192,297821,1,0,0:0:0:0:
288,192,298055,1,0,0:0:0:0:
160,192,298055,1,0,0:0:0:0:
224,192,298290,1,0,0:0:0:0:
352,192,298290,1,0,0:0:0:0:
32,192,298290,1,0,0:0:0:0:
352,192,298524,1,0,0:0:0:0:
224,192,298524,1,0,0:0:0:0:
32,192,298524,1,0,0:0:0:0:
352,192,298758,1,0,0:0:0:0:
224,192,298758,1,0,0:0:0:0:
32,192,298758,1,0,0:0:0:0:
224,192,298993,1,0,0:0:0:0:
352,192,298993,1,0,0:0:0:0:
32,192,298993,1,0,0:0:0:0:
288,192,299227,1,0,0:0:0:0:
160,192,299227,1,0,0:0:0:0:
32,192,299227,1,0,0:0:0:0:
32,192,299344,1,0,0:0:0:0:
32,192,299461,1,0,0:0:0:0:
288,192,299579,1,0,0:0:0:0:
160,192,299579,1,0,0:0:0:0:
32,192,299579,1,0,0:0:0:0:
32,192,299696,1,0,0:0:0:0:
32,192,300633,1,0,0:0:0:0:
32,192,301571,1,0,0:0:0:0:
32,192,302508,1,0,0:0:0:0:
