osu file format v14

[General]
AudioFilename: audio.mp3
AudioLeadIn: 0
PreviewTime: 63023
Countdown: 1
SampleSet: Soft
StackLeniency: 0.7
Mode: 0
LetterboxInBreaks: 0
WidescreenStoryboard: 0

[Editor]
DistanceSpacing: 0.5
BeatDivisor: 4
GridSize: 4
TimelineZoom: 1

[Metadata]
Title:Ideal Sphere
TitleUnicode:Ideal Sphere
Artist:C-CLAYS
ArtistUnicode:C-CLAYS
Creator:Beafowl
Version:Extra
Source:東方地霊殿 〜 Subterranean Animism.
Tags:Celestian Clays SOLE -焦熱- Rumico Luna Miyu Amane Ken Nishizoe ZUN
BeatmapID:2070263
BeatmapSetID:989690

[Difficulty]
HPDrainRate:7
CircleSize:4
OverallDifficulty:8
ApproachRate:9.6
SliderMultiplier:2.4
SliderTickRate:1

[Events]
//Background and Video events
0,0,"bg.jpg",0,0
//Break Periods
//Storyboard Layer 0 (Background)
//Storyboard Layer 1 (Fail)
//Storyboard Layer 2 (Pass)
//Storyboard Layer 3 (Foreground)
//Storyboard Layer 4 (Overlay)
//Storyboard Sound Samples

[TimingPoints]
655,315.789473684211,4,1,1,100,1,0
10602,-111.111111111111,4,2,1,5,0,0
10760,-111.111111111111,4,2,1,100,0,1
10839,-111.111111111111,4,2,1,100,0,0
25918,-166.666666666667,4,2,1,100,0,0
35391,-111.111111111111,4,2,1,100,0,0
42812,-100,4,2,1,100,0,0
47233,-111.111111111111,4,2,1,100,0,0
49286,-100,4,2,1,100,0,0
52286,-111.111111111111,4,2,1,100,0,0
56076,-90.9090909090909,4,2,1,100,0,0
63023,-133.333333333333,4,2,1,100,0,0
63812,-100,4,2,1,100,0,1
78970,-90.9090909090909,4,2,1,100,0,1
81181,-90.9090909090909,4,2,1,100,0,0
81497,-83.3333333333333,4,2,1,100,0,1
83707,-83.3333333333333,4,2,1,100,0,0
84023,-111.111111111111,4,2,1,100,0,1
84102,-111.111111111111,4,2,1,100,0,0
99181,-125,4,2,1,100,0,0
103128,-125,4,2,1,5,0,0
103918,-125,4,2,1,100,0,0
104233,-142.857142857143,4,2,1,100,0,0
108655,-111.111111111111,4,2,1,100,0,0
116076,-100,4,2,1,100,0,0
120497,-111.111111111111,4,2,1,100,0,0
122549,-100,4,2,1,100,0,0
125549,-111.111111111111,4,2,1,100,0,0
129339,-90.9090909090909,4,2,1,100,0,0
137076,-100,4,2,1,100,0,1
152233,-90.9090909090909,4,2,1,100,0,1
154444,-90.9090909090909,4,2,1,100,0,0
154760,-83.3333333333333,4,2,1,100,0,1
157286,-100,4,1,1,100,0,0
167391,-90.9090909090909,4,2,1,100,0,0
180023,-133.333333333333,4,2,1,100,0,0
187444,-100,4,2,1,100,0,0
188076,-90.9090909090909,4,2,1,100,0,0
188707,-83.3333333333333,4,2,1,100,0,0
190128,-100,4,2,1,100,0,1
205286,-90.9090909090909,4,2,1,100,0,1
207497,-90.9090909090909,4,2,1,100,0,0
207812,-83.3333333333333,4,2,1,100,0,1
210023,-83.3333333333333,4,2,1,100,0,0
210339,-90.9090909090909,4,2,1,100,0,1
225497,-83.3333333333333,4,2,1,100,0,1
227707,-83.3333333333333,4,2,1,100,0,0
228023,-76.9230769230769,4,2,1,100,0,1
230549,-100,4,2,1,100,0,0
231023,-90.9090909090909,4,2,1,100,0,0
231497,-83.3333333333333,4,2,1,100,0,0
231970,-76.9230769230769,4,2,1,100,0,0
233707,-133.333333333333,4,2,1,100,0,0

[Colours]
Combo1 : 255,0,0
Combo2 : 0,255,0
Combo3 : 0,0,255
Combo4 : 255,255,0

[HitObjects]
346,63,655,6,0,B|404:74|404:74|490:42,1,120,4|0,0:2|0:0,0:0:0:0:
287,136,970,2,0,B|229:125|229:125|143:157,1,120,8|0,0:0|0:0,0:0:0:0:
282,266,1286,1,4,0:2:0:0:
96,55,1444,1,4,0:2:0:0:
31,345,1760,6,0,B|68:345|103:325|103:325|141:348|141:348|195:320|271:351,1,240,4|8,0:2|0:0,0:0:0:0:
396,326,2233,2,0,P|287:264|287:273,1,240,4|8,0:2|0:0,0:0:0:0:
490,173,2707,2,0,P|375:105|266:132,1,240,4|0,0:2|0:0,0:0:0:0:
142,322,3181,6,0,P|141:268|104:216,1,120,4|0,0:2|0:0,0:0:0:0:
276,124,3497,2,0,P|240:171|238:231,1,120,8|0,0:0|0:0,0:0:0:0:
346,210,3812,1,4,0:2:0:0:
33,302,3970,1,4,0:2:0:0:
97,42,4286,6,0,B|138:40|165:66|165:66|199:37|272:27|323:87,1,240,4|8,0:2|0:0,0:0:0:0:
251,242,4760,2,0,P|159:224|236:158,1,240,4|0,0:2|0:0,0:0:0:0:
270,327,5233,1,4,0:2:0:0:
69,223,5391,2,0,P|76:153|105:106,1,120,8|0,0:0|0:0,0:0:0:0:
347,158,5707,6,0,B|296:174|296:174|226:154,1,120,4|0,0:2|0:0,0:0:0:0:
381,31,6023,2,0,B|432:15|432:15|502:35,1,120,8|0,0:0|0:0,0:0:0:0:
495,33,6260,1,0,0:0:0:0:
495,33,6339,1,4,0:2:0:0:
480,129,6497,1,0,0:0:0:0:
464,224,6655,1,0,0:0:0:0:
196,293,6812,6,0,P|120:272|51:293,2,120,4|0|8,0:2|0:0|0:0,0:0:0:0:
43,146,7286,2,0,P|99:90|115:20,2,120,4|0|8,0:2|0:0|0:0,0:0:0:0:
246,86,7760,2,0,P|265:162|318:211,2,120,4|0|0,0:2|0:0|0:0,0:0:0:0:
478,181,8233,5,4,0:2:0:0:
247,256,8391,1,0,0:0:0:0:
390,60,8549,1,8,0:0:0:0:
390,303,8707,1,0,0:0:0:0:
390,303,8786,1,0,0:0:0:0:
390,303,8865,1,0,0:0:0:0:
246,86,9023,1,0,0:0:0:0:
499,187,9181,1,8,0:0:0:0:
149,304,9339,5,4,0:0:0:0:
256,192,9418,12,0,10602,0:0:0:0:
28,73,10760,6,0,P|85:31|173:60,1,161.999995056153,4|0,0:0|0:0,0:0:0:0:
146,95,11076,2,0,L|155:209,1,107.999996704102,8|0,0:0|0:0,0:0:0:0:
237,161,11391,5,0,0:0:0:0:
105,270,11549,1,0,0:0:0:0:
266,330,11707,1,8,0:0:0:0:
312,83,11865,6,0,P|342:133|331:183,1,107.999996704102,4|0,0:0|0:0,0:0:0:0:
465,331,12181,2,0,P|435:281|446:231,1,107.999996704102,0|8,0:0|0:0,0:0:0:0:
320,66,12497,6,0,P|354:124|342:181,1,107.999996704102
496,351,12813,2,0,P|461:294|474:236,1,107.999996704102,0|8,0:0|0:0,0:0:0:0:
276,189,13128,5,0,0:0:0:0:
276,189,13207,1,0,0:0:0:0:
276,189,13286,2,0,P|346:190|295:281,1,215.999993408203,4|8,0:0|0:0,0:0:0:0:
183,150,13760,5,0,0:0:0:0:
380,254,13918,1,0,0:0:0:0:
177,308,14076,1,0,0:0:0:0:
386,96,14233,1,8,0:0:0:0:
201,290,14391,6,0,P|254:305|305:273,1,107.999996704102,4|0,0:0|0:0,0:0:0:0:
103,298,14707,2,0,P|150:274|200:289,1,107.999996704102,0|8,0:0|0:0,0:0:0:0:
369,166,15023,6,0,P|316:181|265:149,1,107.999996704102
467,174,15339,2,0,P|420:150|370:165,1,107.999996704102,0|8,0:0|0:0,0:0:0:0:
138,329,15655,5,0,0:0:0:0:
138,329,15733,1,0,0:0:0:0:
138,329,15812,2,0,B|107:272|133:231|133:231|114:190|114:190|141:149|124:113,1,215.999993408203,4|8,0:0|0:0,0:0:0:0:
235,30,16286,1,0,0:0:0:0:
27,78,16444,2,0,P|12:132|31:181,1,107.999996704102
134,231,16760,1,8,0:0:0:0:
326,58,16918,6,0,L|435:47,1,107.999996704102,4|0,0:0|0:0,0:0:0:0:
399,169,17233,2,0,L|508:158,1,107.999996704102,0|8,0:0|0:0,0:0:0:0:
304,236,17549,6,0,L|195:225,1,107.999996704102
231,347,17865,2,0,L|122:336,1,107.999996704102,0|8,0:0|0:0,0:0:0:0:
60,113,18181,5,0,0:0:0:0:
60,113,18260,1,0,0:0:0:0:
60,113,18339,2,0,B|120:72|120:72|270:87,1,215.999993408203,4|8,0:0|0:0,0:0:0:0:
155,196,18812,1,0,0:0:0:0:
370,97,18970,2,0,L|262:86,1,107.999996704102
303,233,19286,1,8,0:0:0:0:
75,53,19444,6,0,P|59:109|82:153,1,107.999996704102,4|0,0:0|0:0,0:0:0:0:
262,86,19760,1,0,0:0:0:0:
137,214,19918,1,8,0:0:0:0:
345,125,20076,1,0,0:0:0:0:
120,225,20233,1,8,0:0:0:0:
428,164,20391,1,0,0:0:0:0:
103,236,20549,1,8,0:0:0:0:
333,337,20707,5,0,0:0:0:0:
333,337,20786,1,0,0:0:0:0:
333,337,20865,1,4,0:0:0:0:
179,47,21023,1,0,0:0:0:0:
179,337,21339,5,0,0:0:0:0:
333,47,21497,1,0,0:0:0:0:
101,255,21812,5,0,0:0:0:0:
101,255,21970,2,0,P|212:215|251:304,1,215.999993408203,4|0,0:0|0:0,0:0:0:0:
135,336,22444,1,8,0:0:0:0:
331,245,22602,1,0,0:0:0:0:
155,121,22760,1,8,0:0:0:0:
253,282,22918,1,0,0:0:0:0:
344,117,23076,1,8,0:0:0:0:
77,158,23233,5,0,0:0:0:0:
77,158,23312,1,0,0:0:0:0:
77,158,23391,1,12,0:0:0:0:
325,332,23549,1,0,0:0:0:0:
325,332,23865,1,0,0:0:0:0:
449,233,24023,1,8,0:0:0:0:
237,316,24181,1,0,0:0:0:0:
271,90,24339,1,8,0:0:0:0:
414,312,24497,2,0,L|470:316,1,53.9999983520508
85,114,25128,5,0,0:0:0:0:
169,90,25286,1,0,0:0:0:0:
147,174,25444,1,0,0:0:0:0:
107,30,25602,1,0,0:0:0:0:
251,68,25760,1,0,0:0:0:0:
54,122,25918,6,0,L|59:205,1,71.9999978027344,2|0,0:0|0:0,0:0:0:0:
47,325,26233,2,0,L|116:279,1,71.9999978027344,2|0,0:0|0:0,0:0:0:0:
227,229,26549,2,0,L|152:191,1,71.9999978027344,2|0,0:0|0:0,0:0:0:0:
54,122,26865,5,2,0:0:0:0:
106,285,27023,1,0,0:0:0:0:
177,112,27181,2,0,P|216:104|257:121,1,71.9999978027344,2|0,0:0|0:0,0:0:0:0:
314,212,27497,5,2,0:0:0:0:
227,229,27655,1,0,0:0:0:0:
342,128,27812,1,2,0:0:0:0:
371,278,27970,1,0,0:0:0:0:
245,113,28128,1,2,0:0:0:0:
166,305,28286,1,0,0:0:0:0:
404,194,28444,6,0,L|488:188,1,71.9999978027344,2|0,0:0|0:0,0:0:0:0:
299,283,28760,2,0,L|383:277,1,71.9999978027344,2|0,0:0|0:0,0:0:0:0:
173,118,29076,6,0,L|257:112,1,71.9999978027344,2|0,0:0|0:0,0:0:0:0:
298,41,29391,1,2,0:0:0:0:
161,131,29549,1,0,0:0:0:0:
308,205,29707,2,0,P|346:160|357:119,1,71.9999978027344,2|0,0:0|0:0,0:0:0:0:
200,223,30023,5,2,0:0:0:0:
350,148,30181,1,0,0:0:0:0:
273,297,30339,1,2,0:0:0:0:
248,130,30497,1,0,0:0:0:0:
363,250,30655,1,2,0:0:0:0:
200,223,30812,1,0,0:0:0:0:
317,46,30970,6,0,L|400:53,1,71.9999978027344,2|0,0:0|0:0,0:0:0:0:
248,130,31286,2,0,L|165:137,1,71.9999978027344,2|0,0:0|0:0,0:0:0:0:
317,214,31602,5,2,0:0:0:0:
160,123,31760,1,0,0:0:0:0:
340,130,31918,1,2,0:0:0:0:
137,207,32076,1,0,0:0:0:0:
358,273,32233,6,0,L|310:204,1,71.9999978027344,2|0,0:0|0:0,0:0:0:0:
317,349,32549,1,2,0:0:0:0:
421,194,32707,1,0,0:0:0:0:
236,181,32865,6,0,P|223:224|235:264,1,71.9999978027344,2|0,0:0|0:0,0:0:0:0:
125,77,33181,2,0,P|138:120|126:160,1,71.9999978027344,2|0,0:0|0:0,0:0:0:0:
37,191,33497,5,2,0:0:0:0:
223,83,33655,1,0,0:0:0:0:
70,285,33812,5,2,0:0:0:0:
125,77,33970,1,0,0:0:0:0:
277,228,34128,5,2,0:0:0:0:
27,71,34286,1,0,0:0:0:0:
158,334,34444,5,2,0:0:0:0:
321,89,34602,1,4,0:0:0:0:
321,89,35391,5,0,0:0:0:0:
299,127,35469,1,0,0:0:0:0:
307,171,35548,1,0,0:0:0:0:
340,200,35627,1,0,0:0:0:0:
384,203,35707,2,0,P|415:191|436:159,1,53.9999983520508
299,294,35865,2,0,P|293:327|308:360,1,53.9999983520508
262,174,36023,6,0,P|201:131|146:139,1,107.999996704102,4|0,0:0|0:0,0:0:0:0:
84,316,36339,2,0,P|151:284|172:233,1,107.999996704102,8|0,0:0|0:0,0:0:0:0:
50,90,36655,1,0,0:0:0:0:
262,174,36812,1,0,0:0:0:0:
80,219,36970,1,8,0:0:0:0:
225,64,37128,6,0,B|282:47|282:47|334:67,1,107.999996704102
488,254,37444,2,0,B|431:271|431:271|379:251,1,107.999996704102,0|8,0:0|0:0,0:0:0:0:
255,322,37760,5,0,0:0:0:0:
262,173,37918,1,0,0:0:0:0:
386,254,38076,1,0,0:0:0:0:
141,292,38233,1,8,0:0:0:0:
225,64,38391,1,0,0:0:0:0:
472,170,38549,6,0,L|358:159,1,107.999996704102
124,81,38865,2,0,B|162:57|162:57|239:65,1,107.999996704102,8|0,0:0|0:0,0:0:0:0:
301,264,39181,2,0,B|261:243|261:243|229:172,1,107.999996704102
353,37,39497,1,8,0:0:0:0:
418,218,39655,6,0,P|435:269|413:320,1,107.999996704102
370,119,39970,2,0,P|421:102|472:124,1,107.999996704102,0|8,0:0|0:0,0:0:0:0:
235,185,40286,5,0,0:0:0:0:
418,218,40444,1,0,0:0:0:0:
353,37,40602,1,0,0:0:0:0:
314,253,40760,1,8,0:0:0:0:
439,107,40918,1,0,0:0:0:0:
251,78,41076,6,0,L|121:86,1,107.999996704102,4|0,0:0|0:0,0:0:0:0:
342,140,41391,2,0,P|360:89|353:37,1,107.999996704102,8|0,0:0|0:0,0:0:0:0:
242,188,41707,2,0,P|276:228|326:248,1,107.999996704102
428,208,42023,1,8,0:0:0:0:
207,95,42181,6,0,B|157:78|157:78|96:102,1,107.999996704102
226,297,42497,2,0,B|276:314|276:314|337:290,1,107.999996704102,0|8,0:0|0:0,0:0:0:0:
108,213,42812,6,0,L|127:342,1,120,4|0,0:0|0:0,0:0:0:0:
361,56,43128,6,0,L|327:293,1,240,4|0,0:0|0:0,0:0:0:0:
90,94,43602,5,4,0:0:0:0:
226,297,43760,1,0,0:0:0:0:
226,297,43839,1,0,0:0:0:0:
226,297,43918,1,0,0:0:0:0:
466,26,44076,6,0,L|448:144,1,120,4|0,0:0|0:0,0:0:0:0:
140,180,44391,6,0,L|258:197,1,120,4|0,0:0|0:0,0:0:0:0:
494,320,44707,6,0,P|378:275|349:364,1,240,4|0,0:0|0:0,0:0:0:0:
140,180,45181,5,2,0:3:0:0:
350,168,45339,1,2,0:3:0:0:
256,355,45497,1,2,0:3:0:0:
241,93,45655,1,2,0:3:0:0:
39,267,45812,1,2,0:3:0:0:
459,243,45970,1,0,0:0:0:0:
459,243,46049,1,0,0:0:0:0:
459,243,46128,1,0,0:0:0:0:
448,255,46444,6,0,L|324:254,1,120,4|0,0:0|0:0,0:0:0:0:
202,360,46760,1,0,0:0:0:0:
366,119,46918,2,0,L|242:118,1,120,4|0,0:0|0:0,0:0:0:0:
72,283,47233,6,0,P|155:259|199:365,1,215.999993408203,4|0,0:0|0:0,0:0:0:0:
100,169,47707,2,0,P|160:166|216:188,1,107.999996704102
345,356,48023,2,0,P|312:305|303:246,1,107.999996704102,8|0,0:0|0:0,0:0:0:0:
385,51,48339,2,0,P|357:104|310:141,1,107.999996704102,8|0,0:0|0:0,0:0:0:0:
106,33,48655,6,0,L|231:39,1,107.999996704102,4|0,0:0|0:0,0:0:0:0:
94,114,48970,1,8,0:0:0:0:
296,23,49128,1,0,0:0:0:0:
273,243,49286,6,0,B|214:259|214:259|146:231,1,120,4|0,0:0|0:0,0:0:0:0:
76,110,49602,1,8,0:0:0:0:
289,345,49760,6,0,B|348:361|348:361|402:338,1,120,4|0,0:0|0:0,0:0:0:0:
424,212,50076,1,0,0:0:0:0:
182,335,50233,1,8,0:0:0:0:
305,93,50391,1,0,0:0:0:0:
348,361,50549,1,8,0:0:0:0:
154,169,50707,1,0,0:0:0:0:
448,217,50865,1,8,0:0:0:0:
160,345,51023,1,0,0:0:0:0:
160,345,51102,1,0,0:0:0:0:
160,345,51181,1,0,0:0:0:0:
409,336,51497,6,0,P|353:361|289:337,1,120,4|0,0:0|0:0,0:0:0:0:
180,238,51812,1,0,0:0:0:0:
476,223,51970,2,0,P|420:198|356:222,1,120,4|0,0:0|0:0,0:0:0:0:
96,333,52286,6,0,B|105:286|84:258|84:258|97:208|97:208|76:157|104:117,1,215.999993408203,4|0,0:0|0:0,0:0:0:0:
255,67,52760,6,0,P|275:118|248:169,1,107.999996704102
488,75,53076,2,0,P|433:66|403:17,1,107.999996704102,8|0,0:0|0:0,0:0:0:0:
364,272,53391,2,0,P|398:229|455:227,1,107.999996704102,8|0,0:0|0:0,0:0:0:0:
304,357,53707,6,0,L|188:341,1,107.999996704102,4|0,0:0|0:0,0:0:0:0:
16,132,54023,2,0,L|132:116,1,107.999996704102,8|0,0:0|0:0,0:0:0:0:
364,272,54339,2,0,L|248:256,1,107.999996704102,4|0,0:0|0:0,0:0:0:0:
154,248,54655,1,8,0:0:0:0:
393,58,54812,6,0,L|363:276,1,215.999993408203,4|0,0:0|0:0,0:0:0:0:
200,328,55286,5,8,0:0:0:0:
453,280,55444,1,0,0:0:0:0:
185,221,55602,1,8,0:0:0:0:
468,173,55760,1,0,0:0:0:0:
170,114,55918,1,8,0:0:0:0:
443,298,56076,6,0,B|411:301|377:276|377:276|347:302|347:302|306:269|250:269|206:318,1,264.000008056641,4|0,0:0|0:0,0:0:0:0:
318,180,56549,5,8,0:0:0:0:
285,378,56707,1,0,0:0:0:0:
131,250,56865,1,8,0:0:0:0:
442,204,57023,1,0,0:0:0:0:
442,204,57102,1,0,0:0:0:0:
442,204,57181,1,8,0:0:0:0:
69,86,57339,6,0,B|101:83|135:108|135:108|165:82|165:82|206:115|262:115|306:66,1,264.000008056641,4|0,0:0|0:0,0:0:0:0:
194,204,57812,5,8,0:0:0:0:
227,6,57970,1,0,0:0:0:0:
381,134,58128,1,8,0:0:0:0:
70,180,58286,1,0,0:0:0:0:
70,180,58365,1,0,0:0:0:0:
70,180,58444,1,8,0:0:0:0:
445,58,58602,6,0,P|498:104|380:131,1,264.000008056641,4|0,0:0|0:0,0:0:0:0:
251,21,59076,5,2,0:3:0:0:
315,208,59233,1,2,0:3:0:0:
445,58,59391,1,2,0:3:0:0:
228,132,59549,5,2,0:3:0:0:
402,284,59707,1,2,0:3:0:0:
183,358,59865,1,2,0:3:0:0:
472,211,60023,5,2,0:3:0:0:
228,291,60181,1,2,0:3:0:0:
379,83,60339,1,2,0:3:0:0:
388,365,60497,1,2,0:3:0:0:
228,132,60655,1,2,0:3:0:0:
472,211,60812,5,2,0:3:0:0:
228,291,60970,1,2,0:3:0:0:
279,33,61128,1,0,0:0:0:0:
362,359,61602,5,4,0:0:0:0:
83,156,61760,1,0,0:0:0:0:
83,156,61839,1,0,0:0:0:0:
83,156,61918,1,0,0:0:0:0:
428,156,62076,5,4,0:0:0:0:
150,361,62233,1,0,0:0:0:0:
150,361,62312,1,0,0:0:0:0:
150,361,62391,1,0,0:0:0:0:
255,28,62549,5,4,0:0:0:0:
362,359,62707,1,4,0:0:0:0:
362,359,63023,5,0,0:0:0:0:
362,198,63181,1,0,0:0:0:0:
267,328,63339,1,0,0:0:0:0:
420,278,63497,1,0,0:0:0:0:
267,229,63655,1,0,0:0:0:0:
459,129,63812,6,0,P|413:90|346:79,1,120,4|0,0:0|0:0,0:0:0:0:
399,306,64128,2,0,P|394:245|354:190,1,120,8|0,0:0|0:0,0:0:0:0:
231,383,64444,2,0,P|270:337|281:270,1,120
162,285,64760,1,8,0:0:0:0:
361,197,64918,6,0,P|394:246|399:306,1,120,4|0,0:0|0:0,0:0:0:0:
244,171,65233,2,0,P|271:118|320:85,1,120,0|8,0:0|0:0,0:0:0:0:
281,286,65549,2,0,P|222:290|167:264,1,120
33,181,65865,5,0,0:0:0:0:
147,359,66023,1,8,0:0:0:0:
244,171,66181,1,0,0:0:0:0:
19,336,66339,6,0,L|146:346,1,120,4|0,0:0|0:0,0:0:0:0:
400,295,66655,2,0,L|280:285,1,120,8|0,0:0|0:0,0:0:0:0:
33,181,66970,2,0,L|152:190,1,120
155,345,67286,1,8,0:0:0:0:
194,84,67444,6,0,P|247:119|264:176,1,120,4|0,0:0|0:0,0:0:0:0:
155,345,67760,1,0,0:0:0:0:
369,125,67918,2,0,P|381:187|353:239,1,120,8|0,0:0|0:0,0:0:0:0:
155,345,68233,5,0,0:0:0:0:
348,248,68391,1,0,0:0:0:0:
126,247,68549,1,8,0:0:0:0:
377,346,68707,1,0,0:0:0:0:
97,149,68865,6,0,B|159:136|159:136|206:171,1,120,4|0,0:0|0:0,0:0:0:0:
451,183,69181,2,0,B|389:196|389:196|342:161,1,120,8|0,0:0|0:0,0:0:0:0:
486,66,69497,1,0,0:0:0:0:
300,272,69655,2,0,L|205:200,1,120,0|8,0:0|0:0,0:0:0:0:
356,41,69970,6,0,P|421:30|471:58,1,120,4|0,0:0|0:0,0:0:0:0:
170,159,70286,2,0,P|223:184|281:171,1,120,0|8,0:0|0:0,0:0:0:0:
101,33,70602,2,0,P|52:66|34:122,1,120
161,269,70918,1,0,0:0:0:0:
309,47,71076,2,0,P|250:36|198:63,1,120,8|0,0:0|0:0,0:0:0:0:
86,332,71391,6,0,P|139:366|212:352,2,120,4|0|8,0:0|0:0|0:0,0:0:0:0:
366,239,71865,2,0,P|437:265|338:317,1,240
161,269,72339,2,0,P|112:236|53:239,1,120,8|0,0:0|0:0,0:0:0:0:
337,144,72655,6,0,P|284:178|211:164,2,120,4|0|8,0:0|0:0|0:0,0:0:0:0:
57,51,73129,2,0,P|-14:77|84:129,1,240
262,81,73603,2,0,P|310:48|369:51,1,120,8|0,0:0|0:0,0:0:0:0:
344,288,73918,6,0,B|285:303|285:303|221:279,1,120,4|0,0:0|0:0,0:0:0:0:
476,197,74233,2,0,B|491:256|491:256|467:320,1,120,8|0,0:0|0:0,0:0:0:0:
385,65,74549,2,0,B|444:50|444:50|508:74,1,120
369,191,74865,1,8,0:0:0:0:
139,54,75023,6,0,P|118:117|137:168,1,120,4|0,0:0|0:0,0:0:0:0:
255,286,75339,1,0,0:0:0:0:
346,88,75497,2,0,P|301:38|248:29,1,120,8|0,0:0|0:0,0:0:0:0:
213,250,75812,2,0,P|278:236|312:194,1,120
112,159,76128,1,8,0:0:0:0:
352,288,76286,1,0,0:0:0:0:
218,70,76444,6,0,L|99:62,1,120,4|0,0:0|0:0,0:0:0:0:
232,296,76760,2,0,L|351:288,1,120,8|0,0:0|0:0,0:0:0:0:
112,304,77076,5,4,0:0:0:0:
338,78,77233,1,4,0:0:0:0:
405,357,77549,6,0,P|441:240|338:203,1,240,4|0,0:0|0:0,0:0:0:0:
128,335,78023,5,8,0:0:0:0:
351,287,78181,1,0,0:0:0:0:
198,118,78339,2,0,P|141:102|76:127,1,120
237,289,78655,2,0,P|294:305|359:280,1,120,8|0,0:0|0:0,0:0:0:0:
272,66,78970,5,12,0:0:0:0:
423,217,79128,1,0,0:0:0:0:
216,272,79286,1,8,0:0:0:0:
348,142,79444,5,0,0:0:0:0:
432,359,79602,1,8,0:0:0:0:
127,248,79760,1,0,0:0:0:0:
127,248,79839,1,0,0:0:0:0:
127,248,79918,1,8,0:0:0:0:
374,39,80076,6,0,B|377:99|407:132|407:132|371:183|371:183|403:226|376:284,1,264.000008056641,4|0,0:0|0:0,0:0:0:0:
127,248,80549,5,8,0:0:0:0:
372,183,80707,1,0,0:0:0:0:
138,88,80865,1,8,0:0:0:0:
276,308,81023,1,0,0:0:0:0:
293,50,81181,1,8,0:0:0:0:
110,256,81339,1,0,0:0:0:0:
450,133,81497,6,0,P|488:69|465:-1,2,143.999995605469,4|0|8,0:0|0:0|0:0,0:0:0:0:
293,50,81970,2,0,B|231:22|173:23|173:23|119:88|119:88|75:80|30:99,1,287.999991210938
147,307,82444,2,0,P|218:314|270:257,1,143.999995605469,8|0,0:0|0:0,0:0:0:0:
173,24,82760,6,0,B|140:89|140:89|178:163,2,143.999995605469,4|0|8,0:0|0:0|0:0,0:0:0:0:
278,195,83233,2,0,P|212:272|64:177,1,287.999991210938
263,82,83707,2,0,P|338:98|383:155,1,143.999995605469,8|0,0:0|0:0,0:0:0:0:
149,347,84023,6,0,P|196:283|139:167,1,215.999993408203,4|8,0:0|0:0,0:0:0:0:
58,313,84497,1,0,0:0:0:0:
223,111,84655,6,0,P|166:73|114:75,1,107.999996704102
21,151,84970,1,8,0:0:0:0:
320,126,85128,2,0,P|306:58|268:23,1,107.999996704102,4|0,0:0|0:0,0:0:0:0:
377,205,85444,2,0,P|415:148|413:95,1,107.999996704102,0|8,0:0|0:0,0:0:0:0:
260,273,85760,6,0,P|273:340|311:375,1,107.999996704102
203,194,86076,2,0,P|165:251|167:303,1,107.999996704102,0|8,0:0|0:0,0:0:0:0:
478,172,86391,5,0,0:0:0:0:
478,172,86470,1,0,0:0:0:0:
478,172,86549,2,0,B|416:110|416:110|289:95,1,215.999993408203,4|8,0:0|0:0,0:0:0:0:
127,74,87023,1,0,0:0:0:0:
253,237,87181,2,0,L|372:251,1,107.999996704102
485,312,87497,1,8,0:0:0:0:
265,129,87655,6,0,L|251:248,1,107.999996704102,4|0,0:0|0:0,0:0:0:0:
61,348,87970,2,0,L|73:240,1,107.999996704102,0|8,0:0|0:0,0:0:0:0:
282,109,88286,6,0,L|266:249,1,107.999996704102
43,367,88602,2,0,L|55:259,1,107.999996704102,0|8,0:0|0:0,0:0:0:0:
244,32,88918,5,0,0:0:0:0:
244,32,88997,1,0,0:0:0:0:
244,32,89076,2,0,B|181:8|130:25|130:25|143:75|109:122,1,215.999993408203,4|8,0:0|0:0,0:0:0:0:
6,191,89549,1,0,0:0:0:0:
250,148,89707,2,0,P|312:135|363:153,1,107.999996704102
463,222,90023,1,8,0:0:0:0:
211,344,90181,6,0,P|149:357|98:339,1,107.999996704102,4|0,0:0|0:0,0:0:0:0:
314,303,90497,2,0,P|376:316|427:298,1,107.999996704102,0|8,0:0|0:0,0:0:0:0:
160,138,90812,2,0,P|147:200|165:251,1,107.999996704102
325,72,91128,2,0,P|338:134|320:185,1,107.999996704102,0|8,0:0|0:0,0:0:0:0:
92,313,91444,5,0,0:0:0:0:
92,313,91523,1,0,0:0:0:0:
92,313,91602,2,0,P|135:275|248:355,1,215.999993408203,4|8,0:0|0:0,0:0:0:0:
76,201,92076,1,0,0:0:0:0:
325,175,92233,2,0,L|217:167,1,107.999996704102
118,62,92549,1,8,0:0:0:0:
270,277,92707,6,0,L|377:284,1,107.999996704102,4|0,0:0|0:0,0:0:0:0:
283,91,93023,1,0,0:0:0:0:
162,269,93181,1,8,0:0:0:0:
325,175,93339,1,0,0:0:0:0:
120,185,93497,1,8,0:0:0:0:
377,97,93655,1,0,0:0:0:0:
69,264,93812,1,8,0:0:0:0:
188,21,93970,5,0,0:0:0:0:
188,21,94049,1,0,0:0:0:0:
188,21,94128,1,4,0:0:0:0:
258,340,94286,1,0,0:0:0:0:
377,97,94602,5,0,0:0:0:0:
69,264,94760,1,0,0:0:0:0:
445,273,95076,5,0,0:0:0:0:
445,273,95233,2,0,P|355:223|314:309,1,215.999993408203,4|0,0:0|0:0,0:0:0:0:
373,139,95707,1,8,0:0:0:0:
391,345,95865,1,0,0:0:0:0:
203,257,96023,1,8,0:0:0:0:
445,273,96181,1,0,0:0:0:0:
338,56,96339,1,8,0:0:0:0:
256,348,96497,5,0,0:0:0:0:
256,348,96576,1,0,0:0:0:0:
256,348,96655,1,4,0:0:0:0:
174,56,96812,1,0,0:0:0:0:
174,56,97128,5,0,0:0:0:0:
114,274,97286,1,8,0:0:0:0:
34,35,97444,1,0,0:0:0:0:
254,295,97602,1,8,0:0:0:0:
60,59,97760,2,0,L|58:126,1,53.9999983520508
326,224,98391,5,0,0:0:0:0:
254,295,98549,1,0,0:0:0:0:
228,197,98707,1,0,0:0:0:0:
352,322,98865,1,0,0:0:0:0:
300,126,99023,1,0,0:0:0:0:
156,268,99181,6,0,P|97:285|56:273,1,96,4|0,0:0|0:0,0:0:0:0:
110,108,99497,2,0,P|169:91|210:103,1,96,8|0,0:0|0:0,0:0:0:0:
201,98,99733,1,0,0:0:0:0:
201,98,99812,1,0,0:0:0:0:
254,295,99970,6,0,L|261:192,1,96,4|0,0:0|0:0,0:0:0:0:
396,44,100286,2,0,L|383:235,1,192,4|0,0:0|0:0,0:0:0:0:
255,309,100760,5,8,0:0:0:0:
430,316,100918,1,0,0:0:0:0:
310,109,101076,1,0,0:0:0:0:
275,118,101154,1,0,0:0:0:0:
239,121,101233,1,0,0:0:0:0:
203,118,101312,1,0,0:0:0:0:
169,108,101391,2,0,B|118:102|78:83|78:83|99:120|100:158,1,144,4|0,0:0|0:0,0:0:0:0:
77,166,101707,6,0,P|82:218|56:263,1,96,4|0,0:0|0:0,0:0:0:0:
216,371,102023,2,0,P|211:319|237:274,1,96,8|0,0:0|0:0,0:0:0:0:
230,281,102260,1,0,0:0:0:0:
230,281,102339,1,8,0:0:0:0:
445,132,102497,1,8,0:0:0:0:
212,269,102655,1,8,0:0:0:0:
386,51,102812,2,0,B|320:48|286:54|286:54|225:41|225:41|184:50,1,192,4|0,0:0|0:0,0:0:0:0:
196,47,103918,1,8,0:0:0:0:
323,340,104233,5,4,0:0:0:0:
323,340,104391,2,0,B|361:308|426:295|426:295|435:237|393:199|393:199|354:189,1,251.999992309571,0|8,0:0|0:0,0:0:0:0:
104,229,105023,5,0,0:0:0:0:
104,229,105181,1,0,0:0:0:0:
103,228,105339,2,0,B|72:221|72:221|30:183|39:125|39:125|104:112|142:80,1,251.999992309571
221,24,105970,1,0,0:0:0:0:
308,101,106128,2,0,P|336:60|334:20,1,83.9999974365235,8|0,0:0|0:0,0:0:0:0:
315,216,106444,2,0,P|363:206|390:177,1,83.9999974365235
256,320,106760,5,4,0:0:0:0:
256,320,106918,2,0,B|206:290|161:302|161:302|116:263|226:242|146:149,1,251.999992309571,0|8,0:0|0:0,0:0:0:0:
367,64,107549,1,4,0:0:0:0:
228,42,107707,1,0,0:0:0:0:
361,316,107865,1,4,0:0:0:0:
361,316,108655,5,0,0:0:0:0:
322,327,108733,1,0,0:0:0:0:
283,318,108812,1,0,0:0:0:0:
253,291,108891,1,0,0:0:0:0:
239,253,108970,2,0,P|237:217|257:188,1,53.9999983520508
183,82,109128,2,0,P|206:54|241:48,1,53.9999983520508
386,139,109286,6,0,P|444:158|508:119,1,107.999996704102,4|0,0:0|0:0,0:0:0:0:
316,35,109602,2,0,P|270:75|272:150,1,107.999996704102,8|0,0:0|0:0,0:0:0:0:
453,238,109918,1,0,0:0:0:0:
441,26,110076,1,0,0:0:0:0:
264,142,110233,1,8,0:0:0:0:
471,39,110391,6,0,L|465:157,1,107.999996704102
255,234,110707,2,0,L|362:239,1,107.999996704102,0|8,0:0|0:0,0:0:0:0:
264,142,111023,5,0,0:0:0:0:
426,312,111181,1,0,0:0:0:0:
186,280,111339,1,0,0:0:0:0:
407,166,111497,1,8,0:0:0:0:
298,378,111655,1,0,0:0:0:0:
239,118,111812,6,0,L|131:112,1,107.999996704102
348,256,112128,2,0,L|406:165,1,107.999996704102,8|0,0:0|0:0,0:0:0:0:
173,281,112444,2,0,L|222:377,1,107.999996704102
370,372,112760,1,8,0:0:0:0:
233,203,112918,6,0,P|162:183|116:200,1,107.999996704102
298,66,113233,2,0,P|369:86|415:69,1,107.999996704102,0|8,0:0|0:0,0:0:0:0:
213,104,113549,1,0,0:0:0:0:
415,50,113707,1,0,0:0:0:0:
360,251,113865,1,0,0:0:0:0:
298,66,114023,1,8,0:0:0:0:
169,213,114181,1,0,0:0:0:0:
442,197,114339,6,0,P|457:263|439:310,1,107.999996704102,4|0,0:0|0:0,0:0:0:0:
242,149,114655,2,0,L|371:141,1,107.999996704102,8|0,0:0|0:0,0:0:0:0:
243,332,114970,2,0,L|135:338,1,107.999996704102
51,237,115286,1,8,0:0:0:0:
342,243,115444,2,0,L|348:350,1,107.999996704102
243,187,115760,5,0,0:0:0:0:
441,299,115918,1,8,0:0:0:0:
439,72,116076,1,4,0:0:0:0:
314,343,116233,1,0,0:0:0:0:
141,99,116391,6,0,P|51:80|41:204,1,240,4|0,0:0|0:0,0:0:0:0:
295,335,116865,5,4,0:0:0:0:
217,49,117023,1,0,0:0:0:0:
217,49,117102,1,0,0:0:0:0:
217,49,117181,1,0,0:0:0:0:
44,301,117339,6,0,L|170:311,1,120,4|0,0:0|0:0,0:0:0:0:
468,301,117655,2,0,L|342:311,1,120,4|0,0:0|0:0,0:0:0:0:
257,78,117970,6,0,B|321:189|198:197|262:316,1,240,4|0,0:0|0:0,0:0:0:0:
371,176,118444,5,2,0:3:0:0:
164,330,118602,1,2,0:3:0:0:
364,153,118760,1,2,0:3:0:0:
111,200,118918,1,2,0:3:0:0:
378,199,119076,1,2,0:3:0:0:
58,70,119233,1,0,0:0:0:0:
58,70,119312,1,0,0:0:0:0:
58,70,119391,1,0,0:0:0:0:
84,46,119707,6,0,L|213:55,1,120,4|0,0:0|0:0,0:0:0:0:
374,250,120023,1,0,0:0:0:0:
17,157,120181,2,0,L|136:148,1,120,4|0,0:0|0:0,0:0:0:0:
437,93,120497,6,0,P|387:151|379:58,1,215.999993408203,4|0,0:0|0:0,0:0:0:0:
482,192,120970,2,0,P|442:222|366:226,1,107.999996704102
280,36,121286,2,0,P|259:85|264:138,1,107.999996704102,8|0,0:0|0:0,0:0:0:0:
472,162,121602,2,0,P|492:112|487:59,1,107.999996704102,8|0,0:0|0:0,0:0:0:0:
211,221,121918,6,0,B|266:238|266:238|327:218,1,107.999996704102,4|0,0:0|0:0,0:0:0:0:
142,161,122233,1,8,0:0:0:0:
382,282,122391,1,0,0:0:0:0:
367,14,122549,6,0,B|314:34|314:34|221:13|221:12,1,120,4|0,0:0|0:0,0:0:0:0:
123,68,122865,1,8,0:0:0:0:
381,123,123023,6,0,B|434:103|434:103|527:124|527:125,1,120,4|0,0:0|0:0,0:0:0:0:
245,170,123339,1,0,0:0:0:0:
367,14,123497,1,8,0:0:0:0:
441,197,123655,1,0,0:0:0:0:
248,44,123812,1,8,0:0:0:0:
476,75,123970,1,0,0:0:0:0:
334,257,124128,1,8,0:0:0:0:
367,14,124286,1,0,0:0:0:0:
367,14,124365,1,0,0:0:0:0:
367,14,124444,1,0,0:0:0:0:
376,42,124760,6,0,P|384:104|345:152,1,120,4|0,0:0|0:0,0:0:0:0:
149,114,125076,1,0,0:0:0:0:
438,182,125233,2,0,P|399:231|338:237,1,120,4|0,0:0|0:0,0:0:0:0:
111,45,125549,6,0,L|101:268,1,215.999993408203,4|0,0:0|0:0,0:0:0:0:
306,158,126023,2,0,L|300:40,1,107.999996704102
262,246,126339,2,0,P|321:256|373:230,1,107.999996704102,8|0,0:0|0:0,0:0:0:0:
207,163,126655,2,0,P|168:209|165:267,1,107.999996704102,8|0,0:0|0:0,0:0:0:0:
369,345,126970,6,0,L|363:227,1,107.999996704102,4|0,0:0|0:0,0:0:0:0:
198,143,127286,1,8,0:0:0:0:
450,195,127444,1,0,0:0:0:0:
190,330,127602,2,0,B|137:344|137:344|86:329,1,107.999996704102,4|0,0:0|0:0,0:0:0:0:
21,198,127918,1,8,0:0:0:0:
348,47,128076,6,0,B|398:94|398:94|361:244,1,215.999993408203,4|0,0:0|0:0,0:0:0:0:
210,123,128549,1,8,0:0:0:0:
462,154,128707,1,0,0:0:0:0:
239,275,128865,1,8,0:0:0:0:
348,47,129023,1,0,0:0:0:0:
412,309,129181,1,8,0:0:0:0:
261,42,129339,6,0,B|215:56|176:43|176:43|124:65|124:65|65:26|1:69,1,264.000008056641,4|0,0:0|0:0,0:0:0:0:
256,192,129812,1,8,0:0:0:0:
66,145,129970,1,0,0:0:0:0:
252,60,130128,1,8,0:0:0:0:
70,277,130286,1,0,0:0:0:0:
70,277,130365,1,0,0:0:0:0:
70,277,130444,1,8,0:0:0:0:
443,295,130602,6,0,B|397:281|358:294|358:294|306:272|306:272|247:311|183:268,1,264.000008056641,4|0,0:0|0:0,0:0:0:0:
438,145,131075,1,8,0:0:0:0:
248,192,131233,1,0,0:0:0:0:
434,277,131391,1,8,0:0:0:0:
252,60,131549,1,0,0:0:0:0:
252,60,131628,1,0,0:0:0:0:
252,60,131707,1,8,0:0:0:0:
70,277,131865,6,0,P|45:352|144:298,1,264.000008056641,4|0,0:0|0:0,0:0:0:0:
31,183,132339,5,2,0:3:0:0:
249,312,132497,1,2,0:3:0:0:
252,60,132655,1,2,0:3:0:0:
146,303,132812,1,2,0:3:0:0:
355,69,132970,1,2,0:3:0:0:
40,80,133128,1,2,0:3:0:0:
352,321,133286,5,2,0:3:0:0:
355,69,133444,1,2,0:3:0:0:
205,273,133602,1,2,0:3:0:0:
205,120,133760,1,2,0:3:0:0:
441,196,133918,5,2,0:3:0:0:
71,188,134076,1,2,0:3:0:0:
439,299,134233,1,2,0:3:0:0:
73,85,134391,1,0,0:0:0:0:
443,93,134865,5,4,0:0:0:0:
69,291,135023,1,0,0:0:0:0:
69,291,135102,1,0,0:0:0:0:
69,291,135181,1,0,0:0:0:0:
439,299,135339,5,4,0:0:0:0:
73,85,135497,1,0,0:0:0:0:
73,85,135576,1,0,0:0:0:0:
73,85,135655,1,0,0:0:0:0:
256,360,135812,5,4,0:0:0:0:
256,24,135970,1,4,0:0:0:0:
256,24,136286,5,0,0:0:0:0:
256,217,136444,1,0,0:0:0:0:
143,61,136602,1,0,0:0:0:0:
325,120,136760,1,0,0:0:0:0:
143,180,136918,1,0,0:0:0:0:
409,67,137076,6,0,P|424:123|404:180,1,120,4|0,0:0|0:0,0:0:0:0:
143,180,137391,2,0,P|183:139|243:127,1,120,8|0,0:0|0:0,0:0:0:0:
374,354,137707,2,0,P|318:338|278:293,1,120
325,120,138023,1,8,0:0:0:0:
185,293,138181,6,0,B|124:307|124:307|57:289,1,120,4|0,0:0|0:0,0:0:0:0:
277,219,138497,2,0,L|393:247,1,120,0|8,0:0|0:0,0:0:0:0:
99,156,138812,2,0,L|215:127,1,120
68,292,139128,1,0,0:0:0:0:
277,219,139286,1,8,0:0:0:0:
110,75,139444,1,0,0:0:0:0:
221,312,139602,6,0,P|292:328|350:301,1,120,4|0,0:0|0:0,0:0:0:0:
11,199,139918,2,0,P|67:182|124:199,1,120,8|0,0:0|0:0,0:0:0:0:
342,114,140233,2,0,P|285:97|228:114,1,120
68,292,140549,1,8,0:0:0:0:
30,43,140707,6,0,L|158:50,1,120,4|0,0:0|0:0,0:0:0:0:
160,315,141023,1,0,0:0:0:0:
228,113,141181,2,0,L|347:106,1,120,8|0,0:0|0:0,0:0:0:0:
266,218,141497,1,0,0:0:0:0:
244,13,141655,1,0,0:0:0:0:
466,99,141812,1,8,0:0:0:0:
212,104,141970,1,0,0:0:0:0:
444,317,142128,6,0,B|463:259|463:259|444:197,1,120,4|0,0:0|0:0,0:0:0:0:
180,276,142444,2,0,B|238:295|238:295|300:276,1,120,8|0,0:0|0:0,0:0:0:0:
134,169,142760,2,0,L|10:210,1,120
45,347,143076,1,8,0:0:0:0:
226,101,143233,6,0,P|171:61|112:57,1,120,4|0,0:0|0:0,0:0:0:0:
336,136,143549,2,0,P|398:108|431:59,1,120,0|8,0:0|0:0,0:0:0:0:
250,213,143865,2,0,P|242:280|268:333,1,120
408,351,144181,1,0,0:0:0:0:
186,141,144339,2,0,L|51:147,1,120,8|0,0:0|0:0,0:0:0:0:
239,286,144655,6,0,L|358:280,2,120,4|0|8,0:0|0:0|0:0,0:0:0:0:
116,54,145128,2,0,B|279:47|279:47|348:98,1,240
213,271,145602,2,0,P|184:208|207:147,1,120,8|0,0:0|0:0,0:0:0:0:
448,309,145918,6,0,P|385:338|324:315,2,120,4|0|8,0:0|0:0|0:0,0:0:0:0:
342,109,146391,2,0,P|314:182|428:163,1,240
252,50,146865,2,0,P|213:94|211:153,1,120,8|0,0:0|0:0,0:0:0:0:
489,34,147181,6,0,L|365:26,1,120,4|0,0:0|0:0,0:0:0:0:
185,240,147497,2,0,L|193:116,1,120,8|0,0:0|0:0,0:0:0:0:
453,129,147812,2,0,L|333:136,1,120
254,306,148128,1,8,0:0:0:0:
258,60,148286,6,0,P|193:31|137:49,1,120,4|0,0:0|0:0,0:0:0:0:
64,176,148602,1,0,0:0:0:0:
318,126,148760,2,0,P|347:61|329:5,1,120,8|0,0:0|0:0,0:0:0:0:
252,186,149076,2,0,P|317:215|373:197,1,120
258,60,149391,1,8,0:0:0:0:
442,237,149549,1,0,0:0:0:0:
149,247,149707,6,0,L|20:253,1,120,4|0,0:0|0:0,0:0:0:0:
361,330,150023,2,0,L|232:336,1,120,8|0,0:0|0:0,0:0:0:0:
46,165,150339,5,4,0:0:0:0:
442,237,150497,1,4,0:0:0:0:
105,49,150812,6,0,B|176:93|176:93|146:258,1,240,4|0,0:0|0:0,0:0:0:0:
26,117,151286,1,8,0:0:0:0:
229,210,151444,1,0,0:0:0:0:
47,339,151602,2,0,L|70:208,1,120
286,73,151918,2,0,L|265:191,1,120,8|0,0:0|0:0,0:0:0:0:
130,63,152233,5,12,0:0:0:0:
229,304,152391,1,0,0:0:0:0:
373,51,152549,1,8,0:0:0:0:
122,292,152707,1,0,0:0:0:0:
252,57,152865,1,8,0:0:0:0:
336,316,153023,1,0,0:0:0:0:
336,316,153102,1,0,0:0:0:0:
336,316,153181,1,8,0:0:0:0:
107,51,153339,6,0,B|128:115|128:115|105:167|105:167|123:239|123:239|79:317,1,264.000008056641,4|0,0:0|0:0,0:0:0:0:
16,81,153812,5,8,0:0:0:0:
217,310,153970,1,0,0:0:0:0:
30,64,154128,5,8,0:0:0:0:
314,43,154286,1,0,0:0:0:0:
30,98,154444,5,8,0:0:0:0:
245,323,154602,1,0,0:0:0:0:
129,34,154760,6,0,B|156:100|156:100|115:163,2,143.999995605469,4|0|8,0:0|0:0|0:0,0:0:0:0:
30,316,155233,2,0,P|110:323|110:158,1,287.999991210938
249,365,155707,2,0,P|286:299|290:230,1,143.999995605469,8|0,0:0|0:0,0:0:0:0:
45,91,156023,6,0,L|22:234,2,143.999995605469,4|0|8,0:0|0:0|0:0,0:0:0:0:
307,52,156497,2,0,B|389:92|389:92|358:285,1,287.999991210938
112,168,156970,2,0,L|255:191,1,143.999995605469,8|0,0:0|0:0,0:0:0:0:
19,309,157286,6,0,B|77:288|77:288|134:298,1,120,4|0,0:2|0:0,0:0:0:0:
369,179,157602,2,0,B|311:200|311:200|254:190,1,120,8|0,0:2|0:0,0:0:0:0:
81,130,157918,5,4,0:2:0:0:
307,358,158076,1,4,0:2:0:0:
215,68,158391,6,0,P|328:72|366:186,1,240,4|8,0:2|0:0,0:0:0:0:
239,358,158865,2,0,P|186:258|258:171,1,240,4|8,0:2|0:0,0:0:0:0:
479,193,159339,2,0,P|419:288|301:264,1,240,4|0,0:2|0:0,0:0:0:0:
400,34,159812,6,0,L|368:154,1,120,4|0,0:2|0:0,0:0:0:0:
70,175,160128,2,0,L|190:207,1,120,8|0,0:2|0:0,0:0:0:0:
479,193,160444,5,4,0:2:0:0:
141,315,160602,1,4,0:2:0:0:
441,103,160918,6,0,B|388:45|388:45|220:67,1,240,4|8,0:2|0:0,0:0:0:0:
307,264,161391,2,0,P|385:215|289:209,1,240,4|0,0:2|0:0,0:0:0:0:
408,334,161865,1,4,0:2:0:0:
424,111,162023,2,0,P|351:83|286:93,1,120,8|0,0:0|0:0,0:0:0:0:
46,208,162339,6,0,L|174:197,1,120,4|0,0:2|0:0,0:0:0:0:
351,357,162655,2,0,L|231:346,1,120,8|0,0:0|0:0,0:0:0:0:
231,346,162891,1,0,0:0:0:0:
231,346,162970,1,4,0:2:0:0:
175,214,163128,1,0,0:0:0:0:
89,330,163286,1,0,0:0:0:0:
454,324,163444,6,0,P|422:267|367:250,2,120,4|0|8,0:2|0:0|0:0,0:0:0:0:
269,216,163918,2,0,P|301:159|356:142,2,120,4|0|8,0:2|0:0|0:0,0:0:0:0:
454,108,164391,2,0,P|422:51|367:34,2,120,4|0|8,0:2|0:0|0:0,0:0:0:0:
176,230,164865,5,4,0:2:0:0:
293,50,165023,1,0,0:0:0:0:
348,295,165181,1,8,0:0:0:0:
156,96,165339,1,0,0:0:0:0:
156,96,165418,1,0,0:0:0:0:
156,96,165497,1,0,0:0:0:0:
421,131,165655,1,0,0:0:0:0:
258,342,165812,1,8,0:0:0:0:
49,74,165970,6,0,P|50:146|148:77,1,240,4|0,0:0|0:0,0:0:0:0:
80,254,166444,1,8,0:0:0:0:
293,50,166602,1,0,0:0:0:0:
432,305,166760,5,8,0:0:0:0:
391,324,166838,1,0,0:0:0:0:
347,326,166917,1,0,0:0:0:0:
305,309,166996,1,0,0:0:0:0:
274,277,167075,1,8,0:0:0:0:
228,240,167155,1,0,0:0:0:0:
170,227,167234,1,0,0:0:0:0:
112,242,167313,1,0,0:0:0:0:
67,280,167391,6,0,P|113:337|195:265,1,198.000006042481,4|0,0:2|0:0,0:0:0:0:
137,138,167707,2,0,P|105:157|84:194,1,66.0000020141602,8|0,0:0|0:0,0:0:0:0:
250,360,167865,6,0,P|322:367|329:258,1,198.000006042481,0|0,0:2|0:0,0:0:0:0:
199,210,168181,2,0,P|189:246|201:287,1,66.0000020141602
372,230,168339,2,0,P|381:193|369:152,1,66.0000020141602,8|0,0:0|0:0,0:0:0:0:
100,170,168497,6,0,P|82:250|100:308,1,132.00000402832,4|0,0:0|0:0,0:0:0:0:
337,265,168812,1,0,0:0:0:0:
337,265,168891,1,0,0:0:0:0:
337,265,168970,1,8,0:0:0:0:
67,68,169128,6,0,B|140:47|183:98|196:125|196:125|230:108|256:101|300:124,1,264.000008056641
380,347,169602,2,0,P|312:357|261:314,1,132.00000402832,8|0,0:0|0:0,0:0:0:0:
471,240,169918,5,4,0:0:0:0:
241,322,170076,1,0,0:0:0:0:
284,81,170233,1,8,0:0:0:0:
379,346,170391,1,0,0:0:0:0:
102,297,170549,5,0,0:0:0:0:
332,213,170707,1,0,0:0:0:0:
145,56,170865,1,8,0:0:0:0:
423,106,171023,5,4,0:0:0:0:
260,247,171181,1,0,0:0:0:0:
464,323,171339,1,0,0:0:0:0:
265,164,171497,1,8,0:0:0:0:
469,240,171655,6,0,B|402:239|347:285|347:285|312:353|240:341|208:335,1,264.000008056641
84,142,172128,2,0,P|143:96|203:107,1,132.00000402832,8|0,0:0|0:0,0:0:0:0:
126,345,172444,5,4,0:0:0:0:
141,298,172522,1,0,0:0:0:0:
180,269,172601,1,0,0:0:0:0:
229,268,172680,1,0,0:0:0:0:
269,295,172759,1,8,0:0:0:0:
325,326,172839,1,0,0:0:0:0:
386,306,172918,1,0,0:0:0:0:
413,248,172997,1,0,0:0:0:0:
388,188,173076,2,0,P|329:142|269:153,1,132.00000402832
180,269,173391,1,8,0:0:0:0:
107,47,173549,6,0,L|246:61,1,132.00000402832,4|0,0:0|0:0,0:0:0:0:
394,26,173865,1,0,0:0:0:0:
151,165,174023,2,0,L|19:151,1,132.00000402832,8|0,0:0|0:0,0:0:0:0:
276,149,174339,6,0,P|275:214|223:266,1,132.00000402832
321,352,174576,6,0,P|377:320|448:339,1,132.00000402832
475,212,174812,6,0,P|419:178|399:126,1,66.0000020141602
343,46,174970,6,0,P|411:28|469:63,1,132.00000402832,4|0,0:0|0:0,0:0:0:0:
276,149,175286,2,0,P|208:167|150:132,1,132.00000402832,8|0,0:0|0:0,0:0:0:0:
389,146,175602,5,0,0:0:0:0:
223,59,175760,1,0,0:0:0:0:
231,247,175918,1,8,0:0:0:0:
362,42,176076,6,0,L|496:50,1,132.00000402832,4|0,0:0|0:0,0:0:0:0:
498,194,176391,1,0,0:0:0:0:
238,231,176549,2,0,P|229:155|257:106,1,132.00000402832,8|0,0:0|0:0,0:0:0:0:
420,258,176865,1,0,0:0:0:0:
317,38,177023,5,0,0:0:0:0:
317,38,177102,1,0,0:0:0:0:
317,38,177181,2,0,P|281:19|222:20,1,66.0000020141602,8|0,0:0|0:0,0:0:0:0:
284,198,177339,2,0,P|318:176|347:124,1,66.0000020141602
57,102,177497,5,12,0:0:0:0:
75,138,177575,1,0,0:0:0:0:
108,162,177654,1,0,0:0:0:0:
149,167,177733,1,0,0:0:0:0:
187,154,177812,1,0,0:0:0:0:
395,70,177970,5,12,0:0:0:0:
354,67,178048,1,0,0:0:0:0:
317,84,178127,1,0,0:0:0:0:
292,117,178206,1,0,0:0:0:0:
284,156,178285,1,0,0:0:0:0:
253,378,178444,5,12,0:0:0:0:
276,344,178522,1,0,0:0:0:0:
280,304,178601,1,0,0:0:0:0:
24,98,178760,5,12,0:0:0:0:
45,141,178838,1,0,0:0:0:0:
85,170,178917,1,0,0:0:0:0:
134,176,178996,1,0,0:0:0:0:
180,160,179075,1,0,0:0:0:0:
429,59,179233,5,12,0:0:0:0:
380,56,179311,1,0,0:0:0:0:
336,76,179390,1,0,0:0:0:0:
306,116,179469,1,0,0:0:0:0:
296,162,179548,1,0,0:0:0:0:
330,374,179707,5,12,0:0:0:0:
132,76,179865,1,0,0:0:0:0:
452,333,180023,6,0,P|346:322|331:382,1,180.000006866455,6|2,0:0|0:0,0:0:0:0:
476,242,180497,1,0,0:0:0:0:
249,252,180655,2,0,P|223:297|217:337,1,90.0000034332277,2|0,0:0|0:0,0:0:0:0:
329,373,180970,1,2,0:0:0:0:
287,147,181128,2,0,P|236:160|204:184,1,90.0000034332277,0|2,0:0|0:0,0:0:0:0:
388,99,181444,2,0,P|343:73|303:66,1,90.0000034332277,0|2,0:0|0:0,0:0:0:0:
155,98,181760,1,0,0:0:0:0:
219,332,181918,2,0,P|252:271|239:157,1,180.000006866455,2|2,0:0|0:0,0:0:0:0:
141,113,182391,1,0,0:0:0:0:
283,280,182549,5,2,0:0:0:0:
283,280,182865,2,0,L|388:288,1,90.0000034332277,2|0,0:0|0:0,0:0:0:0:
503,163,183181,2,0,L|398:171,1,90.0000034332277,2|0,0:0|0:0,0:0:0:0:
334,33,183497,2,0,L|265:112,1,90.0000034332277,2|0,0:0|0:0,0:0:0:0:
108,230,183812,6,0,P|88:180|108:138,1,90.0000034332277,2|0,0:0|0:0,0:0:0:0:
159,309,184128,2,0,P|109:329|67:309,1,90.0000034332277,2|0,0:0|0:0,0:0:0:0:
238,258,184444,2,0,P|258:308|238:350,1,90.0000034332277,2|0,0:0|0:0,0:0:0:0:
187,180,184760,2,0,P|237:160|279:180,1,90.0000034332277,2|0,0:0|0:0,0:0:0:0:
390,325,185076,1,6,0:1:0:0:
446,63,185391,6,0,L|450:157,1,90.0000034332277,2|0,0:0|0:0,0:0:0:0:
349,227,185707,1,2,0:0:0:0:
346,138,185865,1,0,0:0:0:0:
452,241,186023,1,2,0:0:0:0:
327,115,186181,2,0,L|233:119,1,90.0000034332277,0|2,0:0|0:0,0:0:0:0:
87,217,186497,2,0,L|83:123,1,90.0000034332277,0|2,0:0|0:0,0:0:0:0:
184,37,186812,1,0,0:0:0:0:
186,228,186970,2,0,L|379:221,1,180.000006866455,2|2,0:0|0:0,0:0:0:0:
134,347,187444,6,0,P|58:242|98:136,1,240,4|0,0:0|0:0,0:0:0:0:
88,145,187839,1,0,0:0:0:0:
88,145,187918,1,0,0:0:0:0:
134,347,188076,6,0,P|156:206|269:155,1,264.000008056641,4|0,0:0|0:0,0:0:0:0:
255,155,188470,1,0,0:0:0:0:
255,155,188549,1,0,0:0:0:0:
134,347,188707,6,0,P|260:255|388:303,1,287.999991210938,4|4,0:0|0:0,0:0:0:0:
95,73,189181,1,4,0:0:0:0:
352,177,189339,5,0,0:0:0:0:
236,371,189497,1,0,0:0:0:0:
458,268,189655,1,0,0:0:0:0:
210,207,189812,1,0,0:0:0:0:
381,383,189970,1,0,0:0:0:0:
255,82,190128,6,0,L|120:93,1,120,4|0,0:0|0:0,0:0:0:0:
376,211,190444,2,0,L|433:88,1,120,8|0,0:0|0:0,0:0:0:0:
203,251,190760,2,0,L|280:362,1,120
446,359,191076,1,8,0:0:0:0:
261,161,191233,6,0,B|201:144|201:144|141:162,1,120,4|0,0:0|0:0,0:0:0:0:
388,144,191549,2,0,B|357:89|357:89|302:59,1,120,0|8,0:0|0:0,0:0:0:0:
34,191,191865,2,0,B|96:191|96:191|149:158,1,120
40,36,192181,1,0,0:0:0:0:
261,189,192339,1,8,0:0:0:0:
22,215,192497,1,0,0:0:0:0:
307,89,192655,6,0,P|370:85|422:119,1,120,4|0,0:0|0:0,0:0:0:0:
156,142,192970,2,0,B|132:87|132:87|161:21,1,120,8|0,0:0|0:0,0:0:0:0:
346,208,193286,2,0,B|370:263|370:263|341:329,1,120
199,378,193602,1,8,0:0:0:0:
127,117,193760,6,0,L|4:132,1,120,4|0,0:0|0:0,0:0:0:0:
156,32,194076,1,0,0:0:0:0:
230,236,194233,2,0,L|107:251,1,120,8|0,0:0|0:0,0:0:0:0:
259,151,194549,5,0,0:0:0:0:
199,378,194707,1,0,0:0:0:0:
33,212,194865,1,8,0:0:0:0:
286,332,195023,1,0,0:0:0:0:
97,72,195181,6,0,P|161:54|216:72,1,120,4|0,0:0|0:0,0:0:0:0:
80,312,195497,2,0,L|68:190,1,120,8|0,0:0|0:0,0:0:0:0:
358,264,195812,2,0,L|236:276,1,120
86,102,196128,1,8,0:0:0:0:
315,183,196286,6,0,B|382:177|382:177|430:133,1,120,4|0,0:0|0:0,0:0:0:0:
169,157,196602,2,0,P|162:219|201:268,1,120,0|8,0:0|0:0,0:0:0:0:
357,48,196918,2,0,L|235:60,1,120
58,127,197233,1,0,0:0:0:0:
397,242,197391,2,0,P|404:180|365:131,1,120,8|0,0:0|0:0,0:0:0:0:
85,331,197707,6,0,L|210:341,2,120,4|0|8,0:0|0:0|0:0,0:0:0:0:
255,128,198181,2,0,B|279:241|279:241|197:350,1,240
45,85,198655,2,0,P|100:59|158:76,1,120,8|0,0:0|0:0,0:0:0:0:
465,171,198970,6,0,P|410:197|352:180,2,120,4|0|8,0:0|0:0|0:0,0:0:0:0:
176,89,199444,2,0,L|197:342,1,240
354,162,199918,2,0,L|345:37,1,120,8|0,0:0|0:0,0:0:0:0:
310,267,200233,6,0,P|371:275|432:245,1,120,4|0,0:0|0:0,0:0:0:0:
204,310,200549,2,0,P|241:358|305:380,1,120,8|0,0:0|0:0,0:0:0:0:
98,265,200865,2,0,P|90:326|119:387,1,120
302,369,201181,1,8,0:0:0:0:
178,153,201339,6,0,L|49:141,1,120,4|0,0:0|0:0,0:0:0:0:
11,16,201655,1,0,0:0:0:0:
202,255,201812,2,0,B|264:261|264:261|331:234,1,120,8|0,0:0|0:0,0:0:0:0:
329,1,202128,2,0,B|292:51|292:51|282:123,1,120,0|0,0:0|0:0,0:0:0:0:
485,237,202444,5,8,0:0:0:0:
187,127,202602,1,0,0:0:0:0:
470,334,202760,2,0,L|343:320,1,120,4|0,0:0|0:0,0:0:0:0:
42,334,203076,2,0,L|169:320,1,120,8|0,0:0|0:0,0:0:0:0:
256,60,203391,5,4,0:0:0:0:
256,324,203549,1,4,0:0:0:0:
41,116,203865,6,0,P|131:146|100:47,1,240,4|0,0:0|0:0,0:0:0:0:
36,230,204339,2,0,P|101:247|153:230,1,120,8|0,0:0|0:0,0:0:0:0:
250,35,204655,2,0,P|265:92|248:148,1,120
367,333,204970,2,0,P|309:317|269:274,1,120,8|0,0:0|0:0,0:0:0:0:
354,58,205286,5,12,0:0:0:0:
102,175,205444,1,0,0:0:0:0:
401,229,205602,1,8,0:0:0:0:
131,64,205760,1,0,0:0:0:0:
446,125,205918,1,8,0:0:0:0:
73,286,206076,1,0,0:0:0:0:
73,286,206155,1,0,0:0:0:0:
73,286,206233,1,8,0:0:0:0:
493,296,206391,6,0,B|453:268|406:284|406:284|382:320|363:351|296:352|256:313|269:262,1,264.000008056641,4|0,0:0|0:0,0:0:0:0:
354,58,206865,5,8,0:0:0:0:
484,274,207023,1,0,0:0:0:0:
322,36,207181,5,8,0:0:0:0:
278,314,207339,1,0,0:0:0:0:
357,19,207497,5,8,0:0:0:0:
391,345,207655,1,0,0:0:0:0:
91,211,207812,6,0,P|60:145|78:73,2,143.999995605469,4|0|8,0:0|0:0|0:0,0:0:0:0:
432,173,208286,2,0,P|469:96|322:97,1,287.999991210938
366,344,208760,2,0,P|435:358|498:327,1,143.999995605469,8|0,0:0|0:0,0:0:0:0:
150,260,209076,6,0,P|80:245|17:276,2,143.999995605469,4|0|8,0:0|0:0|0:0,0:0:0:0:
486,158,209549,2,0,B|403:42|403:42|267:97,1,287.999991210938
178,349,210023,2,0,L|318:293,1,143.999995605469,8|0,0:0|0:0,0:0:0:0:
190,106,210339,5,4,0:0:0:0:
314,308,210497,1,0,0:0:0:0:
333,73,210655,1,8,0:0:0:0:
178,249,210812,1,0,0:0:0:0:
408,196,210970,1,0,0:0:0:0:
188,92,211128,2,0,L|45:98,1,132.00000402832,0|8,0:0|0:0,0:0:0:0:
323,125,211444,6,0,P|332:53|297:7,1,132.00000402832,4|0,0:0|0:0,0:0:0:0:
367,227,211760,2,0,P|424:182|432:125,1,132.00000402832,0|8,0:0|0:0,0:0:0:0:
325,330,212076,2,0,P|397:339|443:304,1,132.00000402832
262,241,212391,5,0,0:0:0:0:
495,235,212549,1,8,0:0:0:0:
373,39,212707,1,0,0:0:0:0:
340,317,212865,5,4,0:0:0:0:
160,271,213023,1,0,0:0:0:0:
290,138,213181,1,8,0:0:0:0:
237,346,213339,1,0,0:0:0:0:
187,167,213497,1,0,0:0:0:0:
367,212,213655,2,0,L|521:225,1,132.00000402832,0|8,0:0|0:0,0:0:0:0:
103,343,213970,6,0,P|79:274|122:213,1,132.00000402832,4|0,0:0|0:0,0:0:0:0:
45,34,214286,2,0,P|116:47|148:115,1,132.00000402832,0|8,0:0|0:0,0:0:0:0:
341,138,214602,5,0,0:0:0:0:
187,167,214760,1,0,0:0:0:0:
290,286,214918,1,0,0:0:0:0:
250,76,215076,1,8,0:0:0:0:
89,216,215233,1,0,0:0:0:0:
451,147,215391,5,4,0:0:0:0:
290,286,215549,1,0,0:0:0:0:
376,345,215707,1,8,0:0:0:0:
365,87,215865,1,0,0:0:0:0:
473,308,216023,1,0,0:0:0:0:
268,125,216181,2,0,L|126:132,1,132.00000402832,0|8,0:0|0:0,0:0:0:0:
479,35,216497,6,0,L|337:42,1,132.00000402832,4|0,0:0|0:0,0:0:0:0:
324,265,216812,2,0,B|387:262|387:262|457:215,1,132.00000402832,0|8,0:0|0:0,0:0:0:0:
256,90,217128,2,0,B|193:93|193:93|123:140,1,132.00000402832
226,318,217444,1,0,0:0:0:0:
48,66,217602,2,0,L|55:208,1,132.00000402832,8|0,0:0|0:0,0:0:0:0:
324,265,217918,5,4,0:0:0:0:
131,259,218076,1,0,0:0:0:0:
320,376,218233,1,8,0:0:0:0:
327,154,218391,2,0,B|237:88|237:88|72:136,1,264.000008056641
324,265,218865,2,0,P|396:241|434:183,1,132.00000402832,8|0,0:0|0:0,0:0:0:0:
229,206,219181,5,4,0:0:0:0:
399,345,219339,1,0,0:0:0:0:
327,154,219497,1,8,0:0:0:0:
206,363,219655,2,0,P|94:350|159:266,1,264.000008056641
424,355,220128,1,8,0:0:0:0:
369,79,220286,5,0,0:0:0:0:
369,79,220365,1,0,0:0:0:0:
369,79,220444,2,0,B|319:43|261:75|261:75|188:51|188:51|106:83,1,264.000008056641,4|8,0:0|0:0,0:0:0:0:
251,237,220918,5,0,0:0:0:0:
23,272,221076,2,0,L|162:283,1,132.00000402832
338,298,221391,1,8,0:0:0:0:
129,142,221549,2,0,L|260:131,1,132.00000402832,4|0,0:0|0:0,0:0:0:0:
444,116,221865,1,0,0:0:0:0:
204,280,222023,6,0,P|137:308|68:284,1,132.00000402832,8|0,0:0|0:0,0:0:0:0:
364,226,222339,2,0,P|421:270|435:341,1,132.00000402832
238,115,222655,2,0,P|247:42|302:-4,1,132.00000402832,8|0,0:0|0:0,0:0:0:0:
453,153,222970,5,4,0:0:0:0:
201,315,223128,1,0,0:0:0:0:
201,315,223207,1,0,0:0:0:0:
201,315,223286,2,0,L|271:311,1,66.0000020141602,8|0,0:0|0:0,0:0:0:0:
488,239,223444,2,0,L|422:242,1,66.0000020141602
106,365,223602,5,4,0:0:0:0:
192,48,223760,1,4,0:0:0:0:
423,280,224076,6,0,L|150:296,1,264.000008056641,4|0,0:0|0:0,0:0:0:0:
159,60,224549,1,8,0:0:0:0:
20,250,224707,1,0,0:0:0:0:
245,177,224865,1,0,0:0:0:0:
20,104,225023,1,0,0:0:0:0:
20,104,225102,1,0,0:0:0:0:
20,104,225181,2,0,L|177:96,1,132.00000402832,8|0,0:0|0:0,0:0:0:0:
379,267,225497,5,12,0:0:0:0:
130,192,225655,1,0,0:0:0:0:
426,135,225812,1,8,0:0:0:0:
183,353,225970,1,0,0:0:0:0:
255,52,226128,1,8,0:0:0:0:
414,302,226286,1,0,0:0:0:0:
446,304,226364,1,0,0:0:0:0:
479,307,226443,1,8,0:0:0:0:
56,73,226602,6,0,B|110:46|168:56|168:56|236:81|236:81|284:67|323:72|344:89,1,287.999991210938,4|0,0:0|0:0,0:0:0:0:
22,248,227076,5,8,0:0:0:0:
235,81,227233,1,0,0:0:0:0:
170,337,227391,1,8,0:0:0:0:
148,27,227549,1,0,0:0:0:0:
338,301,227707,1,8,0:0:0:0:
56,73,227865,1,0,0:0:0:0:
431,244,228023,6,0,P|448:334|400:386,2,155.999992858887,4|0|8,0:0|0:0|0:0,0:0:0:0:
53,239,228497,2,0,B|49:283|78:315|122:317|152:314|180:272|180:272|221:281|221:281|262:271|262:271|310:283|310:283,1,311.999985717774
442,37,228970,2,0,P|366:33|314:87,1,155.999992858887,8|0,0:0|0:0,0:0:0:0:
162,315,229286,6,0,B|93:356|93:356|24:315,2,155.999992858887,4|0|8,0:0|0:0|0:0,0:0:0:0:
313,87,229760,2,0,P|221:69|297:179,1,311.999985717774
110,45,230233,2,0,P|82:120|105:194,1,155.999992858887,8|0,0:0|0:0,0:0:0:0:
480,323,230549,6,0,L|361:330,1,120,4|0,0:0|0:0,0:0:0:0:
361,330,230786,1,0,0:0:0:0:
361,330,230865,1,0,0:0:0:0:
403,55,231023,6,0,L|272:62,1,132.00000402832,4|0,0:0|0:0,0:0:0:0:
271,62,231260,1,0,0:0:0:0:
271,62,231339,1,0,0:0:0:0:
361,330,231497,6,0,L|215:338,1,143.999995605469,4|0,0:0|0:0,0:0:0:0:
217,338,231734,1,0,0:0:0:0:
217,338,231812,1,0,0:0:0:0:
271,62,231970,6,0,L|113:71,1,155.999992858887,4|0,0:0|0:0,0:0:0:0:
115,71,232208,1,0,0:0:0:0:
115,71,232286,1,0,0:0:0:0:
217,338,232444,5,8,0:0:0:0:
36,133,232602,1,0,0:0:0:0:
36,133,232681,1,0,0:0:0:0:
36,133,232760,1,0,0:0:0:0:
361,330,232918,1,8,0:0:0:0:
361,330,233707,5,4,0:1:0:0:
256,192,233865,12,0,237181,0:0:0:0:
