osu file format v14

[General]
AudioFilename: audio.mp3
AudioLeadIn: 0
PreviewTime: -1
Countdown: 1
SampleSet: Normal
StackLeniency: 0.4
Mode: 0
LetterboxInBreaks: 0
WidescreenStoryboard: 0

[Editor]
Bookmarks: 37047
DistanceSpacing: 1
BeatDivisor: 4
GridSize: 32
TimelineZoom: 2

[Metadata]
Title:Zettai Zetsumei
TitleUnicode:Zettai Zetsumei
Artist:C Shu Nie
ArtistUnicode:Cö Shu Nie
Creator:pashty
Version:
Source:
Tags:
BeatmapID:1962593
BeatmapSetID:939612

[Difficulty]
HPDrainRate:5
CircleSize:4
OverallDifficulty:8.6
ApproachRate:9.6
SliderMultiplier:2.8
SliderTickRate:1

[Events]
//Background and Video events
//Break Periods
//Storyboard Layer 0 (Background)
//Storyboard Layer 1 (Fail)
//Storyboard Layer 2 (Pass)
//Storyboard Layer 3 (Foreground)
//Storyboard Sound Samples

[TimingPoints]
334,419.58041958042,4,1,0,100,1,0
334,-100,4,1,0,80,0,0
10403,-133.333333333333,4,1,0,50,0,0
23410,-117.647058823529,4,1,0,50,0,0
23620,-105.263157894737,4,1,0,50,0,0
23830,-200,4,1,0,50,0,0
24669,-142.857142857143,4,1,0,50,0,0
25508,-111.111111111111,4,1,0,50,0,0
26347,-100,4,1,0,50,0,0
29704,-100,4,1,0,80,0,0
30543,-83.3333333333333,4,1,0,100,0,1
34739,-71.4285714285714,4,1,0,100,0,1
34949,-62.5,4,1,0,100,0,1
35159,-55.5555555555556,4,1,0,100,0,1
35368,-50,4,1,0,100,0,1
37251,-83.3333333333333,4,1,0,100,0,1
44809,-100,4,1,0,50,0,0

[HitObjects]
138,78,334,6,0,L|121:151,1,70
217,244,543,1,0,0:0:0:0:
217,244,648,2,0,L|196:166,1,70
289,79,858,1,0,0:0:0:0:
289,79,963,2,0,L|273:153,1,70
306,252,1173,6,0,P|324:216|363:198,1,70
392,289,1382,2,0,P|374:325|336:342,1,70
348,201,1592,6,0,P|366:165|403:145,1,70
434,236,1801,2,0,P|416:272|383:291,1,70
289,79,2012,5,0,0:0:0:0:
303,112,2116,1,0,0:0:0:0:
191,138,2222,5,0,0:0:0:0:
177,171,2326,1,0,0:0:0:0:
188,337,2431,5,0,0:0:0:0:
164,281,2535,1,0,0:0:0:0:
355,236,2641,5,0,0:0:0:0:
379,180,2746,2,0,L|410:112,1,70
398,328,2956,1,0,0:0:0:0:
371,349,3060,1,0,0:0:0:0:
339,340,3165,1,0,0:0:0:0:
285,278,3271,5,0,0:0:0:0:
229,338,3375,1,0,0:0:0:0:
220,221,3480,5,0,0:0:0:0:
164,281,3584,1,0,0:0:0:0:
155,164,3690,6,0,P|193:135|239:137,1,70
326,104,3900,1,0,0:0:0:0:
275,57,4004,1,0,0:0:0:0:
206,53,4110,2,0,L|127:80,1,70
213,132,4320,1,0,0:0:0:0:
213,132,4424,6,0,L|276:191,1,70
267,288,4634,2,0,L|204:229,1,70
331,228,4844,2,0,L|394:287,1,70
374,380,5054,5,0,0:0:0:0:
320,334,5158,1,0,0:0:0:0:
267,288,5263,1,0,0:0:0:0:
215,240,5368,6,0,L|153:179,1,70
222,87,5578,2,0,P|228:134|243:166,1,70
328,177,5788,2,0,P|331:127|354:127,1,70
432,215,5998,2,0,P|407:201|409:234,1,70
481,136,6208,5,0,0:0:0:0:
474,68,6312,1,0,0:0:0:0:
418,31,6417,2,0,L|343:2,1,70
222,87,6627,2,0,L|297:58,1,70
425,145,6837,2,0,L|350:116,1,70
225,207,7047,5,0,0:0:0:0:
292,195,7151,1,0,0:0:0:0:
349,234,7257,2,0,P|368:268|360:313,1,70
234,341,7466,2,0,L|287:285,1,70
225,207,7676,5,0,0:0:0:0:
225,207,7781,2,0,L|172:263,1,70
74,154,7991,2,0,L|127:210,1,70
226,98,8201,2,0,L|173:154,1,70
78,50,8411,5,0,0:0:0:0:
128,99,8515,1,0,0:0:0:0:
177,148,8620,1,0,0:0:0:0:
225,207,8725,2,0,P|243:251|243:294,1,70
334,139,8935,1,0,0:0:0:0:
334,139,9040,2,0,P|316:183|316:226,1,70
396,40,9250,5,0,0:0:0:0:
444,102,9354,1,0,0:0:0:0:
468,177,9459,1,0,0:0:0:0:
463,256,9564,2,0,L|436:331,1,70
290,270,9774,5,0,0:0:0:0:
290,270,9879,1,0,0:0:0:0:
290,270,9984,2,0,L|317:195,1,70
344,333,10194,2,0,P|300:358|261:351,1,70
159,221,10403,6,0,P|200:262|196:315,1,105.000004005432
173,363,10718,1,0,0:0:0:0:
173,363,10823,1,0,0:0:0:0:
374,198,11033,6,0,L|313:256,1,52.5000020027161
320,135,11243,2,0,P|287:92|234:89,1,105.000004005432
159,221,11557,2,0,L|260:152,1,105.000004005432
85,94,11872,6,0,L|135:116,1,52.5000020027161
245,161,12082,2,0,L|180:136,1,52.5000020027161
49,173,12292,2,0,L|98:194,1,52.5000020027161
208,239,12502,2,0,L|143:214,1,52.5000020027161
16,265,12711,5,0,0:0:0:0:
147,361,12815,1,0,0:0:0:0:
208,239,12921,2,0,P|161:253|139:316,1,105.000004005432
147,361,13236,1,0,0:0:0:0:
297,254,13340,6,0,P|287:200|231:160,1,105.000004005432
184,159,13655,1,0,0:0:0:0:
282,40,13760,6,0,B|298:101|298:101|356:150,1,105.000004005432
466,33,14075,2,0,P|414:62|366:52,1,105.000004005432
441,156,14389,2,0,L|491:221,1,52.5000020027161
399,315,14599,2,0,P|423:264|405:220,1,105.000004005432
356,175,14914,1,0,0:0:0:0:
240,276,15019,6,0,P|294:290|334:265,1,105.000004005432
213,359,15334,1,0,0:0:0:0:
213,359,15438,2,0,L|161:395,1,52.5000020027161
62,315,15648,2,0,L|114:351,1,52.5000020027161
226,263,15858,2,0,L|174:299,1,52.5000020027161
75,219,16068,5,0,0:0:0:0:
213,359,16173,1,0,0:0:0:0:
292,189,16278,2,0,B|272:233|272:233|229:244|219:276,1,105.000004005432
282,302,16592,1,0,0:0:0:0:
367,156,16697,6,0,B|357:130|357:130|334:121,1,52.5000020027161
428,242,16907,1,0,0:0:0:0:
469,193,17011,1,0,0:0:0:0:
464,131,17117,2,0,P|447:77|388:44,1,105.000004005432
268,162,17431,2,0,P|323:174|381:139,1,105.000004005432
282,302,17746,2,0,L|246:353,1,52.5000020027161
188,234,17956,6,0,P|150:187|160:134,1,105.000004005432
203,96,18271,1,0,0:0:0:0:
119,288,18375,2,0,B|143:332|192:324|192:324|225:356,1,105.000004005432
255,384,18690,1,0,0:0:0:0:
314,202,18795,2,0,P|303:266|341:317,1,105.000004005432
384,328,19110,1,0,0:0:0:0:
277,127,19215,6,0,L|206:188,1,52.5000020027161
397,243,19424,1,0,0:0:0:0:
255,384,19529,1,0,0:0:0:0:
313,201,19634,2,0,P|345:160|395:147,1,105.000004005432
462,166,19949,1,0,0:0:0:0:
397,243,20054,6,0,L|352:305,1,52.5000020027161
282,159,20264,2,0,B|300:190|300:190|326:212,1,52.5000020027161
367,52,20473,2,0,B|352:17|313:9|313:9|284:28,1,105.000004005432
310,93,20788,1,0,0:0:0:0:
195,59,20893,6,0,L|136:40,1,52.5000020027161
32,128,21103,2,0,L|91:109,1,52.5000020027161
210,241,21313,2,0,P|165:195|170:141,1,105.000004005432
236,173,21627,1,0,0:0:0:0:
312,297,21732,2,0,P|357:251|352:197,1,105.000004005432
286,229,22046,1,0,0:0:0:0:
226,339,22152,6,0,L|199:395,1,52.5000020027161
127,265,22361,2,0,P|139:295|159:310,1,52.5000020027161
232,193,22571,2,0,L|205:249,1,52.5000020027161
127,121,22781,5,0,0:0:0:0:
286,229,22886,1,0,0:0:0:0:
127,265,22991,2,0,L|65:280,1,52.5000020027161
219,350,23201,2,0,L|157:335,1,52.5000020027161
286,229,23410,2,0,P|242:238|207:235,1,59.5000011348725
378,314,23620,2,0,P|340:318|307:344,1,66.4999982242585
457,191,23830,6,0,P|421:208|451:164,1,140
457,191,24669,2,0,P|407:220|448:158,1,195.999994018555
457,191,25508,2,0,P|400:237|450:164,1,251.999992309571
457,191,26347,2,0,P|398:248|450:164,1,280
401,190,27187,6,0,L|362:254,1,70
336,310,27396,1,0,0:0:0:0:
336,310,27501,1,0,0:0:0:0:
342,129,27606,6,0,L|303:193,1,70
277,249,27815,1,0,0:0:0:0:
258,277,27920,1,0,0:0:0:0:
263,57,28026,6,0,L|224:121,1,70
198,177,28235,1,0,0:0:0:0:
162,234,28340,1,0,0:0:0:0:
114,74,28445,6,0,P|153:48|203:54,1,70
319,249,28655,2,0,P|280:275|230:269,1,70
301,68,28865,5,0,0:0:0:0:
369,66,28969,1,0,0:0:0:0:
422,109,29075,2,0,L|477:176,1,70
150,166,29285,5,0,0:0:0:0:
148,97,29389,1,0,0:0:0:0:
191,44,29495,2,0,L|257:-10,1,70
248,317,29704,5,0,0:0:0:0:
126,276,29808,1,0,0:0:0:0:
250,238,29914,1,0,0:0:0:0:
173,342,30019,1,0,0:0:0:0:
175,213,30124,1,0,0:0:0:0:
301,112,30543,6,0,B|372:136|387:202|387:202|416:160,1,167.999994873047
415,298,30858,2,0,P|369:310|332:287,1,83.9999974365235
387,201,31068,1,0,0:0:0:0:
485,230,31173,1,0,0:0:0:0:
415,298,31278,1,0,0:0:0:0:
301,112,31382,6,0,B|273:149|273:149|265:192,1,83.9999974365235
175,330,31592,1,0,0:0:0:0:
175,330,31697,2,0,P|136:289|126:252,1,83.9999974365235
195,116,31907,1,0,0:0:0:0:
268,275,32012,2,0,P|285:304|281:271,1,83.9999974365235
195,116,32222,6,0,B|233:132|233:132|278:108|328:133|328:133|374:100,1,167.999994873047
237,223,32536,2,0,L|339:221,1,83.9999974365235
284,316,32746,5,0,0:0:0:0:
175,330,32851,1,0,0:0:0:0:
73,287,32956,1,0,0:0:0:0:
237,223,33061,2,0,L|149:257,1,83.9999974365235
403,245,33271,1,0,0:0:0:0:
239,181,33376,6,0,L|327:215,1,83.9999974365235
185,100,33585,2,0,P|243:101|271:73,1,83.9999974365235
139,186,33795,1,0,0:0:0:0:
209,341,33900,2,0,B|161:357|161:357|92:342|63:263,1,167.999994873047
210,245,34215,1,0,0:0:0:0:
370,322,34320,2,0,P|407:331|458:315,1,83.9999974365235
445,172,34529,6,0,L|384:277,1,83.9999974365235
443,72,34739,2,0,P|393:82|354:154,1,97.9999970092774
316,300,34949,2,0,P|366:290|406:213,1,112
210,245,35159,2,0,B|174:288|174:288|170:340|204:394,1,125.999996154785
121,220,35368,2,0,B|163:178|163:178|167:126|125:71,1,140
257,316,35578,5,0,0:0:0:0:
161,180,35718,1,0,0:0:0:0:
65,44,35858,1,0,0:0:0:0:
289,214,35998,5,0,0:0:0:0:
161,180,36138,1,0,0:0:0:0:
32,146,36278,1,0,0:0:0:0:
260,134,36417,5,0,0:0:0:0:
161,180,36557,1,0,0:0:0:0:
65,225,36697,1,0,0:0:0:0:
179,89,36837,5,0,0:0:0:0:
161,180,36942,1,0,0:0:0:0:
230,240,37047,1,0,0:0:0:0:
317,210,37152,1,0,0:0:0:0:
334,120,37257,6,0,L|350:5,1,83.9999974365235
391,213,37466,2,0,L|407:328,1,83.9999974365235
230,240,37676,1,0,0:0:0:0:
164,192,37780,1,0,0:0:0:0:
169,112,37886,6,0,B|199:66|256:68|256:68|238:121|267:164,1,167.999994873047
164,192,38201,1,0,0:0:0:0:
319,200,38306,2,0,P|335:158|308:73,1,83.9999974365235
275,296,38515,2,0,L|358:299,1,83.9999974365235
164,192,38725,6,0,B|156:234|156:234|125:249|105:277|105:277|98:316|122:350,1,167.999994873047
268,186,39040,1,0,0:0:0:0:
222,118,39145,2,0,P|175:96|122:112,1,83.9999974365235
211,247,39354,2,0,L|277:175,1,83.9999974365235
95,187,39564,6,0,P|100:261|190:305,1,167.999994873047
222,118,39879,2,0,P|175:96|122:112,1,83.9999974365235
211,247,40089,1,0,0:0:0:0:
267,185,40194,2,0,L|348:95,1,83.9999974365235
300,260,40403,2,0,P|287:305|215:335,1,83.9999974365235
416,148,40613,6,0,B|425:67|364:34|364:34|415:3,1,167.999994873047
474,40,40928,1,0,0:0:0:0:
269,128,41033,6,0,B|236:162|244:196|244:196|284:206|297:236|297:236|301:271,1,167.999994873047
214,270,41347,1,0,0:0:0:0:
183,56,41452,6,0,B|154:124|90:130|90:130|90:103|109:88,1,167.999994873047
114,12,41767,1,0,0:0:0:0:
214,270,41872,6,0,B|252:245|252:245|268:286|301:315|301:315|315:279,1,167.999994873047
319,197,42187,1,0,0:0:0:0:
210,372,42292,5,0,0:0:0:0:
65,277,42431,1,0,0:0:0:0:
44,104,42571,1,0,0:0:0:0:
295,302,42711,5,0,0:0:0:0:
156,294,42850,1,0,0:0:0:0:
72,182,42990,1,0,0:0:0:0:
226,189,43131,6,0,L|332:197,1,83.9999974365235
418,95,43340,1,0,0:0:0:0:
418,95,43445,2,0,L|358:182,1,83.9999974365235
405,310,43655,1,0,0:0:0:0:
405,310,43760,1,0,0:0:0:0:
405,310,43865,6,0,L|358:214,1,83.9999974365235
300,96,44075,1,0,0:0:0:0:
300,96,44180,2,0,L|347:192,1,83.9999974365235
248,259,44390,6,0,L|344:212,1,83.9999974365235
462,154,44600,2,0,L|366:201,1,83.9999974365235
200,171,44809,6,0,P|264:156|300:87,1,140
210,77,45124,1,0,0:0:0:0:
323,222,45229,2,0,B|352:267|352:267|374:279|398:320|398:320|411:356,1,140
307,346,45543,1,0,0:0:0:0:
408,196,45648,2,0,P|391:163|356:143,1,70
263,295,45858,1,0,0:0:0:0:
263,295,45963,6,0,P|280:328|315:348,1,70
323,222,46173,1,0,0:0:0:0:
206,202,46278,2,0,B|173:226|173:226|155:262,1,70
77,343,46487,2,0,P|85:266|46:204,1,140
0,291,46802,1,0,0:0:0:0:
159,252,46907,2,0,L|249:228,1,70
77,343,47117,5,0,0:0:0:0:
136,160,47222,1,0,0:0:0:0:
195,343,47327,2,0,P|223:363|271:359,1,70
318,261,47536,2,0,P|290:241|242:245,1,70
378,364,47746,6,0,P|412:363|441:343,1,70
380,239,47956,2,0,P|346:240|318:261,1,70
