osu file format v14

[General]
AudioFilename: audio.mp3
AudioLeadIn: 0
PreviewTime: -1
Countdown: 1
SampleSet: None
StackLeniency: 0.7
Mode: 0
LetterboxInBreaks: 0
WidescreenStoryboard: 1

[Editor]
DistanceSpacing: 1.5
BeatDivisor: 4
GridSize: 4
TimelineZoom: 1.8

[Metadata]
Title:The Fairly OddParents Theme Song - German [HD]
TitleUnicode:The Fairly OddParents Theme Song - German [HD]
Artist:Butch Hartman & Ron Jones
ArtistUnicode:Butch Hartman & Ron Jones
Creator:AsrielDr33murr
Version:Insane
Source:
Tags:
BeatmapID:1387659
BeatmapSetID:652684

[Difficulty]
HPDrainRate:6
CircleSize:4
OverallDifficulty:8
ApproachRate:8
SliderMultiplier:1.4
SliderTickRate:1

[Events]
//Background and Video events
//Break Periods
//Storyboard Layer 0 (Background)
//Storyboard Layer 1 (Fail)
//Storyboard Layer 2 (Pass)
//Storyboard Layer 3 (Foreground)
//Storyboard Sound Samples

[TimingPoints]
120,594.059405940594,4,2,0,100,1,0
29822,-100,4,2,0,100,0,1
35763,-100,4,2,0,100,0,0

[HitObjects]
232,192,120,5,0,0:0:0:0:
76,192,417,1,0,0:0:0:0:
72,328,565,1,0,0:0:0:0:
232,332,714,1,0,0:0:0:0:
372,336,1011,2,0,P|400:272|400:264,1,70
368,112,1605,1,0,0:0:0:0:
360,28,1753,2,0,P|336:36|328:48,1,35
60,276,2199,5,0,0:0:0:0:
48,356,2347,2,0,P|72:352|88:336,1,35
80,68,2793,5,0,0:0:0:0:
256,344,3090,1,0,0:0:0:0:
448,80,3387,1,0,0:0:0:0:
156,284,3684,6,0,P|116:260|104:240,1,70
180,168,4278,1,0,0:0:0:0:
180,176,4426,1,0,0:0:0:0:
180,176,4575,1,0,0:0:0:0:
252,104,4872,2,0,P|276:108|280:128,1,35
232,208,5169,1,0,0:0:0:0:
152,264,5466,1,0,0:0:0:0:
96,236,5615,1,0,0:0:0:0:
68,176,5763,2,0,P|120:152|160:160,1,70
288,140,6357,5,0,0:0:0:0:
304,48,6506,2,0,P|320:64|328:88,1,35
104,280,6951,1,0,0:0:0:0:
120,220,7100,2,0,P|140:232|148:248,1,35
64,196,7545,6,0,P|120:172|140:172,1,70
216,168,8139,2,0,P|244:168|256:176,2,35
392,180,8733,6,0,L|392:136,1,35
320,124,9030,1,0,0:0:0:0:
224,128,9179,2,0,L|220:188,1,35
136,168,9476,2,0,L|136:120,1,35
60,120,9773,2,0,P|68:84|112:68,1,70
260,88,10219,1,0,0:0:0:0:
288,152,10367,1,0,0:0:0:0:
284,228,10516,1,0,0:0:0:0:
224,280,10664,1,0,0:0:0:0:
156,288,10813,1,0,0:0:0:0:
52,120,11110,6,0,P|80:88|92:84,1,35
136,156,11407,1,0,0:0:0:0:
276,84,11704,2,0,P|328:108|336:108,2,35
432,108,12298,1,0,0:0:0:0:
436,144,12446,1,0,0:0:0:0:
440,192,12595,2,0,P|420:232|396:256,1,70
52,340,13189,5,0,0:0:0:0:
60,232,13337,2,0,P|88:240|96:248,1,35
128,136,13783,2,0,L|176:136,2,35
248,136,14377,1,0,0:0:0:0:
276,136,14525,1,0,0:0:0:0:
336,136,14674,2,0,P|364:172|348:208,2,70
60,56,15565,5,0,0:0:0:0:
140,76,15714,2,0,P|136:104|120:116,1,35
224,56,16159,1,0,0:0:0:0:
308,60,16308,2,0,P|292:84|280:104,1,35
336,176,16753,2,0,P|288:208|212:232,1,105
168,208,17347,1,0,0:0:0:0:
104,176,17496,2,0,P|108:152|124:140,1,35
152,84,17941,2,0,P|200:76|208:88,2,70
120,144,18684,1,0,0:0:0:0:
136,200,18832,1,0,0:0:0:0:
192,224,18981,1,0,0:0:0:0:
272,224,19129,2,0,P|284:208|272:152,1,70
232,80,19723,6,0,L|196:124,1,35
124,176,20020,2,0,L|164:208,1,35
288,220,20318,2,0,L|320:172,1,35
232,164,20615,1,0,0:0:0:0:
144,160,20763,2,0,P|152:136|168:124,1,35
256,92,21209,1,0,0:0:0:0:
312,104,21357,1,0,0:0:0:0:
348,152,21506,1,0,0:0:0:0:
408,312,21803,6,0,P|388:324|368:340,1,35
316,264,22100,1,0,0:0:0:0:
176,256,22397,2,0,P|192:220|200:216,2,35
96,192,22842,1,0,0:0:0:0:
104,168,22991,1,0,0:0:0:0:
128,136,23139,1,0,0:0:0:0:
252,140,23288,5,0,0:0:0:0:
280,180,23436,1,0,0:0:0:0:
276,244,23585,2,0,P|264:284|232:316,1,70
116,268,24030,1,0,0:0:0:0:
112,212,24179,1,0,0:0:0:0:
112,152,24327,2,0,L|112:104,1,35
120,44,24624,2,0,L|176:40,1,35
272,68,25070,5,0,0:0:0:0:
304,132,25219,1,0,0:0:0:0:
312,200,25367,1,0,0:0:0:0:
268,284,25664,2,0,P|236:308|224:308,1,35
204,232,25961,1,0,0:0:0:0:
60,136,26258,2,0,P|84:104|96:104,1,35
144,164,26555,1,0,0:0:0:0:
280,100,26852,6,0,P|308:120|312:128,2,35
72,304,27446,5,0,0:0:0:0:
144,68,27743,1,0,0:0:0:0:
56,116,28040,5,0,0:0:0:0:
304,300,28337,1,0,0:0:0:0:
320,96,28634,5,0,0:0:0:0:
96,300,28931,1,0,0:0:0:0:
92,112,29228,5,0,0:0:0:0:
320,312,29525,2,0,P|276:332|240:340,1,70
112,128,30119,5,0,0:0:0:0:
112,128,30268,1,0,0:0:0:0:
288,136,30417,2,0,P|292:92|260:68,1,70
116,88,30862,1,0,0:0:0:0:
128,248,31011,2,0,P|168:256|220:256,2,70
140,120,31753,5,0,0:0:0:0:
416,192,31902,1,0,0:0:0:0:
184,336,32050,2,0,L|136:296,1,35
92,164,32347,2,0,P|116:128|156:112,1,70
256,120,32793,1,0,0:0:0:0:
308,156,32941,1,0,0:0:0:0:
336,208,33090,1,0,0:0:0:0:
224,312,33238,1,0,0:0:0:0:
96,188,33387,2,0,P|116:156|164:128,1,70
328,132,33832,2,0,P|352:148|352:168,1,35
72,336,34129,5,0,0:0:0:0:
240,56,34278,1,0,0:0:0:0:
240,344,34426,1,0,0:0:0:0:
108,152,34575,2,0,P|164:152|188:168,2,70
104,216,35318,1,0,0:0:0:0:
168,256,35466,1,0,0:0:0:0:
240,260,35615,1,0,0:0:0:0:
384,224,35763,6,0,L|356:176,1,35
280,88,36060,1,0,0:0:0:0:
60,228,36357,2,0,P|68:260|96:260,1,35
176,184,36654,1,0,0:0:0:0:
312,84,36951,2,0,P|344:112|344:128,2,35
172,128,37545,1,0,0:0:0:0:
172,128,37694,1,0,0:0:0:0:
172,128,37842,1,0,0:0:0:0:
104,252,38139,6,0,P|148:276|180:280,2,70
92,212,38882,1,0,0:0:0:0:
108,160,39030,1,0,0:0:0:0:
156,120,39179,1,0,0:0:0:0:
216,96,39327,2,0,P|260:104|272:116,2,35
312,112,39773,1,0,0:0:0:0:
344,168,39921,2,0,P|352:212|328:244,1,70
248,248,40367,2,0,P|228:252|208:248,1,35
72,76,40664,5,0,0:0:0:0:
240,280,40961,1,0,0:0:0:0:
392,80,41258,1,0,0:0:0:0:
296,156,41407,1,0,0:0:0:0:
208,240,41555,2,0,P|180:280|184:292,2,35
136,312,42001,1,0,0:0:0:0:
