osu file format v14

[General]
AudioFilename: audio.mp3
AudioLeadIn: 0
PreviewTime: 47397
Countdown: 0
SampleSet: None
StackLeniency: 0.7
Mode: 1
LetterboxInBreaks: 0
WidescreenStoryboard: 1

[Editor]
DistanceSpacing: 0.9
BeatDivisor: 3
GridSize: 32
TimelineZoom: 2.7

[Metadata]
Title:Straight
TitleUnicode:Straight
Artist:Butch
ArtistUnicode:Butch
Creator:DarkVortex
Version:Futsuu
Source:Brave Dwarves 2
Tags:valery belozertsev
BeatmapID:1673834
BeatmapSetID:796976

[Difficulty]
HPDrainRate:7
CircleSize:2
OverallDifficulty:4
ApproachRate:5
SliderMultiplier:1.3999999666214
SliderTickRate:1

[Events]
//Background and Video events
0,0,"light_globe_forest_w1.jpg",0,0
//Break Periods
//Storyboard Layer 0 (Background)
//Storyboard Layer 1 (Fail)
//Storyboard Layer 2 (Pass)
//Storyboard Layer 3 (Foreground)
//Storyboard Sound Samples

[TimingPoints]
150,437.518685693868,4,1,0,60,1,0
150,-66.6666666666667,4,1,0,60,0,0
105154,-66.6666666666667,4,1,0,60,0,1
136655,-66.6666666666667,4,1,0,60,0,0

[HitObjects]
256,192,150,5,0,0:0:0:0:
256,192,587,1,0,0:0:0:0:
256,192,1025,1,0,0:0:0:0:
256,192,1462,1,0,0:0:0:0:
256,192,1900,1,8,0:0:0:0:
256,192,2337,1,0,0:0:0:0:
256,192,2775,1,0,0:0:0:0:
256,192,3212,1,0,0:0:0:0:
256,192,3650,1,0,0:0:0:0:
256,192,4087,1,0,0:0:0:0:
256,192,4525,1,0,0:0:0:0:
256,192,4962,1,0,0:0:0:0:
256,192,5254,1,0,0:0:0:0:
256,192,5400,1,8,0:0:0:0:
256,192,6275,1,0,0:0:0:0:
256,192,6712,1,8,0:0:0:0:
256,192,7150,1,0,0:0:0:0:
256,192,7587,1,8,0:0:0:0:
256,192,8025,1,0,0:0:0:0:
256,192,8171,1,8,0:0:0:0:
256,192,8462,1,8,0:0:0:0:
256,192,8754,1,0,0:0:0:0:
256,192,8900,1,8,0:0:0:0:
256,192,9775,1,8,0:0:0:0:
256,192,10212,1,8,0:0:0:0:
256,192,10504,1,0,0:0:0:0:
256,192,10650,1,0,0:0:0:0:
256,192,11087,1,8,0:0:0:0:
256,192,11525,1,0,0:0:0:0:
256,192,11671,1,8,0:0:0:0:
256,192,11963,1,8,0:0:0:0:
256,192,12254,1,0,0:0:0:0:
256,192,12400,1,8,0:0:0:0:
256,192,13275,1,8,0:0:0:0:
256,192,13713,1,8,0:0:0:0:
256,192,14004,1,8,0:0:0:0:
256,192,14150,1,0,0:0:0:0:
256,192,14588,1,8,0:0:0:0:
256,192,15025,1,0,0:0:0:0:
256,192,15171,1,8,0:0:0:0:
256,192,15463,1,8,0:0:0:0:
256,192,15900,1,0,0:0:0:0:
256,192,16338,1,8,0:0:0:0:
256,192,16775,1,8,0:0:0:0:
256,192,17067,1,8,0:0:0:0:
256,192,17213,1,0,0:0:0:0:
256,192,17504,1,8,0:0:0:0:
256,192,17650,1,0,0:0:0:0:
256,192,18088,1,8,0:0:0:0:
256,192,18525,1,0,0:0:0:0:
256,192,18671,1,8,0:0:0:0:
256,192,18963,1,8,0:0:0:0:
256,192,19400,1,0,0:0:0:0:
256,192,19692,1,0,0:0:0:0:
256,192,19838,1,8,0:0:0:0:
256,192,20275,1,8,0:0:0:0:
256,192,20567,1,8,0:0:0:0:
256,192,20713,1,8,0:0:0:0:
256,192,21005,1,8,0:0:0:0:
256,192,21150,1,8,0:0:0:0:
256,192,21588,1,8,0:0:0:0:
256,192,22025,1,0,0:0:0:0:
256,192,22171,1,8,0:0:0:0:
256,192,22463,1,8,0:0:0:0:
256,192,22900,1,0,0:0:0:0:
256,192,23338,1,8,0:0:0:0:
256,192,23776,1,0,0:0:0:0:
256,192,24067,1,8,0:0:0:0:
256,192,24213,1,8,0:0:0:0:
256,192,24505,1,8,0:0:0:0:
256,192,24651,1,0,0:0:0:0:
256,192,25088,1,8,0:0:0:0:
256,192,25526,1,0,0:0:0:0:
256,192,25671,1,8,0:0:0:0:
256,192,25963,1,8,0:0:0:0:
256,192,26401,1,0,0:0:0:0:
256,192,26838,1,8,0:0:0:0:
256,192,27276,1,0,0:0:0:0:
256,192,27713,1,8,0:0:0:0:
256,192,28005,1,8,0:0:0:0:
256,192,28151,1,0,0:0:0:0:
256,192,28588,1,8,0:0:0:0:
256,192,29026,1,0,0:0:0:0:
256,192,29172,1,8,0:0:0:0:
256,192,29463,1,8,0:0:0:0:
256,192,29755,1,0,0:0:0:0:
256,192,29901,1,0,0:0:0:0:
256,192,30338,1,8,0:0:0:0:
256,192,30776,1,8,0:0:0:0:
256,192,31067,1,8,0:0:0:0:
256,192,31213,1,0,0:0:0:0:
256,192,31505,1,8,0:0:0:0:
256,192,31651,1,0,0:0:0:0:
256,192,32088,1,8,0:0:0:0:
256,192,32526,1,0,0:0:0:0:
256,192,32672,1,8,0:0:0:0:
256,192,32963,1,8,0:0:0:0:
256,192,33401,1,0,0:0:0:0:
256,192,33693,1,0,0:0:0:0:
256,192,33838,1,8,0:0:0:0:
256,192,34276,1,8,0:0:0:0:
256,192,34568,1,8,0:0:0:0:
256,192,34713,1,8,0:0:0:0:
256,192,35005,1,8,0:0:0:0:
256,192,35151,1,8,0:0:0:0:
256,192,35589,1,8,0:0:0:0:
256,192,36026,1,0,0:0:0:0:
256,192,36172,1,8,0:0:0:0:
256,192,36464,1,8,0:0:0:0:
256,192,36755,1,0,0:0:0:0:
256,192,36901,1,8,0:0:0:0:
256,192,37339,1,8,0:0:0:0:
256,192,37776,1,0,0:0:0:0:
256,192,38068,1,8,0:0:0:0:
256,192,38214,1,8,0:0:0:0:
256,192,38505,1,8,0:0:0:0:
256,192,38651,1,0,0:0:0:0:
256,192,39089,1,8,0:0:0:0:
256,192,39526,1,0,0:0:0:0:
256,192,39672,1,8,0:0:0:0:
256,192,39964,1,8,0:0:0:0:
256,192,40401,1,0,0:0:0:0:
256,192,40839,1,8,0:0:0:0:
256,192,41276,1,0,0:0:0:0:
256,192,41714,1,8,0:0:0:0:
256,192,42005,1,8,0:0:0:0:
256,192,42151,1,0,0:0:0:0:
256,192,42589,1,8,0:0:0:0:
256,192,43026,1,0,0:0:0:0:
256,192,43172,1,8,0:0:0:0:
256,192,43464,1,8,0:0:0:0:
256,192,43901,1,8,0:0:0:0:
256,192,44776,1,0,0:0:0:0:
256,192,45214,1,8,0:0:0:0:
256,192,45651,1,0,0:0:0:0:
256,192,45943,1,0,0:0:0:0:
256,192,46089,1,8,0:0:0:0:
256,192,46526,1,0,0:0:0:0:
256,192,46672,1,8,0:0:0:0:
256,192,46964,1,8,0:0:0:0:
256,192,47256,1,0,0:0:0:0:
256,192,47402,1,8,0:0:0:0:
256,192,48277,1,8,0:0:0:0:
256,192,48714,1,8,0:0:0:0:
256,192,49152,1,0,0:0:0:0:
256,192,49589,1,8,0:0:0:0:
256,192,49735,1,8,0:0:0:0:
256,192,49881,1,8,0:0:0:0:
256,192,50027,1,0,0:0:0:0:
256,192,50464,1,8,0:0:0:0:
256,192,50902,1,0,0:0:0:0:
256,192,51339,1,0,0:0:0:0:
256,192,51485,1,0,0:0:0:0:
256,192,51631,1,0,0:0:0:0:
256,192,51777,1,8,0:0:0:0:
256,192,52652,1,0,0:0:0:0:
256,192,53089,1,8,0:0:0:0:
256,192,53235,1,8,0:0:0:0:
256,192,53381,1,8,0:0:0:0:
256,192,53527,1,8,0:0:0:0:
256,192,53964,1,8,0:0:0:0:
256,192,54402,1,0,0:0:0:0:
256,192,54839,1,0,0:0:0:0:
256,192,55131,1,0,0:0:0:0:
256,192,55277,1,8,0:0:0:0:
256,192,56152,1,0,0:0:0:0:
256,192,56589,1,8,0:0:0:0:
256,192,56735,1,0,0:0:0:0:
256,192,56881,1,0,0:0:0:0:
256,192,57027,1,8,0:0:0:0:
256,192,57902,1,0,0:0:0:0:
256,192,58339,1,8,0:0:0:0:
256,192,58485,1,0,0:0:0:0:
256,192,58631,1,0,0:0:0:0:
256,192,58777,1,8,0:0:0:0:
256,192,59652,1,0,0:0:0:0:
256,192,60090,1,8,0:0:0:0:
256,192,60235,1,0,0:0:0:0:
256,192,60381,1,0,0:0:0:0:
256,192,60527,1,8,0:0:0:0:
256,192,60965,1,8,0:0:0:0:
256,192,61256,1,0,0:0:0:0:
256,192,61402,1,8,0:0:0:0:
256,192,61694,1,8,0:0:0:0:
256,192,61985,1,8,0:0:0:0:
256,192,62277,1,8,0:0:0:0:
256,192,62569,1,8,0:0:0:0:
256,192,63152,1,0,0:0:0:0:
256,192,63590,1,8,0:0:0:0:
256,192,63736,1,8,0:0:0:0:
256,192,63881,1,8,0:0:0:0:
256,192,64027,1,0,0:0:0:0:
256,192,64465,1,0,0:0:0:0:
256,192,64902,1,8,0:0:0:0:
256,192,65340,1,0,0:0:0:0:
256,192,65486,1,0,0:0:0:0:
256,192,65631,1,0,0:0:0:0:
256,192,65777,1,8,0:0:0:0:
256,192,66652,1,0,0:0:0:0:
256,192,67090,1,8,0:0:0:0:
256,192,67236,1,8,0:0:0:0:
256,192,67382,1,8,0:0:0:0:
256,192,67527,1,8,0:0:0:0:
256,192,67965,1,8,0:0:0:0:
256,192,68402,1,0,0:0:0:0:
256,192,68840,1,0,0:0:0:0:
256,192,69132,1,0,0:0:0:0:
256,192,69277,1,8,0:0:0:0:
256,192,70152,1,0,0:0:0:0:
256,192,70590,1,8,0:0:0:0:
256,192,70736,1,0,0:0:0:0:
256,192,70882,1,0,0:0:0:0:
256,192,71028,1,8,0:0:0:0:
256,192,71903,1,0,0:0:0:0:
256,192,72340,1,8,0:0:0:0:
256,192,72486,1,0,0:0:0:0:
256,192,72632,1,0,0:0:0:0:
256,192,72778,1,8,0:0:0:0:
256,192,73653,1,0,0:0:0:0:
256,192,74090,1,8,0:0:0:0:
256,192,74236,1,0,0:0:0:0:
256,192,74382,1,0,0:0:0:0:
256,192,74528,1,8,0:0:0:0:
256,192,74965,1,8,0:0:0:0:
256,192,75257,1,0,0:0:0:0:
256,192,75403,1,8,0:0:0:0:
256,192,75694,1,8,0:0:0:0:
256,192,75986,1,8,0:0:0:0:
256,192,76278,1,8,0:0:0:0:
256,192,76569,1,8,0:0:0:0:
256,192,77153,1,0,0:0:0:0:
256,192,77590,1,8,0:0:0:0:
256,192,78028,1,0,0:0:0:0:
256,192,78465,1,8,0:0:0:0:
256,192,78903,1,8,0:0:0:0:
256,192,79778,1,0,0:0:0:0:
256,192,80653,1,8,0:0:0:0:
256,192,81090,1,8,0:0:0:0:
256,192,81528,1,0,0:0:0:0:
256,192,81965,1,0,0:0:0:0:
256,192,82403,1,8,0:0:0:0:
256,192,83278,1,0,0:0:0:0:
256,192,84153,1,8,0:0:0:0:
256,192,84591,1,8,0:0:0:0:
256,192,85028,1,0,0:0:0:0:
256,192,85466,1,8,0:0:0:0:
256,192,85903,1,8,0:0:0:0:
256,192,86778,1,0,0:0:0:0:
256,192,87653,1,8,0:0:0:0:
256,192,88091,1,8,0:0:0:0:
256,192,88528,1,8,0:0:0:0:
256,192,88966,1,0,0:0:0:0:
256,192,89403,1,8,0:0:0:0:
256,192,90278,1,8,0:0:0:0:
256,192,91153,1,0,0:0:0:0:
256,192,91591,1,8,0:0:0:0:
256,192,92028,1,0,0:0:0:0:
256,192,92466,1,8,0:0:0:0:
256,192,92903,1,8,0:0:0:0:
256,192,93778,1,0,0:0:0:0:
256,192,94654,1,0,0:0:0:0:
256,192,95091,1,8,0:0:0:0:
256,192,95529,1,0,0:0:0:0:
256,192,95966,1,8,0:0:0:0:
256,192,96404,1,8,0:0:0:0:
256,192,97279,1,0,0:0:0:0:
256,192,98154,1,8,0:0:0:0:
256,192,98591,1,8,0:0:0:0:
256,192,99029,1,0,0:0:0:0:
256,192,99466,1,8,0:0:0:0:
256,192,99904,1,8,0:0:0:0:
256,192,100779,1,0,0:0:0:0:
256,192,101654,1,8,0:0:0:0:
256,192,102091,1,8,0:0:0:0:
256,192,102529,1,0,0:0:0:0:
256,192,102966,1,8,0:0:0:0:
256,192,103404,1,0,0:0:0:0:
256,192,104279,1,8,0:0:0:0:
256,192,105154,1,0,0:0:0:0:
256,192,105592,1,8,0:0:0:0:
256,192,106029,1,0,0:0:0:0:
256,192,106175,1,8,0:0:0:0:
256,192,106467,1,8,0:0:0:0:
256,192,106904,1,8,0:0:0:0:
256,192,107050,1,0,0:0:0:0:
256,192,107196,1,0,0:0:0:0:
256,192,107342,1,8,0:0:0:0:
256,192,108217,1,0,0:0:0:0:
256,192,108654,1,8,0:0:0:0:
256,192,109092,1,8,0:0:0:0:
256,192,109237,1,8,0:0:0:0:
256,192,109383,1,8,0:0:0:0:
256,192,109529,1,0,0:0:0:0:
256,192,110258,1,0,0:0:0:0:
256,192,110404,1,8,0:0:0:0:
256,192,110842,1,8,0:0:0:0:
256,192,110988,1,8,0:0:0:0:
256,192,111133,1,8,0:0:0:0:
256,192,111279,1,0,0:0:0:0:
256,192,112154,1,8,0:0:0:0:
256,192,112592,1,8,0:0:0:0:
256,192,113029,1,8,0:0:0:0:
256,192,113467,1,8,0:0:0:0:
256,192,113904,1,0,0:0:0:0:
256,192,114050,1,0,0:0:0:0:
256,192,114196,1,0,0:0:0:0:
256,192,114342,1,8,0:0:0:0:
256,192,114779,1,8,0:0:0:0:
256,192,115654,1,8,0:0:0:0:
256,192,115946,1,8,0:0:0:0:
256,192,116092,1,8,0:0:0:0:
256,192,116529,1,8,0:0:0:0:
256,192,116821,1,0,0:0:0:0:
256,192,116967,1,8,0:0:0:0:
256,192,117259,1,0,0:0:0:0:
256,192,117405,1,8,0:0:0:0:
256,192,118280,1,8,0:0:0:0:
256,192,118571,1,8,0:0:0:0:
256,192,118717,1,8,0:0:0:0:
256,192,119009,1,8,0:0:0:0:
256,192,119155,1,0,0:0:0:0:
256,192,119592,1,8,0:0:0:0:
256,192,120030,1,0,0:0:0:0:
256,192,120175,1,8,0:0:0:0:
256,192,120467,1,8,0:0:0:0:
256,192,120905,1,8,0:0:0:0:
256,192,121050,1,0,0:0:0:0:
256,192,121196,1,0,0:0:0:0:
256,192,121342,1,8,0:0:0:0:
256,192,122217,1,0,0:0:0:0:
256,192,122655,1,8,0:0:0:0:
256,192,123092,1,8,0:0:0:0:
256,192,123238,1,8,0:0:0:0:
256,192,123384,1,8,0:0:0:0:
256,192,123530,1,0,0:0:0:0:
256,192,124259,1,0,0:0:0:0:
256,192,124405,1,8,0:0:0:0:
256,192,124842,1,8,0:0:0:0:
256,192,124988,1,8,0:0:0:0:
256,192,125134,1,8,0:0:0:0:
256,192,125280,1,0,0:0:0:0:
256,192,126155,1,8,0:0:0:0:
256,192,126592,1,8,0:0:0:0:
256,192,127030,1,8,0:0:0:0:
256,192,127467,1,8,0:0:0:0:
256,192,127905,1,0,0:0:0:0:
256,192,128051,1,0,0:0:0:0:
256,192,128197,1,0,0:0:0:0:
256,192,128342,1,8,0:0:0:0:
256,192,128780,1,8,0:0:0:0:
256,192,129655,1,8,0:0:0:0:
256,192,130093,1,8,0:0:0:0:
256,192,130530,1,0,0:0:0:0:
256,192,130822,1,8,0:0:0:0:
256,192,130968,1,8,0:0:0:0:
256,192,131259,1,0,0:0:0:0:
256,192,131405,1,8,0:0:0:0:
256,192,132280,1,8,0:0:0:0:
256,192,132572,1,8,0:0:0:0:
256,192,132718,1,8,0:0:0:0:
256,192,133009,1,8,0:0:0:0:
256,192,133155,1,0,0:0:0:0:
256,192,133593,1,8,0:0:0:0:
256,192,134030,1,0,0:0:0:0:
256,192,134468,1,8,0:0:0:0:
256,192,134905,1,0,0:0:0:0:
256,192,135780,1,8,0:0:0:0:
256,192,136218,1,8,0:0:0:0:
256,192,136655,1,0,0:0:0:0:
256,192,137093,1,8,0:0:0:0:
256,192,137530,1,0,0:0:0:0:
256,192,137968,1,8,0:0:0:0:
256,192,138405,1,0,0:0:0:0:
256,192,139280,1,8,0:0:0:0:
256,192,139718,1,8,0:0:0:0:
