osu file format v14

[General]
AudioFilename: audio.mp3
AudioLeadIn: 0
PreviewTime: 48868
Countdown: 0
SampleSet: Normal
StackLeniency: 0.7
Mode: 0
LetterboxInBreaks: 0
WidescreenStoryboard: 0

[Editor]
DistanceSpacing: 1
BeatDivisor: 4
GridSize: 4
TimelineZoom: 2.5

[Metadata]
Title:Masshirona kutsu
TitleUnicode:真っ白な靴
Artist:Butaotome
ArtistUnicode:豚乙女
Creator:302Jjardiolin
Version:Advanced
Source:Sound Voltex
Tags:
BeatmapID:1847187
BeatmapSetID:883668

[Difficulty]
HPDrainRate:4.5
CircleSize:3
OverallDifficulty:5
ApproachRate:6
SliderMultiplier:1
SliderTickRate:1

[Events]
//Background and Video events
0,0,"masshironakutsu.jpg",0,0
//Break Periods
2,70838,78084
//Storyboard Layer 0 (Background)
//Storyboard Layer 1 (Fail)
//Storyboard Layer 2 (Pass)
//Storyboard Layer 3 (Foreground)
//Storyboard Sound Samples

[TimingPoints]
550,265.486725663717,4,1,1,80,1,0
49399,-100,4,1,1,80,0,1
70638,-100,4,1,1,80,0,0
80196,-100,4,1,1,80,0,1
100373,-100,4,1,1,80,0,0

[Colours]
Combo1 : 157,206,255
Combo2 : 238,157,255
Combo3 : 211,157,255
Combo4 : 184,157,255

[HitObjects]
131,155,6921,6,0,P|153:124|180:111,1,50,10|10,0:0|0:0,0:0:0:0:
206,184,7319,2,0,P|232:160|261:158,1,50,10|10,0:0|0:0,0:0:0:0:
281,228,7718,2,0,P|304:210|337:210,1,50,10|10,0:0|0:0,0:0:0:0:
361,278,8116,2,0,P|394:268|419:277,1,50,10|10,0:0|0:0,0:0:0:0:
477,312,8514,1,10,0:0:0:0:
397,304,8780,1,10,0:0:0:0:
447,365,9045,6,0,P|408:345|350:351,2,100,6|8|2,0:0|0:0|0:0,0:0:0:0:
383,262,9842,1,8,0:0:0:0:
466,176,10107,2,0,P|375:154|355:158,1,100,2|8,0:0|0:0,0:0:0:0:
418,44,10638,1,2,0:0:0:0:
308,92,10903,1,8,0:0:0:0:
316,211,11169,6,0,P|279:173|230:168,1,100,2|8,0:0|0:0,0:0:0:0:
248,286,11700,1,2,0:0:0:0:
131,258,11965,2,0,L|81:224,1,50,8|2,0:0|0:0,0:0:0:0:
62,199,12231,2,0,P|79:162|139:135,1,100,2|8,0:0|0:0,0:0:0:0:
180,244,12762,1,2,0:0:0:0:
182,124,13027,2,0,P|219:113|246:115,2,50,8|0|2,0:0|0:0|0:0,0:0:0:0:
272,202,13558,5,8,0:0:0:0:
317,90,13824,2,0,P|372:97|416:126,1,100,2|8,0:0|0:0,0:0:0:0:
357,228,14355,2,0,B|383:258|426:224|464:254,1,100,2|8,0:0|0:0,0:0:0:0:
372,336,14886,1,2,0:0:0:0:
307,235,15151,1,8,0:0:0:0:
293,354,15417,6,0,P|254:306|204:288,1,100,2|8,0:0|0:0,0:0:0:0:
340,287,15948,1,2,0:0:0:0:
263,194,16213,2,0,P|314:157|373:152,1,100,8|2,0:0|0:0,0:0:0:0:
440,228,16744,1,8,0:0:0:0:
424,108,17010,2,0,P|484:142|501:184,1,100,2|8,0:0|0:0,0:0:0:0:
325,150,17541,5,6,0:0:0:0:
145,165,17939,2,0,L|168:231,1,50,2|8,0:0|0:0,0:0:0:0:
252,170,18337,2,0,P|271:224|273:280,1,100
361,188,18868,2,0,L|390:242,2,50,2|2|8,0:0|0:0|0:0,0:0:0:0:
263,210,19399,2,0,P|311:150|319:113,1,100,0|2,0:0|0:0,0:0:0:0:
136,96,20063,2,0,L|99:42,1,50,2|8,0:0|0:0,0:0:0:0:
227,55,20461,1,0,0:0:0:0:
183,166,20726,2,0,P|232:137|277:142,2,100,2|2|8,0:0|0:0|0:0,0:0:0:0:
206,47,21523,1,8,0:0:0:0:
325,52,21788,6,0,P|376:98|388:141,1,100,4|8,0:0|0:0,0:0:0:0:
268,100,22319,1,2,0:0:0:0:
320,208,22585,2,0,P|268:197|212:217,1,100,8|2,0:0|0:0,0:0:0:0:
300,302,23116,1,8,0:0:0:0:
191,353,23381,2,0,P|160:320|191:261,1,100,2|8,0:0|0:0,0:0:0:0:
287,232,23912,5,2,0:0:0:0:
177,182,24178,2,0,P|221:151|272:140,1,100,8|2,0:0|0:0,0:0:0:0:
168,69,24709,1,8,0:0:0:0:
85,155,24974,2,8,P|108:213|103:262,1,100,2|8,0:0|0:0,0:0:0:0:
225,239,25505,2,0,P|197:191|190:126,1,100,2|8,0:0|0:0,0:0:0:0:
306,174,26036,5,2,0:0:0:0:
258,63,26302,2,0,P|312:48|372:56,2,100,8|2|8,0:0|0:0|0:0,0:0:0:0:
361,124,27098,1,2,0:0:0:0:
472,169,27364,2,0,P|469:209|452:227,2,50,8|2|2,0:0|0:0|0:0,0:0:0:0:
356,203,27895,1,8,0:0:0:0:
392,88,28160,6,0,P|334:61|283:68,1,100,2|8,0:0|0:0,0:0:0:0:
338,176,28691,1,2,0:0:0:0:
229,123,28957,2,0,P|253:96|270:82,2,50,8|2|2,0:0|0:0|0:0,0:0:0:0:
331,186,29488,1,8,0:0:0:0:
216,219,29753,2,0,P|266:261|314:275,1,100,2|8,0:0|0:0,0:0:0:0:
179,291,30284,5,4,0:0:0:0:
356,317,30682,2,0,P|379:280|393:268,1,50,2|8,0:0|0:0,0:0:0:0:
322,196,31080,1,2,0:0:0:0:
286,113,31611,2,0,P|341:88|399:92,1,100,2|8,0:0|0:0,0:0:0:0:
336,199,32142,1,2,0:0:0:0:
226,247,32408,6,0,P|175:248|115:219,1,100,2|8,0:0|0:0,0:0:0:0:
212,142,32939,2,0,P|154:126|95:126,1,100,2|8,0:0|0:0,0:0:0:0:
40,218,33470,1,2,0:0:0:0:
106,317,33735,1,8,0:0:0:0:
86,218,34001,2,0,P|119:121|197:153,1,200,2|2,0:0|0:0,0:0:0:0:
249,227,34797,5,2,0:0:0:0:
253,106,35063,2,0,L|310:104,1,50,2|2,0:0|0:0,0:0:0:0:
356,212,35461,2,0,P|397:158|436:141,1,100,2|2,0:0|0:0,0:0:0:0:
466,235,35992,2,0,P|386:260|314:263,1,150,2|2,0:0|0:0,0:0:0:0:
450,143,36656,2,0,L|343:182,1,100,2|2,0:0|0:0,0:0:0:0:
353,65,37187,2,0,P|312:63|288:67,1,50,2|2,0:0|0:0,0:0:0:0:
283,162,37585,2,0,P|228:120|184:117,1,100,2|2,0:0|0:0,0:0:0:0:
124,183,38116,2,0,B|177:160|192:242|265:212,1,150,2|10,0:0|0:0,0:0:0:0:
24,281,38780,6,0,P|68:324|108:332,1,100,6|8,0:0|0:0,0:0:0:0:
138,216,39311,2,0,P|183:259|232:267,1,100,2|8,0:0|0:0,0:0:0:0:
207,147,39842,1,2,0:0:0:0:
308,210,40107,2,0,L|327:160,2,50,8|0|2,0:0|0:0|0:0,0:0:0:0:
235,113,40638,1,8,0:0:0:0:
350,79,40903,6,0,P|303:53|252:53,2,100,2|8|2,0:0|0:0|0:0,0:0:0:0:
454,19,41700,1,8,0:0:0:0:
422,134,41965,2,0,P|470:157|511:205,1,100,2|8,0:0|0:0,0:0:0:0:
386,222,42496,1,2,0:0:0:0:
483,291,42762,2,0,P|446:308|374:316,1,100,8|2,0:0|0:0,0:0:0:0:
442,209,43293,5,8,0:0:0:0:
336,151,43558,2,0,P|383:116|431:113,1,100,2|8,0:0|0:0,0:0:0:0:
279,66,44089,1,2,0:0:0:0:
195,152,44355,2,0,L|150:128,2,50,8|0|2,0:0|0:0|0:0,0:0:0:0:
267,247,44886,1,8,0:0:0:0:
132,225,45151,6,0,P|164:280|206:315,1,100,2|8,0:0|0:0,0:0:0:0:
302,347,45682,2,0,L|358:340,2,50,2|0|8,0:0|0:0|0:0,0:0:0:0:
282,228,46213,1,2,0:0:0:0:
346,126,46479,1,8,0:0:0:0:
228,102,46744,2,0,P|177:102|119:127,1,100,2|8,0:0|0:0,0:0:0:0:
227,191,47275,6,0,L|380:156,2,150,10|8|8,0:0|0:0|0:0,0:0:0:0:
429,235,48337,2,0,P|444:190|441:144,1,75,10|10,0:0|0:0,0:0:0:0:
416,93,48735,2,0,P|419:51|434:35,1,50,10|10,0:0|0:0,0:0:0:0:
101,63,49399,6,0,P|46:97|32:140,1,100,4|8,0:0|0:0,0:0:0:0:
150,156,49930,1,2,0:0:0:0:
72,247,50196,2,0,L|117:277,2,50,8|2|2,0:0|0:0|0:0,0:0:0:0:
191,244,50726,1,8,0:0:0:0:
298,298,50992,2,0,L|327:240,2,50,2|2|8,0:0|0:0|0:0,0:0:0:0:
233,176,51523,6,0,P|277:142|323:132,1,100,2|8,0:0|0:0,0:0:0:0:
420,208,52054,2,0,L|404:271,2,50,2|2|8,0:0|0:0|0:0,0:0:0:0:
460,94,52585,2,0,P|413:73|344:73,1,100,4|8,0:0|0:0,0:0:0:0:
244,66,53116,2,0,P|177:56|134:34,1,100,4|8,0:0|0:0,0:0:0:0:
94,150,53647,5,6,0:0:0:0:
213,146,53912,2,0,P|186:197|199:244,1,100,8|2,0:0|0:0,0:0:0:0:
302,183,54443,1,8,0:0:0:0:
387,222,54709,2,0,P|428:185|480:182,1,100,2|8,0:0|0:0,0:0:0:0:
422,366,55240,2,0,L|400:313,2,50,2|2|8,0:0|0:0|0:0,0:0:0:0:
331,287,55771,5,2,0:0:0:0:
234,264,56036,2,0,P|186:233|126:235,1,100,8|2,0:0|0:0,0:0:0:0:
199,337,56567,2,0,P|259:346|303:309,1,100,8|2,0:0|0:0,0:0:0:0:
316,209,57098,1,8,0:0:0:0:
251,107,57364,2,0,L|194:91,2,50,2|2|8,0:0|0:0|0:0,0:0:0:0:
358,52,57895,6,0,P|354:105|385:166,1,100,6|8,0:0|0:0,0:0:0:0:
457,65,58426,1,2,0:0:0:0:
489,180,58691,1,8,0:0:0:0:
383,237,58957,2,0,P|441:278|472:289,1,100,2|8,0:0|0:0,0:0:0:0:
371,360,59488,2,0,P|325:314|279:302,1,100,2|8,0:0|0:0,0:0:0:0:
224,204,60019,5,2,0:0:0:0:
314,125,60284,2,0,P|259:98|202:97,1,100,8|2,0:0|0:0,0:0:0:0:
282,197,60815,1,8,0:0:0:0:
234,307,61080,2,0,P|199:260|149:229,1,100,6|8,0:0|0:0,0:0:0:0:
109,143,61611,2,0,P|81:196|85:251,1,100,6|8,0:0|0:0,0:0:0:0:
194,195,62142,6,0,P|207:135|239:104,1,100,6|8,0:0|0:0,0:0:0:0:
312,198,62673,1,2,0:0:0:0:
366,90,62939,1,8,0:0:0:0:
458,166,63204,2,0,L|432:210,2,50,2|2|8,0:0|0:0|0:0,0:0:0:0:
485,283,63735,1,2,0:0:0:0:
367,259,64001,1,8,0:0:0:0:
329,372,64266,6,0,P|281:346|223:348,1,100,2|8,0:0|0:0,0:0:0:0:
188,234,64797,2,0,P|234:193|233:136,1,100,2|8,0:0|0:0,0:0:0:0:
119,146,65328,1,2,0:0:0:0:
199,56,65594,2,0,P|258:58|312:76,2,100,8|2|8,0:0|0:0|0:0,0:0:0:0:
260,159,66390,6,0,P|310:156|371:180,1,100,6|2,0:0|0:0,0:0:0:0:
350,291,66921,1,2,0:0:0:0:
242,237,67187,2,0,L|185:230,2,50,2|0|2,0:0|0:0|0:0,0:0:0:0:
259,355,67718,1,2,0:0:0:0:
147,310,67983,2,0,P|88:295|38:306,1,100,2|2,0:0|0:0,0:0:0:0:
54,181,68514,5,2,0:0:0:0:
168,145,68780,1,8,0:0:0:0:
75,68,69045,1,2,0:0:0:0:
184,17,69311,1,8,0:0:0:0:
273,96,69576,2,0,P|248:154|260:199,1,100,2|8,0:0|0:0,0:0:0:0:
341,271,70107,2,0,P|359:211|340:165,1,100,2|8,0:0|0:0,0:0:0:0:
438,98,70638,5,4,0:0:0:0:
296,96,79134,6,0,P|348:88|380:96,1,75,10|10,0:0|0:0,0:0:0:0:
372,184,79532,2,0,P|408:204|424:208,1,50,10|10,0:0|0:0,0:0:0:0:
176,225,80196,6,0,P|230:193|272:211,1,100,4|8,0:0|0:0,0:0:0:0:
199,305,80726,1,2,0:0:0:0:
302,244,80992,2,0,L|279:292,2,50,8|0|2,0:0|0:0|0:0,0:0:0:0:
223,152,81523,1,8,0:0:0:0:
341,132,81788,2,0,L|306:79,2,50,2|0|8,0:0|0:0|0:0,0:0:0:0:
225,97,82319,5,2,0:0:0:0:
128,169,82585,2,0,L|146:114,2,50,8|0|2,0:0|0:0|0:0,0:0:0:0:
7,162,83116,1,8,0:0:0:0:
63,267,83381,1,2,0:0:0:0:
1,283,83647,2,0,P|26:332|85:349,1,100,8|2,0:0|0:0,0:0:0:0:
165,283,84178,1,8,0:0:0:0:
263,351,84443,6,0,P|285:300|273:249,1,100,2|8,0:0|0:0,0:0:0:0:
391,218,84974,1,2,0:0:0:0:
294,146,85240,2,0,P|341:116|339:66,2,100,8|2|8,0:0|0:0|0:0,0:0:0:0:
238,39,86036,2,0,P|177:38|130:53,1,100,2|8,0:0|0:0,0:0:0:0:
196,154,86567,5,2,0:0:0:0:
92,215,86833,2,0,P|139:230|175:274,1,100,8|0,0:0|0:0,0:0:0:0:
63,319,87364,1,8,0:0:0:0:
179,348,87629,2,0,P|237:338|265:293,2,100,2|8|0,0:0|0:0|0:0,0:0:0:0:
210,231,88426,1,8,0:0:0:0:
308,217,88691,5,14,0:0:0:0:
367,136,88957,1,10,0:0:0:0:
282,83,89222,1,10,0:0:0:0:
206,149,89488,1,10,0:0:0:0:
127,86,89753,2,0,P|66:64|23:64,1,100,10|10,0:0|0:0,0:0:0:0:
74,153,90284,2,0,P|61:213|75:267,1,100,10|10,0:0|0:0,0:0:0:0:
166,266,90815,5,14,0:0:0:0:
214,353,91080,1,10,0:0:0:0:
267,268,91346,1,10,0:0:0:0:
364,289,91611,1,10,0:0:0:0:
331,194,91877,2,0,P|386:178|414:139,1,100,14|10,0:0|0:0,0:0:0:0:
324,95,92408,2,0,P|355:59|412:41,1,100,14|10,0:0|0:0,0:0:0:0:
277,8,92939,5,14,0:0:0:0:
210,82,93204,1,10,0:0:0:0:
244,176,93470,2,0,P|184:160|126:164,1,100,10|10,0:0|0:0,0:0:0:0:
186,252,94001,1,10,0:0:0:0:
86,247,94266,1,10,0:0:0:0:
138,332,94532,2,0,P|194:340|240:329,1,100,10|10,0:0|0:0,0:0:0:0:
300,254,95063,5,14,0:0:0:0:
378,315,95328,2,0,P|405:258|395:209,1,100,10|10,0:0|0:0,0:0:0:0:
314,172,95859,1,10,0:0:0:0:
376,109,96125,2,0,P|362:57|395:13,1,100,10|10,0:0|0:0,0:0:0:0:
284,28,96656,2,0,L|251:69,2,50,2|8|8,0:0|0:0|0:0,0:0:0:0:
183,21,97187,5,6,0:0:0:0:
188,120,97452,2,0,P|127:128|86:116,1,100,8|2,0:0|0:0,0:0:0:0:
114,215,97983,2,0,L|134:270,2,50,8|2|2,0:0|0:0|0:0,0:0:0:0:
211,194,98514,1,8,0:0:0:0:
235,291,98780,2,0,P|298:271|317:231,1,100,2|8,0:0|0:0,0:0:0:0:
327,145,99311,5,2,0:0:0:0:
423,171,99576,1,8,0:0:0:0:
398,73,99842,2,0,P|346:51|292:44,1,100,2|8,0:0|0:0,0:0:0:0:
203,45,100373,2,0,P|174:95|184:151,1,100,2|8,0:0|0:0,0:0:0:0:
275,154,100903,2,0,L|283:213,2,50,2|2|8,0:0|0:0|0:0,0:0:0:0:
256,192,101434,12,0,104620,0:0:0:0:
77,94,105682,6,0,L|132:66,1,50,12|2,0:0|0:0,0:0:0:0:
166,160,106080,2,0,P|225:190|263:195,1,100,2|2,0:0|0:0,0:0:0:0:
350,146,106611,1,6,0:0:0:0:
264,94,106877,2,0,L|317:55,1,50,2|8,0:0|0:0,0:0:0:0:
208,33,107275,2,0,P|148:39|106:60,1,100,2|8,0:0|0:0,0:0:0:0:
21,96,107806,6,0,L|38:152,1,50,6|2,0:0|0:0,0:0:0:0:
128,180,108204,2,0,P|79:215|50:258,1,100
103,321,108735,2,0,B|183:252|258:388|352:314,1,250,14|2,0:0|0:0,0:0:0:0:
