osu file format v14

[General]
AudioFilename: audio.mp3
AudioLeadIn: 0
PreviewTime: 55609
Countdown: 0
SampleSet: Normal
StackLeniency: 0.7
Mode: 1
LetterboxInBreaks: 0
WidescreenStoryboard: 1

[Editor]
Bookmarks: 22860,44193,56193,66859,69526,77526,88193,100193,110859,113526,134859,145526,156193,158859,169526,171859,172026
DistanceSpacing: 1
BeatDivisor: 4
GridSize: 4
TimelineZoom: 1

[Metadata]
Title:Towa no Maigo
TitleUnicode:永久の迷子
Artist:Buta-Otome
ArtistUnicode:豚乙女
Creator:404 AccNotFound
Version:Oni
Source:東方Project
Tags:コンプ Comp 少女煉獄 Girl Purgatory ランコ Ranko 東方永夜抄 ~ Imperishable Night Kamishirasawa Keine Stage 3 Boss Theme プレインエイジア Plain Asia Touhou Eternal Lost Child of Eternity PatZar Genocide
BeatmapID:1317865
BeatmapSetID:622175

[Difficulty]
HPDrainRate:4
CircleSize:2
OverallDifficulty:5.5
ApproachRate:9.4
SliderMultiplier:1.4
SliderTickRate:1

[Events]
//Background and Video events
0,0,"bg.jpg",0,50
//Break Periods
2,135059,144486
//Storyboard Layer 0 (Background)
//Storyboard Layer 1 (Fail)
//Storyboard Layer 2 (Pass)
//Storyboard Layer 3 (Foreground)
//Storyboard Sound Samples

[TimingPoints]
11526,333.333333333333,4,1,0,85,1,0
14860,333.333333333333,4,1,0,85,1,0
56193,-100,4,1,0,85,0,1
66859,-100,4,1,0,85,0,0
100193,-100,4,1,0,85,0,1
110859,-100,4,1,0,85,0,0
113526,-100,4,1,0,85,0,0
134859,-100,4,1,0,85,0,0
145026,-117.647058823529,4,1,0,50,0,0
145193,-111.111111111111,4,1,0,60,0,0
145359,-105.263157894737,4,1,0,70,0,0
145526,-100,4,1,0,85,0,1
156193,-100,4,1,0,85,0,0

[HitObjects]
256,192,11526,8,0,14525,0:0:0:0:
144,156,14859,5,0,0:0:0:0:
172,144,15026,1,2,0:0:0:0:
172,144,15110,1,2,0:0:0:0:
172,144,15193,1,0,0:0:0:0:
172,144,15360,1,2,0:0:0:0:
172,144,15526,1,0,0:0:0:0:
172,144,15693,1,2,0:0:0:0:
172,144,15859,1,0,0:0:0:0:
144,144,15943,1,0,0:0:0:0:
148,136,16026,1,2,0:0:0:0:
144,156,16193,1,0,0:0:0:0:
172,144,16359,1,2,0:0:0:0:
172,144,16443,1,2,0:0:0:0:
172,144,16526,1,0,0:0:0:0:
172,144,16693,1,2,0:0:0:0:
172,144,16859,1,0,0:0:0:0:
44,136,16943,1,0,0:0:0:0:
172,144,17026,1,2,0:0:0:0:
236,132,17109,1,2,0:0:0:0:
172,144,17193,1,0,0:0:0:0:
144,132,17359,1,2,0:0:0:0:
144,156,17526,1,0,0:0:0:0:
172,144,17693,1,2,0:0:0:0:
172,144,17776,1,2,0:0:0:0:
172,144,17859,1,0,0:0:0:0:
172,144,18026,1,2,0:0:0:0:
172,144,18193,1,0,0:0:0:0:
172,144,18359,1,2,0:0:0:0:
172,144,18526,1,0,0:0:0:0:
144,144,18609,1,0,0:0:0:0:
144,132,18693,1,2,0:0:0:0:
144,156,18859,1,0,0:0:0:0:
172,144,19026,1,2,0:0:0:0:
172,144,19109,1,2,0:0:0:0:
172,144,19193,1,0,0:0:0:0:
172,144,19359,1,2,0:0:0:0:
172,144,19526,1,0,0:0:0:0:
172,144,19693,1,2,0:0:0:0:
172,144,19859,1,2,0:0:0:0:
328,160,20193,1,6,0:0:0:0:
328,160,20693,1,4,0:0:0:0:
328,160,20859,1,6,0:0:0:0:
328,160,21359,1,4,0:0:0:0:
328,160,21526,1,6,0:0:0:0:
328,160,21859,1,6,0:0:0:0:
328,160,22193,1,6,0:0:0:0:
256,116,22859,1,4,0:0:0:0:
288,220,23026,1,2,0:0:0:0:
288,220,23193,1,0,0:0:0:0:
288,220,23359,1,2,0:0:0:0:
288,220,23526,1,2,0:0:0:0:
312,128,23693,1,2,0:0:0:0:
288,220,23859,1,0,0:0:0:0:
288,220,24026,1,0,0:0:0:0:
288,220,24193,1,2,0:0:0:0:
288,220,24359,1,0,0:0:0:0:
288,220,24526,1,2,0:0:0:0:
288,220,24693,1,2,0:0:0:0:
288,220,24859,1,0,0:0:0:0:
4,156,24943,1,0,0:0:0:0:
136,100,25026,1,2,0:0:0:0:
288,220,25193,1,0,0:0:0:0:
136,100,25359,1,2,0:0:0:0:
288,220,25526,1,0,0:0:0:0:
288,220,25693,1,2,0:0:0:0:
288,220,25859,1,0,0:0:0:0:
288,220,26026,1,2,0:0:0:0:
288,220,26193,1,2,0:0:0:0:
72,200,26359,1,2,0:0:0:0:
288,220,26526,1,0,0:0:0:0:
288,220,26693,1,0,0:0:0:0:
288,220,26859,1,2,0:0:0:0:
288,220,27026,1,0,0:0:0:0:
288,220,27193,1,2,0:0:0:0:
288,220,27359,1,2,0:0:0:0:
288,220,27526,1,0,0:0:0:0:
244,144,27609,1,0,0:0:0:0:
160,116,27693,1,2,0:0:0:0:
288,220,27859,1,0,0:0:0:0:
108,180,28026,1,2,0:0:0:0:
288,220,28193,1,0,0:0:0:0:
288,220,28359,1,2,0:0:0:0:
288,220,28526,1,0,0:0:0:0:
288,220,28693,1,2,0:0:0:0:
156,152,28776,1,2,0:0:0:0:
288,220,28859,1,2,0:0:0:0:
224,88,29026,1,0,0:0:0:0:
288,220,29193,1,2,0:0:0:0:
288,220,29359,1,2,0:0:0:0:
288,220,29526,1,0,0:0:0:0:
288,220,29693,1,2,0:0:0:0:
288,220,29859,1,0,0:0:0:0:
288,220,30026,1,2,0:0:0:0:
152,152,30109,1,2,0:0:0:0:
288,220,30193,1,2,0:0:0:0:
224,88,30359,1,0,0:0:0:0:
288,220,30526,1,2,0:0:0:0:
288,220,30693,1,2,0:0:0:0:
288,220,30859,1,0,0:0:0:0:
288,220,31026,1,2,0:0:0:0:
288,220,31193,1,0,0:0:0:0:
288,220,31359,1,2,0:0:0:0:
288,220,31526,1,2,0:0:0:0:
288,220,31693,1,0,0:0:0:0:
288,220,31859,1,2,0:0:0:0:
288,220,32026,1,2,0:0:0:0:
288,220,32193,1,0,0:0:0:0:
288,220,32359,1,2,0:0:0:0:
288,220,32526,1,0,0:0:0:0:
288,220,32693,1,0,0:0:0:0:
288,220,32859,1,2,0:0:0:0:
288,220,33193,1,0,0:0:0:0:
256,116,33526,1,4,0:0:0:0:
288,220,33693,1,2,0:0:0:0:
288,220,33859,1,0,0:0:0:0:
288,220,34026,1,2,0:0:0:0:
288,220,34193,1,2,0:0:0:0:
288,220,34359,1,2,0:0:0:0:
288,220,34526,1,0,0:0:0:0:
288,220,34693,1,0,0:0:0:0:
288,220,34859,1,2,0:0:0:0:
288,220,35026,1,0,0:0:0:0:
288,220,35193,1,2,0:0:0:0:
288,220,35359,1,2,0:0:0:0:
288,220,35526,1,0,0:0:0:0:
120,144,35609,1,0,0:0:0:0:
248,112,35693,1,2,0:0:0:0:
288,220,35859,1,0,0:0:0:0:
208,96,36026,1,2,0:0:0:0:
256,116,36193,1,0,0:0:0:0:
288,220,36359,1,2,0:0:0:0:
288,220,36526,1,0,0:0:0:0:
288,220,36693,1,2,0:0:0:0:
288,220,36859,1,2,0:0:0:0:
288,220,37026,1,2,0:0:0:0:
288,220,37193,1,0,0:0:0:0:
288,220,37359,1,0,0:0:0:0:
288,220,37526,1,2,0:0:0:0:
288,220,37693,1,0,0:0:0:0:
288,220,37859,1,2,0:0:0:0:
288,220,38026,1,2,0:0:0:0:
288,220,38193,1,0,0:0:0:0:
120,144,38276,1,0,0:0:0:0:
128,128,38359,1,2,0:0:0:0:
288,220,38526,1,0,0:0:0:0:
128,128,38693,1,2,0:0:0:0:
256,116,38859,1,0,0:0:0:0:
288,220,39026,1,2,0:0:0:0:
288,220,39193,1,0,0:0:0:0:
288,220,39359,1,2,0:0:0:0:
248,104,39443,1,2,0:0:0:0:
288,220,39526,1,2,0:0:0:0:
200,100,39693,1,0,0:0:0:0:
288,220,39859,1,2,0:0:0:0:
96,112,40026,1,2,0:0:0:0:
288,220,40193,1,0,0:0:0:0:
288,220,40359,1,2,0:0:0:0:
288,220,40526,1,0,0:0:0:0:
288,220,40693,1,2,0:0:0:0:
248,100,40776,1,2,0:0:0:0:
288,220,40859,1,2,0:0:0:0:
204,92,41026,1,0,0:0:0:0:
288,220,41193,1,2,0:0:0:0:
288,220,41359,1,2,0:0:0:0:
256,116,41526,1,0,0:0:0:0:
288,220,41693,1,2,0:0:0:0:
288,220,41859,1,0,0:0:0:0:
180,124,42026,1,2,0:0:0:0:
288,220,42193,1,2,0:0:0:0:
168,148,42359,1,0,0:0:0:0:
288,220,42526,1,2,0:0:0:0:
168,148,42693,1,2,0:0:0:0:
288,220,42859,1,0,0:0:0:0:
288,220,43026,1,2,0:0:0:0:
192,164,43109,1,2,0:0:0:0:
288,220,43193,1,0,0:0:0:0:
288,220,43526,1,2,0:0:0:0:
288,220,43859,1,2,0:0:0:0:
256,116,44193,1,4,0:0:0:0:
288,220,44359,1,2,0:0:0:0:
288,220,44526,1,0,0:0:0:0:
288,220,44693,1,2,0:0:0:0:
200,92,44776,1,2,0:0:0:0:
288,220,44859,1,0,0:0:0:0:
288,220,45026,1,2,0:0:0:0:
288,220,45193,1,0,0:0:0:0:
288,220,45359,1,2,0:0:0:0:
288,220,45526,1,0,0:0:0:0:
288,220,45693,1,2,0:0:0:0:
288,220,45859,1,0,0:0:0:0:
72,144,45943,1,0,0:0:0:0:
288,220,46026,1,2,0:0:0:0:
288,220,46193,1,0,0:0:0:0:
176,100,46276,1,0,0:0:0:0:
136,136,46359,1,2,0:0:0:0:
136,136,46443,1,2,0:0:0:0:
288,220,46526,1,0,0:0:0:0:
136,136,46693,1,2,0:0:0:0:
256,116,46859,1,0,0:0:0:0:
288,220,47026,1,2,0:0:0:0:
288,220,47193,1,0,0:0:0:0:
288,220,47359,1,2,0:0:0:0:
180,112,47443,1,2,0:0:0:0:
288,220,47526,1,0,0:0:0:0:
288,220,47693,1,2,0:0:0:0:
288,220,47859,1,0,0:0:0:0:
288,220,48026,1,2,0:0:0:0:
288,220,48193,1,0,0:0:0:0:
288,220,48359,1,2,0:0:0:0:
288,220,48526,1,0,0:0:0:0:
172,108,48609,1,0,0:0:0:0:
288,220,48693,1,0,0:0:0:0:
288,220,48859,1,2,0:0:0:0:
260,104,48943,1,2,0:0:0:0:
168,124,49026,1,0,0:0:0:0:
168,124,49109,1,0,0:0:0:0:
288,220,49193,1,0,0:0:0:0:
168,124,49359,1,2,0:0:0:0:
256,116,49526,1,0,0:0:0:0:
288,220,49693,1,2,0:0:0:0:
288,220,49859,1,0,0:0:0:0:
288,220,50026,1,2,0:0:0:0:
32,136,50109,1,2,0:0:0:0:
288,220,50193,1,0,0:0:0:0:
288,220,50359,1,2,0:0:0:0:
156,84,50526,1,0,0:0:0:0:
288,220,50693,1,2,0:0:0:0:
288,220,50859,1,0,0:0:0:0:
288,220,51026,1,2,0:0:0:0:
288,220,51193,1,0,0:0:0:0:
184,104,51276,1,0,0:0:0:0:
168,172,51359,1,2,0:0:0:0:
288,220,51526,1,0,0:0:0:0:
204,152,51693,1,0,0:0:0:0:
288,220,51859,1,2,0:0:0:0:
204,128,52193,1,4,0:0:0:0:
240,140,52359,1,2,0:0:0:0:
240,140,52526,1,2,0:0:0:0:
204,128,52693,1,4,0:0:0:0:
204,128,52859,1,4,0:0:0:0:
240,140,53026,1,2,0:0:0:0:
240,140,53193,1,2,0:0:0:0:
204,128,53359,1,4,0:0:0:0:
168,80,53693,1,2,0:0:0:0:
168,80,53859,1,0,0:0:0:0:
168,80,54026,1,0,0:0:0:0:
168,80,54193,1,2,0:0:0:0:
168,80,54276,1,2,0:0:0:0:
168,80,54359,1,0,0:0:0:0:
168,80,54443,1,0,0:0:0:0:
168,80,54526,1,0,0:0:0:0:
168,80,54693,1,0,0:0:0:0:
168,80,54859,1,6,0:0:0:0:
256,192,55026,8,0,56026,0:0:0:0:
256,116,56193,5,4,0:0:0:0:
288,220,56359,1,2,0:0:0:0:
288,220,56526,1,0,0:0:0:0:
288,220,56693,1,2,0:0:0:0:
288,220,56859,1,0,0:0:0:0:
288,220,57026,1,2,0:0:0:0:
196,88,57109,1,2,0:0:0:0:
288,220,57193,1,0,0:0:0:0:
288,220,57359,1,2,0:0:0:0:
176,112,57526,1,0,0:0:0:0:
288,220,57693,1,2,0:0:0:0:
288,220,57859,1,0,0:0:0:0:
180,120,57943,1,0,0:0:0:0:
288,220,58026,1,2,0:0:0:0:
288,220,58193,1,0,0:0:0:0:
220,60,58276,1,0,0:0:0:0:
288,220,58359,1,2,0:0:0:0:
176,112,58443,1,2,0:0:0:0:
288,220,58526,1,0,0:0:0:0:
288,220,58693,1,2,0:0:0:0:
256,116,58859,1,0,0:0:0:0:
288,220,59026,1,2,0:0:0:0:
288,220,59193,1,0,0:0:0:0:
176,112,59276,1,0,0:0:0:0:
288,220,59359,1,2,0:0:0:0:
288,220,59526,1,0,0:0:0:0:
288,220,59693,1,2,0:0:0:0:
288,220,59859,1,0,0:0:0:0:
288,220,60026,1,2,0:0:0:0:
288,220,60193,1,2,0:0:0:0:
288,220,60359,1,0,0:0:0:0:
216,68,60443,1,0,0:0:0:0:
288,220,60526,1,0,0:0:0:0:
288,220,60693,1,0,0:0:0:0:
288,220,60859,1,2,0:0:0:0:
216,80,60943,1,2,0:0:0:0:
288,220,61026,1,0,0:0:0:0:
156,124,61109,1,0,0:0:0:0:
288,220,61193,1,0,0:0:0:0:
288,220,61359,1,2,0:0:0:0:
256,116,61526,1,0,0:0:0:0:
288,220,61693,1,2,0:0:0:0:
288,220,61859,1,0,0:0:0:0:
288,220,62026,1,2,0:0:0:0:
288,220,62193,1,0,0:0:0:0:
288,220,62359,1,2,0:0:0:0:
216,80,62443,1,2,0:0:0:0:
288,220,62526,1,0,0:0:0:0:
288,220,62693,1,2,0:0:0:0:
288,220,62859,1,0,0:0:0:0:
288,220,63026,1,2,0:0:0:0:
288,220,63193,1,0,0:0:0:0:
176,116,63276,1,0,0:0:0:0:
288,220,63359,1,2,0:0:0:0:
288,220,63526,1,0,0:0:0:0:
168,68,63609,1,0,0:0:0:0:
288,220,63693,1,2,0:0:0:0:
168,68,63776,1,2,0:0:0:0:
288,220,63859,1,0,0:0:0:0:
288,220,64026,1,2,0:0:0:0:
256,116,64193,1,0,0:0:0:0:
288,220,64359,1,2,0:0:0:0:
288,220,64526,1,0,0:0:0:0:
168,80,64609,1,0,0:0:0:0:
288,220,64693,1,2,0:0:0:0:
288,220,64859,1,0,0:0:0:0:
136,112,64943,1,0,0:0:0:0:
288,220,65026,1,2,0:0:0:0:
168,80,65109,1,2,0:0:0:0:
288,220,65193,1,2,0:0:0:0:
288,220,65359,1,0,0:0:0:0:
288,220,65526,1,2,0:0:0:0:
288,220,65693,1,2,0:0:0:0:
288,220,65859,1,0,0:0:0:0:
68,168,65943,1,0,0:0:0:0:
288,220,66026,1,2,0:0:0:0:
288,220,66193,1,0,0:0:0:0:
288,220,66359,1,2,0:0:0:0:
132,120,66443,1,2,0:0:0:0:
288,220,66526,1,2,0:0:0:0:
288,220,66693,1,0,0:0:0:0:
172,160,66859,1,6,0:0:0:0:
144,156,69526,1,4,0:0:0:0:
172,144,69693,1,2,0:0:0:0:
172,144,69776,1,2,0:0:0:0:
172,144,69859,1,0,0:0:0:0:
172,144,70026,1,2,0:0:0:0:
172,144,70193,1,0,0:0:0:0:
232,104,70276,1,0,0:0:0:0:
172,144,70359,1,2,0:0:0:0:
172,144,70526,1,0,0:0:0:0:
288,152,70693,1,2,0:0:0:0:
144,156,70859,1,0,0:0:0:0:
172,144,71026,1,2,0:0:0:0:
172,144,71109,1,2,0:0:0:0:
172,144,71193,1,0,0:0:0:0:
172,144,71359,1,2,0:0:0:0:
172,144,71526,1,2,0:0:0:0:
208,80,71609,1,2,0:0:0:0:
172,144,71693,1,0,0:0:0:0:
76,120,71776,1,0,0:0:0:0:
172,144,71859,1,0,0:0:0:0:
124,136,72026,1,2,0:0:0:0:
144,156,72193,1,0,0:0:0:0:
172,144,72359,1,2,0:0:0:0:
172,144,72443,1,2,0:0:0:0:
172,144,72526,1,0,0:0:0:0:
172,144,72693,1,2,0:0:0:0:
172,144,72859,1,2,0:0:0:0:
124,168,72943,1,2,0:0:0:0:
172,144,73026,1,0,0:0:0:0:
160,152,73109,1,0,0:0:0:0:
172,144,73193,1,2,0:0:0:0:
156,148,73359,1,0,0:0:0:0:
144,156,73526,1,0,0:0:0:0:
172,144,73693,1,2,0:0:0:0:
172,144,73776,1,2,0:0:0:0:
172,144,73859,1,0,0:0:0:0:
172,144,74026,1,2,0:0:0:0:
172,144,74193,1,2,0:0:0:0:
232,112,74276,1,2,0:0:0:0:
172,144,74359,1,2,0:0:0:0:
64,196,74443,1,2,0:0:0:0:
172,144,74526,1,0,0:0:0:0:
328,160,74859,1,6,0:0:0:0:
312,104,75359,1,4,0:0:0:0:
312,104,75526,1,6,0:0:0:0:
312,104,76026,1,4,0:0:0:0:
312,104,76193,1,6,0:0:0:0:
312,104,76526,1,6,0:0:0:0:
312,104,76859,1,6,0:0:0:0:
256,116,77526,1,4,0:0:0:0:
288,220,77693,1,2,0:0:0:0:
288,220,77859,1,0,0:0:0:0:
288,220,78026,1,2,0:0:0:0:
200,96,78109,1,0,0:0:0:0:
288,220,78193,1,2,0:0:0:0:
288,220,78359,1,0,0:0:0:0:
288,220,78526,1,2,0:0:0:0:
288,220,78693,1,0,0:0:0:0:
288,220,78859,1,2,0:0:0:0:
288,220,79026,1,0,0:0:0:0:
288,220,79193,1,2,0:0:0:0:
288,220,79359,1,2,0:0:0:0:
288,220,79526,1,0,0:0:0:0:
184,120,79609,1,0,0:0:0:0:
196,120,79693,1,2,0:0:0:0:
288,220,79859,1,0,0:0:0:0:
148,160,80026,1,2,0:0:0:0:
256,116,80193,1,0,0:0:0:0:
288,220,80359,1,2,0:0:0:0:
288,220,80526,1,0,0:0:0:0:
288,220,80693,1,2,0:0:0:0:
180,92,80776,1,0,0:0:0:0:
288,220,80859,1,2,0:0:0:0:
288,220,81026,1,2,0:0:0:0:
288,220,81193,1,0,0:0:0:0:
288,220,81359,1,0,0:0:0:0:
288,220,81526,1,2,0:0:0:0:
288,220,81693,1,0,0:0:0:0:
288,220,81859,1,2,0:0:0:0:
288,220,82026,1,2,0:0:0:0:
288,220,82193,1,0,0:0:0:0:
180,124,82276,1,0,0:0:0:0:
248,144,82359,1,2,0:0:0:0:
120,168,82526,1,0,0:0:0:0:
120,168,82693,1,2,0:0:0:0:
256,116,82859,1,0,0:0:0:0:
288,220,83026,1,2,0:0:0:0:
288,220,83193,1,0,0:0:0:0:
288,220,83359,1,2,0:0:0:0:
124,136,83443,1,2,0:0:0:0:
288,220,83526,1,2,0:0:0:0:
288,220,83693,1,0,0:0:0:0:
288,220,83859,1,2,0:0:0:0:
288,220,84026,1,2,0:0:0:0:
288,220,84193,1,0,0:0:0:0:
288,220,84359,1,2,0:0:0:0:
288,220,84526,1,0,0:0:0:0:
288,220,84693,1,2,0:0:0:0:
128,128,84776,1,2,0:0:0:0:
288,220,84859,1,2,0:0:0:0:
288,220,85026,1,0,0:0:0:0:
288,220,85193,1,2,0:0:0:0:
288,220,85359,1,0,0:0:0:0:
256,116,85526,1,2,0:0:0:0:
288,220,85693,1,0,0:0:0:0:
288,220,85859,1,0,0:0:0:0:
288,220,86026,1,2,0:0:0:0:
288,220,86193,1,0,0:0:0:0:
288,220,86359,1,2,0:0:0:0:
144,156,86443,1,2,0:0:0:0:
288,220,86526,1,0,0:0:0:0:
144,156,86609,1,0,0:0:0:0:
288,220,86693,1,2,0:0:0:0:
288,220,86859,1,0,0:0:0:0:
248,124,88193,1,4,0:0:0:0:
208,112,88359,1,2,0:0:0:0:
208,112,88526,1,0,0:0:0:0:
208,112,88693,1,2,0:0:0:0:
184,104,88776,1,2,0:0:0:0:
208,112,88859,1,0,0:0:0:0:
208,112,89026,1,2,0:0:0:0:
208,112,89193,1,0,0:0:0:0:
208,112,89359,1,2,0:0:0:0:
248,124,89526,1,0,0:0:0:0:
208,112,89693,1,0,0:0:0:0:
208,112,89859,1,2,0:0:0:0:
208,112,90026,1,0,0:0:0:0:
208,112,90193,1,2,0:0:0:0:
52,136,90276,1,2,0:0:0:0:
208,112,90359,1,0,0:0:0:0:
144,68,90443,1,0,0:0:0:0:
208,112,90526,1,0,0:0:0:0:
200,112,90693,1,2,0:0:0:0:
248,124,90859,1,0,0:0:0:0:
208,112,91026,1,2,0:0:0:0:
208,112,91193,1,0,0:0:0:0:
208,112,91359,1,2,0:0:0:0:
160,96,91443,1,2,0:0:0:0:
208,112,91526,1,0,0:0:0:0:
208,112,91693,1,2,0:0:0:0:
208,112,91859,1,0,0:0:0:0:
208,112,92026,1,2,0:0:0:0:
248,124,92193,1,0,0:0:0:0:
208,112,92359,1,2,0:0:0:0:
208,112,92526,1,0,0:0:0:0:
200,116,92609,1,0,0:0:0:0:
208,112,92693,1,0,0:0:0:0:
208,112,92859,1,2,0:0:0:0:
176,104,92943,1,2,0:0:0:0:
208,112,93026,1,2,0:0:0:0:
176,104,93109,1,2,0:0:0:0:
208,112,93193,1,0,0:0:0:0:
116,144,93359,1,2,0:0:0:0:
248,124,93526,1,0,0:0:0:0:
208,112,93693,1,2,0:0:0:0:
208,112,93859,1,0,0:0:0:0:
208,112,93943,1,0,0:0:0:0:
208,112,94026,1,2,0:0:0:0:
208,112,94193,1,0,0:0:0:0:
208,112,94359,1,2,0:0:0:0:
208,112,94526,1,0,0:0:0:0:
208,112,94693,1,2,0:0:0:0:
248,124,94859,1,0,0:0:0:0:
208,112,95026,1,2,0:0:0:0:
208,112,95193,1,0,0:0:0:0:
136,68,95276,1,0,0:0:0:0:
208,112,95359,1,0,0:0:0:0:
208,112,95526,1,2,0:0:0:0:
208,112,95693,1,2,0:0:0:0:
208,112,95859,1,2,0:0:0:0:
144,160,96193,1,4,0:0:0:0:
136,144,96359,1,2,0:0:0:0:
136,144,96526,1,2,0:0:0:0:
144,160,96693,1,4,0:0:0:0:
144,160,96859,1,4,0:0:0:0:
136,144,97026,1,2,0:0:0:0:
136,140,97193,1,2,0:0:0:0:
144,160,97359,1,4,0:0:0:0:
144,160,97693,1,2,0:0:0:0:
144,160,97859,1,2,0:0:0:0:
144,160,98026,1,0,0:0:0:0:
144,160,98193,1,2,0:0:0:0:
264,112,98276,1,2,0:0:0:0:
264,112,98359,1,0,0:0:0:0:
264,112,98443,1,0,0:0:0:0:
264,112,98526,1,2,0:0:0:0:
264,112,98693,1,0,0:0:0:0:
264,112,98859,1,6,0:0:0:0:
256,192,99026,8,0,100026,0:0:0:0:
220,224,100193,5,4,0:0:0:0:
220,224,100359,1,2,0:0:0:0:
220,224,100526,1,0,0:0:0:0:
220,224,100693,1,2,0:0:0:0:
220,224,100859,1,0,0:0:0:0:
220,224,101026,1,2,0:0:0:0:
132,132,101109,1,2,0:0:0:0:
220,224,101193,1,0,0:0:0:0:
220,224,101359,1,2,0:0:0:0:
220,224,101526,1,0,0:0:0:0:
220,224,101693,1,2,0:0:0:0:
220,224,101859,1,0,0:0:0:0:
132,132,101943,1,0,0:0:0:0:
220,224,102026,1,2,0:0:0:0:
220,224,102193,1,0,0:0:0:0:
140,148,102276,1,0,0:0:0:0:
220,224,102359,1,2,0:0:0:0:
144,144,102443,1,2,0:0:0:0:
220,224,102526,1,0,0:0:0:0:
220,224,102693,1,2,0:0:0:0:
220,224,102859,1,0,0:0:0:0:
220,224,103026,1,2,0:0:0:0:
220,224,103193,1,0,0:0:0:0:
144,144,103276,1,0,0:0:0:0:
220,224,103359,1,2,0:0:0:0:
220,224,103526,1,0,0:0:0:0:
220,224,103693,1,2,0:0:0:0:
220,224,103859,1,0,0:0:0:0:
180,144,104026,1,0,0:0:0:0:
136,124,104193,1,2,0:0:0:0:
140,128,104276,1,2,0:0:0:0:
220,224,104359,1,2,0:0:0:0:
220,224,104526,1,0,0:0:0:0:
220,224,104693,1,0,0:0:0:0:
220,224,104859,1,2,0:0:0:0:
172,168,104943,1,2,0:0:0:0:
220,224,105026,1,2,0:0:0:0:
176,108,105109,1,2,0:0:0:0:
220,224,105193,1,0,0:0:0:0:
220,224,105359,1,2,0:0:0:0:
220,224,105526,1,0,0:0:0:0:
220,224,105693,1,2,0:0:0:0:
220,224,105859,1,0,0:0:0:0:
184,88,105943,1,0,0:0:0:0:
220,224,106026,1,2,0:0:0:0:
220,224,106193,1,0,0:0:0:0:
220,224,106359,1,2,0:0:0:0:
140,128,106443,1,2,0:0:0:0:
220,224,106526,1,0,0:0:0:0:
220,224,106693,1,2,0:0:0:0:
220,224,106859,1,0,0:0:0:0:
220,224,107026,1,2,0:0:0:0:
220,224,107193,1,0,0:0:0:0:
140,128,107276,1,0,0:0:0:0:
220,224,107359,1,2,0:0:0:0:
220,224,107526,1,0,0:0:0:0:
220,224,107693,1,2,0:0:0:0:
220,224,107859,1,0,0:0:0:0:
220,224,108026,1,2,0:0:0:0:
200,128,108109,1,2,0:0:0:0:
220,224,108193,1,0,0:0:0:0:
220,224,108359,1,2,0:0:0:0:
220,224,108526,1,0,0:0:0:0:
220,224,108693,1,2,0:0:0:0:
168,188,108776,1,2,0:0:0:0:
220,224,108859,1,2,0:0:0:0:
220,224,109026,1,0,0:0:0:0:
220,224,109193,1,2,0:0:0:0:
220,224,109359,1,0,0:0:0:0:
220,224,109526,1,2,0:0:0:0:
220,224,109693,1,2,0:0:0:0:
220,224,109859,1,0,0:0:0:0:
220,224,110026,1,2,0:0:0:0:
220,224,110193,1,0,0:0:0:0:
152,108,110276,1,0,0:0:0:0:
220,224,110359,1,2,0:0:0:0:
156,156,110443,1,2,0:0:0:0:
220,224,110526,1,2,0:0:0:0:
220,224,110693,1,0,0:0:0:0:
156,156,110859,1,6,0:0:0:0:
220,224,113526,1,0,0:0:0:0:
208,196,113609,1,0,0:0:0:0:
220,224,113693,1,2,0:0:0:0:
208,196,113776,1,0,0:0:0:0:
220,224,113859,1,2,0:0:0:0:
220,224,114026,1,2,0:0:0:0:
220,224,114193,1,0,0:0:0:0:
220,224,114359,1,2,0:0:0:0:
220,224,114526,1,0,0:0:0:0:
192,88,114693,1,2,0:0:0:0:
220,224,114859,1,0,0:0:0:0:
204,208,114943,1,0,0:0:0:0:
220,224,115026,1,2,0:0:0:0:
204,208,115109,1,2,0:0:0:0:
220,224,115193,1,0,0:0:0:0:
220,224,115359,1,2,0:0:0:0:
220,224,115526,1,0,0:0:0:0:
220,224,115693,1,2,0:0:0:0:
220,224,115859,1,0,0:0:0:0:
120,120,116026,1,2,0:0:0:0:
220,224,116193,1,0,0:0:0:0:
176,116,116276,1,0,0:0:0:0:
220,224,116359,1,2,0:0:0:0:
176,116,116443,1,2,0:0:0:0:
220,224,116526,1,2,0:0:0:0:
220,224,116693,1,0,0:0:0:0:
220,224,116859,1,2,0:0:0:0:
220,224,117026,1,0,0:0:0:0:
140,160,117109,1,0,0:0:0:0:
220,224,117193,1,0,0:0:0:0:
140,160,117359,1,2,0:0:0:0:
220,224,117526,1,0,0:0:0:0:
176,116,117609,1,0,0:0:0:0:
220,224,117693,1,2,0:0:0:0:
176,116,117776,1,2,0:0:0:0:
220,224,117859,1,2,0:0:0:0:
220,224,118026,1,0,0:0:0:0:
220,224,118193,1,2,0:0:0:0:
272,104,118276,1,2,0:0:0:0:
220,224,118359,1,0,0:0:0:0:
92,92,118443,1,0,0:0:0:0:
220,224,118526,1,2,0:0:0:0:
220,224,118859,1,0,0:0:0:0:
176,116,118943,1,0,0:0:0:0:
220,224,119026,1,2,0:0:0:0:
176,116,119109,1,2,0:0:0:0:
220,224,119193,1,2,0:0:0:0:
220,224,119359,1,0,0:0:0:0:
220,224,119526,1,2,0:0:0:0:
220,224,119693,1,2,0:0:0:0:
220,224,119859,1,0,0:0:0:0:
248,88,120026,1,2,0:0:0:0:
220,224,120193,1,0,0:0:0:0:
176,116,120276,1,0,0:0:0:0:
220,224,120359,1,2,0:0:0:0:
176,116,120443,1,2,0:0:0:0:
220,224,120526,1,0,0:0:0:0:
220,224,120693,1,2,0:0:0:0:
220,224,120859,1,0,0:0:0:0:
220,224,121026,1,2,0:0:0:0:
220,224,121193,1,0,0:0:0:0:
236,96,121359,1,2,0:0:0:0:
220,224,121526,1,0,0:0:0:0:
176,112,121609,1,0,0:0:0:0:
220,224,121693,1,2,0:0:0:0:
176,112,121776,1,2,0:0:0:0:
220,224,121859,1,2,0:0:0:0:
220,224,122026,1,0,0:0:0:0:
220,224,122193,1,2,0:0:0:0:
220,224,122359,1,2,0:0:0:0:
220,224,122526,1,0,0:0:0:0:
220,224,122693,1,2,0:0:0:0:
208,120,122859,1,0,0:0:0:0:
208,120,123026,1,6,0:0:0:0:
248,124,123193,1,0,0:0:0:0:
208,120,123359,1,6,0:0:0:0:
248,124,123526,1,0,0:0:0:0:
208,120,123693,1,2,0:0:0:0:
352,152,123776,1,2,0:0:0:0:
256,176,123859,1,2,0:0:0:0:
220,224,124193,1,0,0:0:0:0:
216,164,124276,1,0,0:0:0:0:
220,224,124359,1,2,0:0:0:0:
220,224,124526,1,0,0:0:0:0:
220,224,124693,1,2,0:0:0:0:
220,224,124859,1,0,0:0:0:0:
216,164,124943,1,0,0:0:0:0:
220,224,125026,1,2,0:0:0:0:
220,224,125193,1,0,0:0:0:0:
220,224,125359,1,2,0:0:0:0:
220,224,125526,1,0,0:0:0:0:
216,164,125609,1,0,0:0:0:0:
220,224,125693,1,0,0:0:0:0:
220,224,125859,1,2,0:0:0:0:
176,72,125943,1,2,0:0:0:0:
220,224,126026,1,2,0:0:0:0:
220,224,126193,1,0,0:0:0:0:
216,164,126276,1,0,0:0:0:0:
220,224,126359,1,0,0:0:0:0:
264,44,126443,1,0,0:0:0:0:
220,224,126526,1,2,0:0:0:0:
220,224,126859,1,0,0:0:0:0:
220,224,127026,1,2,0:0:0:0:
192,52,127109,1,2,0:0:0:0:
220,224,127193,1,0,0:0:0:0:
220,224,127359,1,2,0:0:0:0:
220,224,127526,1,0,0:0:0:0:
220,224,127693,1,2,0:0:0:0:
220,224,127859,1,0,0:0:0:0:
168,120,128026,1,2,0:0:0:0:
220,224,128193,1,0,0:0:0:0:
176,56,128276,1,0,0:0:0:0:
220,224,128359,1,2,0:0:0:0:
220,224,128526,1,0,0:0:0:0:
220,224,128693,1,2,0:0:0:0:
220,224,128859,1,0,0:0:0:0:
32,160,128943,1,0,0:0:0:0:
220,224,129026,1,2,0:0:0:0:
172,96,129109,1,2,0:0:0:0:
220,224,129193,1,2,0:0:0:0:
220,224,129526,1,0,0:0:0:0:
220,224,129693,1,2,0:0:0:0:
188,96,129776,1,2,0:0:0:0:
220,224,129859,1,2,0:0:0:0:
220,224,130026,1,2,0:0:0:0:
220,224,130193,1,0,0:0:0:0:
188,96,130276,1,0,0:0:0:0:
220,224,130359,1,2,0:0:0:0:
188,96,130443,1,2,0:0:0:0:
220,224,130526,1,0,0:0:0:0:
220,224,130693,1,2,0:0:0:0:
220,224,130859,1,0,0:0:0:0:
180,96,130943,1,0,0:0:0:0:
220,224,131026,1,2,0:0:0:0:
180,100,131109,1,2,0:0:0:0:
220,224,131193,1,0,0:0:0:0:
220,224,131359,1,2,0:0:0:0:
220,224,131526,1,0,0:0:0:0:
180,96,131609,1,0,0:0:0:0:
220,224,131693,1,2,0:0:0:0:
180,96,131776,1,2,0:0:0:0:
220,224,131859,1,0,0:0:0:0:
220,224,132193,1,0,0:0:0:0:
220,224,132359,1,2,0:0:0:0:
180,96,132443,1,2,0:0:0:0:
220,224,132526,1,2,0:0:0:0:
220,224,132693,1,0,0:0:0:0:
220,224,132859,1,2,0:0:0:0:
180,96,132943,1,0,0:0:0:0:
220,224,133026,1,2,0:0:0:0:
220,224,133193,1,0,0:0:0:0:
220,224,133359,1,2,0:0:0:0:
180,96,133443,1,2,0:0:0:0:
220,224,133526,1,2,0:0:0:0:
220,224,133693,1,0,0:0:0:0:
220,224,133859,1,2,0:0:0:0:
180,96,133943,1,2,0:0:0:0:
220,224,134026,1,0,0:0:0:0:
220,224,134193,1,2,0:0:0:0:
72,128,134276,1,2,0:0:0:0:
220,224,134359,1,2,0:0:0:0:
220,224,134526,1,0,0:0:0:0:
220,224,134693,1,0,0:0:0:0:
248,88,134859,1,6,0:0:0:0:
152,148,145026,5,0,0:0:0:0:
152,148,145193,1,2,0:0:0:0:
152,148,145359,1,2,0:0:0:0:
220,224,145526,1,4,0:0:0:0:
220,224,145693,1,2,0:0:0:0:
220,224,145859,1,0,0:0:0:0:
220,224,146026,1,2,0:0:0:0:
220,224,146193,1,0,0:0:0:0:
220,224,146359,1,2,0:0:0:0:
272,136,146443,1,2,0:0:0:0:
220,224,146526,1,0,0:0:0:0:
220,224,146693,1,2,0:0:0:0:
220,224,146859,1,0,0:0:0:0:
220,224,147026,1,2,0:0:0:0:
220,224,147193,1,0,0:0:0:0:
216,140,147276,1,0,0:0:0:0:
220,224,147359,1,2,0:0:0:0:
220,224,147526,1,0,0:0:0:0:
220,224,147693,1,2,0:0:0:0:
220,224,147859,1,0,0:0:0:0:
168,108,148026,1,2,0:0:0:0:
220,224,148193,1,0,0:0:0:0:
220,224,148359,1,2,0:0:0:0:
220,224,148526,1,0,0:0:0:0:
208,76,148609,1,0,0:0:0:0:
220,224,148693,1,2,0:0:0:0:
220,224,148859,1,0,0:0:0:0:
220,224,149026,1,2,0:0:0:0:
208,76,149109,1,2,0:0:0:0:
220,224,149193,1,0,0:0:0:0:
220,224,149359,1,2,0:0:0:0:
220,224,149526,1,0,0:0:0:0:
208,76,149609,1,0,0:0:0:0:
220,224,149693,1,0,0:0:0:0:
220,224,149859,1,2,0:0:0:0:
220,224,150026,1,0,0:0:0:0:
220,224,150193,1,2,0:0:0:0:
180,96,150276,1,2,0:0:0:0:
220,224,150359,1,2,0:0:0:0:
280,112,150443,1,2,0:0:0:0:
220,224,150526,1,2,0:0:0:0:
220,224,150693,1,2,0:0:0:0:
220,224,150859,1,0,0:0:0:0:
220,224,151026,1,2,0:0:0:0:
220,224,151193,1,0,0:0:0:0:
144,104,151276,1,0,0:0:0:0:
220,224,151359,1,2,0:0:0:0:
220,224,151526,1,0,0:0:0:0:
220,224,151693,1,2,0:0:0:0:
204,80,151776,1,2,0:0:0:0:
220,224,151859,1,0,0:0:0:0:
220,224,152026,1,2,0:0:0:0:
220,224,152193,1,0,0:0:0:0:
220,224,152359,1,2,0:0:0:0:
220,224,152526,1,0,0:0:0:0:
160,72,152609,1,0,0:0:0:0:
220,224,152693,1,2,0:0:0:0:
220,224,152859,1,0,0:0:0:0:
220,224,153026,1,2,0:0:0:0:
220,224,153193,1,0,0:0:0:0:
220,224,153359,1,2,0:0:0:0:
60,144,153443,1,2,0:0:0:0:
220,224,153526,1,0,0:0:0:0:
220,224,153693,1,2,0:0:0:0:
220,224,153859,1,0,0:0:0:0:
220,224,154026,1,2,0:0:0:0:
204,88,154109,1,0,0:0:0:0:
220,224,154193,1,2,0:0:0:0:
220,224,154359,1,0,0:0:0:0:
220,224,154526,1,2,0:0:0:0:
220,224,154693,1,2,0:0:0:0:
220,224,154859,1,0,0:0:0:0:
220,224,155026,1,2,0:0:0:0:
220,224,155193,1,0,0:0:0:0:
152,120,155276,1,0,0:0:0:0:
220,224,155359,1,2,0:0:0:0:
220,224,155526,1,2,0:0:0:0:
208,224,155609,1,2,0:0:0:0:
220,224,155693,1,0,0:0:0:0:
180,156,155776,1,0,0:0:0:0:
220,224,155859,1,0,0:0:0:0:
220,224,156026,1,0,0:0:0:0:
232,116,156193,1,6,0:0:0:0:
220,224,158859,1,4,0:0:0:0:
220,224,159026,1,2,0:0:0:0:
220,224,159193,1,0,0:0:0:0:
220,224,159359,1,2,0:0:0:0:
56,120,159443,1,0,0:0:0:0:
220,224,159526,1,2,0:0:0:0:
220,224,159693,1,0,0:0:0:0:
220,224,159859,1,2,0:0:0:0:
220,224,160026,1,2,0:0:0:0:
220,224,160193,1,0,0:0:0:0:
220,224,160359,1,2,0:0:0:0:
220,224,160526,1,0,0:0:0:0:
220,224,160693,1,2,0:0:0:0:
164,104,160776,1,2,0:0:0:0:
220,224,160859,1,0,0:0:0:0:
168,116,161026,1,2,0:0:0:0:
220,224,161193,1,0,0:0:0:0:
140,148,161359,1,2,0:0:0:0:
8,128,161443,1,2,0:0:0:0:
220,224,161526,1,0,0:0:0:0:
220,224,161693,1,2,0:0:0:0:
220,224,161859,1,0,0:0:0:0:
220,224,162026,1,0,0:0:0:0:
220,224,162193,1,2,0:0:0:0:
220,224,162359,1,0,0:0:0:0:
220,224,162526,1,2,0:0:0:0:
220,224,162693,1,0,0:0:0:0:
172,136,162776,1,2,0:0:0:0:
220,224,162859,1,0,0:0:0:0:
220,224,163026,1,2,0:0:0:0:
220,224,163193,1,0,0:0:0:0:
220,224,163359,1,0,0:0:0:0:
220,224,163526,1,2,0:0:0:0:
220,224,163693,1,2,0:0:0:0:
220,224,163859,1,0,0:0:0:0:
128,168,164026,1,2,0:0:0:0:
220,224,164193,1,0,0:0:0:0:
220,224,164359,1,2,0:0:0:0:
220,224,164526,1,0,0:0:0:0:
220,224,164693,1,2,0:0:0:0:
128,112,164776,1,2,0:0:0:0:
220,224,164859,1,0,0:0:0:0:
220,224,165026,1,2,0:0:0:0:
220,224,165193,1,0,0:0:0:0:
220,224,165359,1,2,0:0:0:0:
220,224,165526,1,0,0:0:0:0:
220,224,165693,1,2,0:0:0:0:
220,224,165859,1,0,0:0:0:0:
220,224,166026,1,2,0:0:0:0:
196,68,166109,1,2,0:0:0:0:
220,224,166193,1,0,0:0:0:0:
140,132,166359,1,2,0:0:0:0:
220,224,166526,1,0,0:0:0:0:
220,152,166693,1,2,0:0:0:0:
220,152,166776,1,0,0:0:0:0:
220,224,166859,1,2,0:0:0:0:
220,224,167026,1,0,0:0:0:0:
220,224,167193,1,2,0:0:0:0:
220,224,167359,1,0,0:0:0:0:
220,224,167526,1,2,0:0:0:0:
220,224,167693,1,0,0:0:0:0:
220,152,167776,1,0,0:0:0:0:
220,224,167859,1,0,0:0:0:0:
220,224,168026,1,2,0:0:0:0:
220,224,168193,1,0,0:0:0:0:
220,224,168359,1,2,0:0:0:0:
220,224,168526,1,0,0:0:0:0:
220,224,168693,1,2,0:0:0:0:
216,72,168776,1,2,0:0:0:0:
220,224,168859,1,0,0:0:0:0:
220,224,169026,1,2,0:0:0:0:
220,224,169193,1,2,0:0:0:0:
220,224,169359,1,2,0:0:0:0:
212,96,171859,1,0,0:0:0:0:
212,96,172026,1,6,0:0:0:0:
