osu file format v14

[General]
AudioFilename: audio.mp3
AudioLeadIn: 0
PreviewTime: 55609
Countdown: 0
SampleSet: Normal
StackLeniency: 0.7
Mode: 1
LetterboxInBreaks: 0
WidescreenStoryboard: 0

[Editor]
Bookmarks: 22860,44193,56193,66859,69526,77526,88193,100193,110859,113526,134859,145526,156193,158859,169526,171859,172026
DistanceSpacing: 1
BeatDivisor: 1
GridSize: 4
TimelineZoom: 0.6

[Metadata]
Title:Towa no Maigo
TitleUnicode:永久の迷子
Artist:Buta-Otome
ArtistUnicode:豚乙女
Creator:404 AccNotFound
Version:Kantan
Source:東方Project
Tags:コンプ Comp 少女煉獄 Girl Purgatory ランコ Ranko 東方永夜抄 ~ Imperishable Night Kamishirasawa Keine Stage 3 Boss Theme プレインエイジア Plain Asia Touhou Eternal Lost Child of Eternity PatZar Genocide
BeatmapID:1320820
BeatmapSetID:622175

[Difficulty]
HPDrainRate:7
CircleSize:2
OverallDifficulty:3
ApproachRate:9.4
SliderMultiplier:1.4
SliderTickRate:1

[Events]
//Background and Video events
0,0,"bg.jpg",0,50
//Break Periods
2,135059,144986
//Storyboard Layer 0 (Background)
//Storyboard Layer 1 (Fail)
//Storyboard Layer 2 (Pass)
//Storyboard Layer 3 (Foreground)
//Storyboard Sound Samples

[TimingPoints]
11526,333.333333333333,4,1,0,85,1,0
14860,333.333333333333,4,1,0,85,1,0
56193,-100,4,1,0,85,0,1
66859,-100,4,1,0,85,0,0
100193,-100,4,1,0,85,0,1
110859,-100,4,1,0,85,0,0
145526,-100,4,1,0,85,0,1
156193,-100,4,1,0,85,0,0

[HitObjects]
256,192,11526,12,0,14526,0:0:0:0:
152,136,14860,5,0,0:0:0:0:
252,192,15526,1,2,0:0:0:0:
252,192,16193,1,0,0:0:0:0:
252,192,16526,1,0,0:0:0:0:
252,192,16859,1,2,0:0:0:0:
252,192,17526,1,0,0:0:0:0:
252,192,18193,1,2,0:0:0:0:
252,192,18859,1,2,0:0:0:0:
252,192,20193,1,6,0:0:0:0:
252,192,20859,1,6,0:0:0:0:
252,192,21526,1,6,0:0:0:0:
252,192,21859,1,6,0:0:0:0:
252,192,22193,1,6,0:0:0:0:
252,192,22859,1,4,0:0:0:0:
252,192,23526,1,2,0:0:0:0:
252,192,24193,1,0,0:0:0:0:
252,192,24526,1,0,0:0:0:0:
252,192,24859,1,2,0:0:0:0:
252,192,25526,1,0,0:0:0:0:
252,192,26193,1,2,0:0:0:0:
252,192,26859,1,0,0:0:0:0:
252,192,28193,1,0,0:0:0:0:
252,192,28859,1,0,0:0:0:0:
252,192,29526,1,2,0:0:0:0:
252,192,30193,1,2,0:0:0:0:
248,200,30859,1,0,0:0:0:0:
248,200,31526,1,2,0:0:0:0:
248,200,32193,1,0,0:0:0:0:
248,200,32526,1,0,0:0:0:0:
248,200,32859,1,2,0:0:0:0:
248,200,33526,1,0,0:0:0:0:
248,200,34193,1,2,0:0:0:0:
248,200,34859,1,0,0:0:0:0:
248,200,35193,1,0,0:0:0:0:
248,200,35526,1,2,0:0:0:0:
248,200,36193,1,0,0:0:0:0:
248,200,36859,1,0,0:0:0:0:
248,200,37526,1,2,0:0:0:0:
248,200,38859,1,0,0:0:0:0:
248,200,39526,1,2,0:0:0:0:
248,200,40193,1,0,0:0:0:0:
248,200,40859,1,2,0:0:0:0:
248,200,41526,1,0,0:0:0:0:
248,200,42193,1,2,0:0:0:0:
248,200,42859,1,2,0:0:0:0:
248,200,44193,1,0,0:0:0:0:
248,200,44859,1,0,0:0:0:0:
248,200,45526,1,2,0:0:0:0:
248,200,45859,1,2,0:0:0:0:
248,200,46193,1,2,0:0:0:0:
248,200,46859,1,2,0:0:0:0:
248,200,47526,1,2,0:0:0:0:
248,200,48193,1,0,0:0:0:0:
248,200,49526,1,0,0:0:0:0:
248,200,50193,1,0,0:0:0:0:
248,200,50859,1,2,0:0:0:0:
248,200,51193,1,2,0:0:0:0:
248,200,51526,1,2,0:0:0:0:
248,200,52193,1,0,0:0:0:0:
248,200,52859,1,2,0:0:0:0:
248,200,53359,1,2,0:0:0:0:
248,200,54193,1,2,0:0:0:0:
248,200,56193,1,4,0:0:0:0:
248,200,56859,1,0,0:0:0:0:
248,200,57359,1,2,0:0:0:0:
248,200,58193,1,2,0:0:0:0:
248,200,58859,1,0,0:0:0:0:
248,200,59526,1,0,0:0:0:0:
248,200,60193,1,2,0:0:0:0:
248,200,60526,1,0,0:0:0:0:
248,200,60859,1,2,0:0:0:0:
248,200,61526,1,0,0:0:0:0:
248,200,62193,1,0,0:0:0:0:
248,200,62693,1,2,0:0:0:0:
248,200,63526,1,2,0:0:0:0:
248,200,64026,1,0,0:0:0:0:
248,200,64859,1,0,0:0:0:0:
248,200,65526,1,2,0:0:0:0:
248,200,66859,1,6,0:0:0:0:
212,120,69526,1,4,0:0:0:0:
212,120,70193,1,2,0:0:0:0:
252,156,70859,1,0,0:0:0:0:
252,156,71193,1,0,0:0:0:0:
252,156,71526,1,2,0:0:0:0:
252,156,72193,1,0,0:0:0:0:
252,156,72859,1,2,0:0:0:0:
104,112,73193,1,2,0:0:0:0:
252,156,73526,1,0,0:0:0:0:
252,156,74859,1,4,0:0:0:0:
252,156,75526,1,4,0:0:0:0:
252,156,76193,1,6,0:0:0:0:
252,156,76526,1,6,0:0:0:0:
252,156,76859,1,6,0:0:0:0:
244,112,77526,1,4,0:0:0:0:
244,112,78193,1,2,0:0:0:0:
244,112,78859,1,0,0:0:0:0:
244,112,79193,1,0,0:0:0:0:
244,112,79526,1,2,0:0:0:0:
244,112,80193,1,0,0:0:0:0:
244,112,80859,1,0,0:0:0:0:
244,112,81526,1,2,0:0:0:0:
244,112,82859,1,0,0:0:0:0:
244,112,83526,1,0,0:0:0:0:
244,112,84193,1,2,0:0:0:0:
244,112,84859,1,2,0:0:0:0:
244,112,85526,1,0,0:0:0:0:
244,112,85859,1,0,0:0:0:0:
244,112,86193,1,2,0:0:0:0:
244,112,86859,1,2,0:0:0:0:
244,112,88193,1,0,0:0:0:0:
244,112,88859,1,0,0:0:0:0:
244,112,89526,1,2,0:0:0:0:
244,112,89859,1,2,0:0:0:0:
244,112,90193,1,2,0:0:0:0:
244,112,90859,1,0,0:0:0:0:
244,112,91526,1,0,0:0:0:0:
244,112,92193,1,2,0:0:0:0:
244,112,93526,1,0,0:0:0:0:
244,112,94193,1,0,0:0:0:0:
244,112,94859,1,2,0:0:0:0:
244,112,95193,1,2,0:0:0:0:
244,112,95526,1,2,0:0:0:0:
244,112,96193,1,0,0:0:0:0:
244,112,96859,1,2,0:0:0:0:
244,112,97359,1,2,0:0:0:0:
244,112,98193,1,2,0:0:0:0:
244,112,100193,1,4,0:0:0:0:
244,112,100859,1,0,0:0:0:0:
244,112,101359,1,2,0:0:0:0:
244,112,102193,1,2,0:0:0:0:
244,112,102859,1,0,0:0:0:0:
244,112,103526,1,0,0:0:0:0:
244,112,104193,1,2,0:0:0:0:
244,112,104526,1,2,0:0:0:0:
244,112,104859,1,2,0:0:0:0:
244,112,105526,1,0,0:0:0:0:
244,112,106193,1,0,0:0:0:0:
244,112,106693,1,2,0:0:0:0:
244,112,107526,1,2,0:0:0:0:
244,112,108026,1,0,0:0:0:0:
244,112,108859,1,0,0:0:0:0:
244,112,109526,1,2,0:0:0:0:
244,116,110859,1,6,0:0:0:0:
236,224,113526,1,0,0:0:0:0:
236,224,113859,1,0,0:0:0:0:
236,224,114193,1,2,0:0:0:0:
236,224,114859,1,0,0:0:0:0:
232,228,115193,1,2,0:0:0:0:
232,228,115526,1,2,0:0:0:0:
232,228,116193,1,0,0:0:0:0:
216,104,116526,1,0,0:0:0:0:
232,228,116859,1,0,0:0:0:0:
232,228,117526,1,2,0:0:0:0:
232,228,118859,1,0,0:0:0:0:
216,104,119193,1,2,0:0:0:0:
232,228,119526,1,0,0:0:0:0:
232,228,120193,1,2,0:0:0:0:
216,104,120526,1,0,0:0:0:0:
232,228,120859,1,2,0:0:0:0:
232,228,121526,1,0,0:0:0:0:
232,228,122193,1,0,0:0:0:0:
232,228,123026,1,2,0:0:0:0:
232,228,123359,1,2,0:0:0:0:
232,228,123693,1,2,0:0:0:0:
232,228,124193,1,0,0:0:0:0:
232,228,124859,1,2,0:0:0:0:
232,228,125526,1,0,0:0:0:0:
232,228,125859,1,0,0:0:0:0:
232,228,126193,1,2,0:0:0:0:
232,236,126859,1,0,0:0:0:0:
232,236,127526,1,0,0:0:0:0:
232,236,128193,1,2,0:0:0:0:
232,236,129526,1,0,0:0:0:0:
232,236,130193,1,2,0:0:0:0:
232,236,130859,1,2,0:0:0:0:
64,144,131193,1,2,0:0:0:0:
232,236,131526,1,2,0:0:0:0:
232,236,132193,1,6,0:0:0:0:
232,236,132693,1,6,0:0:0:0:
232,236,133193,1,6,0:0:0:0:
232,236,133693,1,6,0:0:0:0:
232,236,134193,1,6,0:0:0:0:
232,236,134859,1,6,0:0:0:0:
188,168,145526,5,4,0:0:0:0:
188,168,146193,1,0,0:0:0:0:
188,168,146693,1,2,0:0:0:0:
188,168,147526,1,2,0:0:0:0:
188,168,148193,1,0,0:0:0:0:
188,168,148859,1,0,0:0:0:0:
188,168,149526,1,2,0:0:0:0:
188,168,149859,1,2,0:0:0:0:
188,168,150193,1,2,0:0:0:0:
188,168,150859,1,0,0:0:0:0:
188,168,151526,1,0,0:0:0:0:
188,168,152026,1,2,0:0:0:0:
188,168,152859,1,2,0:0:0:0:
188,168,153359,1,0,0:0:0:0:
188,168,154193,1,0,0:0:0:0:
188,168,154859,1,2,0:0:0:0:
188,168,156193,1,6,0:0:0:0:
232,96,158859,1,4,0:0:0:0:
232,96,159526,1,2,0:0:0:0:
232,96,160193,1,0,0:0:0:0:
232,96,160526,1,0,0:0:0:0:
232,96,160859,1,2,0:0:0:0:
232,96,161526,1,0,0:0:0:0:
232,96,162193,1,0,0:0:0:0:
232,96,162859,1,2,0:0:0:0:
232,96,163193,1,2,0:0:0:0:
232,96,163526,1,2,0:0:0:0:
232,96,164193,1,0,0:0:0:0:
232,96,164859,1,2,0:0:0:0:
232,96,165526,1,0,0:0:0:0:
232,96,165859,1,2,0:0:0:0:
232,96,166193,1,0,0:0:0:0:
232,96,166859,1,0,0:0:0:0:
228,104,167526,1,0,0:0:0:0:
228,104,168193,1,2,0:0:0:0:
228,104,168526,1,2,0:0:0:0:
228,104,168859,1,2,0:0:0:0:
232,104,172026,1,6,0:0:0:0:
