osu file format v14

[General]
AudioFilename: Buta-Otome [Ranko] - .mp3
AudioLeadIn: 0
PreviewTime: 38176
Countdown: 0
SampleSet: Soft
StackLeniency: 0.3
Mode: 0
LetterboxInBreaks: 1
WidescreenStoryboard: 0

[Editor]
DistanceSpacing: 1.2
BeatDivisor: 4
GridSize: 4
TimelineZoom: 4.799997

[Metadata]
Title:Taranchura
TitleUnicode:タランチュラ
Artist:Buta-Otome
ArtistUnicode:コンプ
Creator:Chiyuyu
Version:Taaranchura-chura
Source:東方Project
Tags:ranko buta-otome comp touhou
BeatmapID:900150
BeatmapSetID:319098

[Difficulty]
HPDrainRate:7
CircleSize:4.4
OverallDifficulty:8.5
ApproachRate:9.8
SliderMultiplier:1.5
SliderTickRate:1

[Events]
//Background and Video events
0,0,"Konachan.com - 200670 sample.jpg",0,0
//Break Periods
//Storyboard Layer 0 (Background)
//Storyboard Layer 1 (Fail)
//Storyboard Layer 2 (Pass)
//Storyboard Layer 3 (Foreground)
//Storyboard Sound Samples

[TimingPoints]
2968,315.789473684211,4,2,1,50,1,0
8020,-90.9090909090909,4,2,1,50,0,0
38020,-200,4,2,1,50,0,0
38336,-90.9090909090909,4,2,1,50,0,1
40546,-90.9090909090909,4,2,1,50,0,0
40862,-90.9090909090909,4,2,1,50,0,1
43073,-90.9090909090909,4,2,1,50,0,0
43389,-90.9090909090909,4,2,1,50,0,1
46231,-71.4285714285714,4,2,1,50,0,1
48441,-90.9090909090909,4,2,1,50,0,0
67704,-66.6666666666667,4,2,1,50,0,0
68020,-90.9090909090909,4,2,1,25,0,0
68336,-90.9090909090909,4,2,1,15,0,0
68652,-90.9090909090909,4,2,1,50,0,1
70862,-90.9090909090909,4,2,1,50,0,0
71178,-90.9090909090909,4,2,1,50,0,1
73389,-90.9090909090909,4,2,1,50,0,0
73704,-90.9090909090909,4,2,1,50,0,1
76546,-71.4285714285714,4,2,1,50,0,1
78757,-90.9090909090909,4,2,1,50,0,0
88862,-90.9090909090909,4,2,1,40,0,0
91389,-142.857142857143,4,2,1,50,0,0
93915,-142.857142857143,4,2,1,5,0,0

[Colours]
Combo1 : 0,128,0
Combo2 : 0,0,64
Combo3 : 128,0,64
Combo4 : 255,255,0
Combo5 : 0,128,255

[HitObjects]
76,136,2968,5,12,1:2:0:0:
76,136,3046,1,0,1:1:0:0:
176,260,3204,5,8,1:1:0:0:
176,260,3283,1,0,1:1:0:0:
224,44,3441,5,8,1:1:0:0:
224,44,3520,1,0,1:1:0:0:
324,168,3678,5,8,1:1:0:0:
324,168,3757,1,0,1:1:0:0:
76,136,3915,6,0,L|69:61,1,75,8|8,1:1|1:1,1:1:0:0:
324,168,4231,5,12,1:2:0:0:
344,176,4310,1,0,1:1:0:0:
196,252,4468,5,8,1:1:0:0:
176,260,4546,1,0,1:1:0:0:
220,132,4704,5,8,1:1:0:0:
240,124,4783,1,0,1:1:0:0:
388,48,4941,5,8,1:1:0:0:
368,40,5020,1,0,1:1:0:0:
196,252,5178,6,8,P|196:312|208:352,1,75,8|8,1:1|1:1,1:1:0:0:
420,200,5494,5,12,1:2:0:0:
424,224,5573,1,0,1:1:0:0:
348,328,5731,5,8,1:1:0:0:
352,304,5810,1,0,1:1:0:0:
280,116,5968,6,8,L|332:108,1,37.5,8|0,1:1|1:1,1:1:0:0:
192,192,6204,6,8,L|154:186,1,37.5,8|0,1:1|1:1,1:1:0:0:
428,224,6441,6,8,B|468:228|468:228|532:212,1,75,8|8,1:1|1:1,1:1:0:0:
412,52,6757,5,8,1:1:0:0:
361,44,6836,1,0,1:1:0:0:
310,43,6915,1,0,1:1:0:0:
259,50,6994,1,0,1:1:0:0:
210,64,7073,1,0,1:1:0:0:
163,86,7152,1,0,1:1:0:0:
120,114,7231,1,8,1:1:0:0:
82,148,7310,1,0,1:1:0:0:
49,187,7389,6,0,L|56:260,1,37.5,0|0,1:1|1:1,1:1:0:0:
124,317,7546,2,0,L|128:280,1,37.5,8|0,1:1|1:1,1:1:0:0:
176,192,7704,5,8,1:1:0:0:
244,197,7783,1,8,1:1:0:0:
313,203,7862,1,8,1:1:0:0:
382,209,7941,1,8,1:1:0:0:
451,215,8020,6,0,L|460:112,1,82.5000025177003,4|0,3:2|0:0,0:0:0:0:
176,276,8336,2,0,L|183:358,1,82.5000025177003,0|0,3:0|0:0,0:0:0:0:
396,260,8652,1,0,3:0:0:0:
248,212,8810,1,0,0:0:0:0:
392,372,8968,1,0,3:0:0:0:
292,120,9125,1,0,0:0:0:0:
128,324,9283,5,0,3:0:0:0:
56,112,9441,1,0,0:0:0:0:
56,112,9520,1,0,0:0:0:0:
56,112,9599,2,0,P|72:164|72:204,1,82.5000025177003,0|0,3:0|0:0,3:0:0:0:
216,356,9915,2,0,P|219:314|233:276,1,82.5000025177003,0|0,3:0|0:0,0:0:0:0:
424,168,10231,1,0,3:0:0:0:
312,64,10389,1,0,0:0:0:0:
336,340,10546,5,0,3:0:0:0:
160,144,10704,1,0,0:0:0:0:
160,144,10783,1,0,0:0:0:0:
160,144,10862,2,0,L|64:152,1,82.5000025177003,0|0,3:0|0:0,0:0:0:0:
336,340,11178,2,0,L|432:348,1,82.5000025177003,0|0,3:0|0:0,0:0:0:0:
472,116,11494,1,0,3:0:0:0:
500,268,11652,1,0,0:0:0:0:
332,300,11810,5,0,3:0:0:0:
308,140,11968,1,0,0:0:0:0:
276,144,12046,1,0,0:0:0:0:
252,148,12125,1,0,3:0:0:0:
500,268,12283,1,0,0:0:0:0:
264,272,12441,6,0,L|204:276,1,41.2500012588501,0|0,3:0|0:0,0:0:0:0:
80,204,12599,2,0,L|140:208,1,41.2500012588501
236,116,12757,2,0,L|176:120,3,41.2500012588501,0|0|0|0,3:0|0:0|0:0|0:0,0:0:0:0:
320,43,13073,6,0,L|416:40,1,82.5000025177003,4|0,3:2|0:0,0:0:0:0:
364,292,13389,1,0,3:0:0:0:
460,144,13546,1,0,0:0:0:0:
180,244,13704,1,0,3:0:0:0:
376,320,13862,1,0,0:0:0:0:
276,32,14020,1,0,3:0:0:0:
272,332,14178,1,0,0:0:0:0:
84,152,14336,5,0,3:0:0:0:
320,240,14494,1,0,0:0:0:0:
320,240,14573,1,0,0:0:0:0:
320,240,14652,2,0,P|392:248|428:264,1,82.5000025177003,0|0,3:0|0:0,0:0:0:0:
428,52,14968,1,0,3:0:0:0:
480,284,15125,1,0,0:0:0:0:
308,68,15283,1,0,3:0:0:0:
256,300,15441,1,0,0:0:0:0:
84,64,15599,6,0,L|96:172,1,82.5000025177003,0|0,3:0|0:0,0:0:0:0:
93,145,15836,1,0,0:0:0:0:
93,145,15915,1,0,3:0:0:0:
232,328,16073,1,0,0:0:0:0:
268,168,16231,5,0,3:0:0:0:
84,320,16389,1,0,0:0:0:0:
100,152,16546,1,0,3:0:0:0:
252,336,16704,1,0,0:0:0:0:
280,160,16862,6,0,L|272:52,1,82.5000025177003,0|0,3:0|0:0,0:0:0:0:
88,300,17178,2,0,L|82:383,1,82.5000025177003,0|0,3:0|0:0,0:0:0:0:
244,292,17494,6,0,P|304:304|308:304,1,41.2500012588501,0|0,3:0|0:0,0:0:0:0:
452,224,17652,2,0,P|431:228|412:234,1,41.2500012588501
292,168,17810,2,0,L|296:92,3,41.2500012588501,0|0|0|0,3:0|0:0|0:0|0:0,0:0:0:0:
390,7,18125,6,0,P|348:12|280:16,1,82.5000025177003,4|0,3:2|0:0,0:0:0:0:
40,152,18441,2,0,P|81:155|122:159,1,82.5000025177003,0|0,3:0|0:0,0:0:0:0:
440,260,18757,1,0,3:0:0:0:
399,264,18836,1,0,0:0:0:0:
358,269,18915,1,0,0:0:0:0:
317,273,18994,1,0,0:0:0:0:
276,278,19073,1,0,3:0:0:0:
235,283,19152,1,0,0:0:0:0:
194,287,19231,1,0,0:0:0:0:
153,292,19310,1,0,0:0:0:0:
112,297,19389,5,0,3:0:0:0:
164,88,19546,1,0,0:0:0:0:
348,212,19704,5,0,3:0:0:0:
296,3,19862,1,0,0:0:0:0:
140,140,20020,1,2,2:3:0:0:
512,60,20337,1,2,2:3:0:0:
128,136,20652,6,0,P|92:144|24:144,1,82.5000025177003,4|0,3:2|0:0,0:0:0:0:
280,24,20968,2,0,P|316:16|384:16,1,82.5000025177003,0|0,3:0|0:0,0:0:0:0:
484,128,21283,2,0,L|440:124,1,41.2500012588501,0|0,3:0|0:0,0:0:0:0:
300,192,21441,2,0,L|344:188,1,41.2500012588501
492,272,21599,2,0,L|448:268,1,41.2500012588501,0|0,3:0|0:0,0:0:0:0:
308,336,21757,2,0,L|352:332,1,41.2500012588501
248,276,21915,5,0,3:0:0:0:
21,119,22073,1,0,0:0:0:0:
57,311,22231,5,0,3:0:0:0:
214,83,22389,1,0,0:0:0:0:
325,331,22546,1,2,0:3:0:0:
0,192,22862,1,2,0:3:0:0:
116,64,23178,5,4,3:2:0:0:
176,272,23336,1,0,0:0:0:0:
176,272,23415,1,0,0:0:0:0:
176,272,23494,1,0,3:0:0:0:
332,112,23652,1,0,0:0:0:0:
88,176,23810,2,0,P|32:192|0:196,1,82.5000025177003,0|0,3:0|0:0,0:0:0:0:
200,0,24125,2,0,P|240:6|279:19,1,82.5000025177003,0|0,3:0|0:0,0:0:0:0:
308,292,24441,5,0,3:0:0:0:
336,92,24599,1,0,0:0:0:0:
336,92,24678,1,0,0:0:0:0:
336,92,24757,1,0,3:0:0:0:
436,368,24915,5,0,0:0:0:0:
408,168,25074,1,0,3:0:0:0:
248,300,25231,1,0,0:0:0:0:
452,352,25389,1,0,3:3:0:0:
386,161,25546,1,0,0:3:0:0:
254,321,25704,6,0,P|208:324|159:339,1,82.5000025177003,0|0,3:0|0:0,0:0:0:0:
173,333,25941,1,0,0:0:0:0:
173,333,26020,1,0,3:0:0:0:
88,144,26178,1,0,0:0:0:0:
276,208,26336,1,0,3:0:0:0:
191,18,26494,1,0,0:0:0:0:
72,172,26652,1,0,3:0:0:0:
388,136,26810,1,0,0:0:0:0:
212,240,26968,6,0,L|220:336,1,82.5000025177003,0|0,3:0|0:0,0:0:0:0:
388,136,27283,2,0,L|394:53,1,82.5000025177003,0|0,3:0|0:0,0:0:0:0:
73,190,27599,1,0,3:0:0:0:
114,193,27678,1,0,0:0:0:0:
155,193,27757,1,0,0:0:0:0:
195,184,27836,1,0,0:0:0:0:
229,161,27915,1,0,3:0:0:0:
264,140,27994,1,0,0:0:0:0:
304,131,28073,1,0,0:0:0:0:
346,131,28152,1,0,0:0:0:0:
387,135,28231,6,0,L|392:240,1,82.5000025177003,4|0,3:2|0:0,0:0:0:0:
390,218,28468,1,0,0:0:0:0:
390,218,28546,1,0,3:0:0:0:
172,316,28704,1,0,0:0:0:0:
304,124,28862,1,0,3:0:0:0:
86,26,29020,1,0,0:0:0:0:
104,256,29178,1,0,3:0:0:0:
292,120,29336,1,0,0:0:0:0:
28,168,29494,5,0,3:0:0:0:
168,320,29652,1,0,0:0:0:0:
204,324,29731,1,0,0:0:0:0:
240,328,29810,1,0,3:0:0:0:
408,212,29968,1,0,0:0:0:0:
104,192,30125,2,0,L|107:109,1,82.5000025177003,0|0,3:0|0:0,0:0:0:0:
344,284,30441,2,0,L|347:366,1,82.5000025177003,0|0,3:0|0:0,0:0:0:0:
268,64,30757,5,0,3:0:0:0:
424,256,30915,1,0,0:0:0:0:
424,256,30994,1,0,0:0:0:0:
424,256,31073,1,0,3:0:0:0:
192,296,31231,1,0,0:0:0:0:
372,120,31389,1,0,3:0:0:0:
312,316,31546,1,0,0:0:0:0:
188,156,31704,1,0,3:0:0:0:
424,256,31862,1,0,0:0:0:0:
188,172,32020,6,0,P|144:168|76:168,1,82.5000025177003,0|0,3:0|0:0,0:0:0:0:
364,32,32336,2,0,P|405:30|446:27,1,82.5000025177003,0|0,3:0|0:0,0:0:0:0:
468,312,32652,1,0,3:0:0:0:
415,321,32731,1,0,0:0:0:0:
362,324,32810,1,0,0:0:0:0:
309,318,32889,1,0,0:0:0:0:
261,293,32968,1,0,3:0:0:0:
216,268,33046,1,0,0:0:0:0:
163,257,33125,1,0,0:0:0:0:
110,257,33204,1,0,0:0:0:0:
57,262,33283,5,4,3:2:0:0:
104,56,33441,1,0,0:0:0:0:
240,348,33599,5,0,3:0:0:0:
193,142,33757,1,0,0:0:0:0:
400,232,33915,1,0,3:0:0:0:
400,232,33994,1,0,0:0:0:0:
400,232,34073,1,0,0:0:0:0:
400,232,34152,1,0,0:0:0:0:
400,232,34231,2,0,L|396:160,1,41.2500012588501,0|0,3:0|0:0,0:0:0:0:
256,36,34389,2,0,L|253:77,1,41.2500012588501
112,296,34546,5,0,3:0:0:0:
376,256,34704,1,0,0:0:0:0:
248,104,34862,5,0,3:0:0:0:
512,144,35020,1,0,0:0:0:0:
336,352,35178,1,2,0:2:0:0:
388,52,35494,1,2,0:2:0:0:
136,352,35810,6,0,L|24:364,1,82.5000025177003,4|0,3:2|0:0,0:0:0:0:
320,72,36125,2,0,L|432:84,1,82.5000025177003,0|0,3:0|0:0,0:0:0:0:
248,208,36441,1,0,3:0:0:0:
208,220,36520,1,0,0:0:0:0:
168,215,36599,1,0,0:0:0:0:
133,194,36678,1,0,0:0:0:0:
110,160,36757,1,0,3:0:0:0:
103,119,36836,1,0,0:0:0:0:
114,80,36915,1,0,0:0:0:0:
140,48,36994,1,0,0:0:0:0:
176,30,37073,6,0,L|224:40,1,41.2500012588501,0|0,3:0|0:0,0:0:0:0:
408,148,37231,2,0,L|360:157,1,41.2500012588501
184,272,37389,6,0,L|193:224,1,41.2500012588501,0|0,3:0|0:0,0:0:0:0:
301,40,37546,2,0,L|310:87,1,41.2500012588501
384,264,37704,1,2,3:0:0:0:
108,304,38020,6,0,L|97:302,6,9.375,2|0|0|0|0|0|0,0:0|0:0|0:0|0:0|0:0|0:0|0:0,0:0:0:0:
108,304,38336,6,0,L|204:284,1,82.5000025177003,4|0,3:2|0:0,0:0:0:0:
392,92,38652,2,0,L|296:72,1,82.5000025177003,0|0,3:0|0:0,0:0:0:0:
24,168,38968,2,0,P|104:144|160:220,1,165.000005035401,0|0,3:0|3:0,0:0:0:0:
372,144,39441,1,0,0:0:0:0:
308,356,39599,1,0,3:0:0:0:
248,168,39757,1,0,0:0:0:0:
460,232,39915,1,0,3:0:0:0:
160,232,40073,1,0,0:0:0:0:
12,100,40231,5,0,3:0:0:0:
67,100,40310,1,0,0:0:0:0:
121,90,40389,1,0,0:0:0:0:
172,72,40468,1,0,0:0:0:0:
219,39,40546,2,0,L|228:96,1,41.2500012588501,0|0,3:0|0:0,0:0:0:0:
336,288,40704,2,0,L|345:231,1,41.2500012588501
440,40,40862,6,0,L|462:159,1,82.5000025177003,4|0,3:2|0:0,0:0:0:0:
336,288,41178,2,0,P|272:316|236:312,1,82.5000025177003,0|0,3:0|0:0,0:0:0:0:
12,104,41494,2,0,P|93:102|165:141,1,165.000005035401,0|0,3:0|3:0,0:0:0:0:
44,296,41968,1,0,0:0:0:0:
308,216,42125,1,0,3:0:0:0:
208,360,42283,1,0,0:0:0:0:
248,68,42441,1,0,3:0:0:0:
476,248,42599,1,0,0:0:0:0:
184,148,42757,5,0,3:0:0:0:
130,140,42836,1,0,0:0:0:0:
87,108,42915,1,0,0:0:0:0:
64,60,42994,1,0,0:0:0:0:
68,6,43073,5,0,3:0:0:0:
84,76,43152,1,0,0:0:0:0:
91,146,43231,1,0,0:0:0:0:
91,218,43310,1,0,0:0:0:0:
85,289,43389,6,0,L|60:376,1,82.5000025177003,4|0,3:2|0:0,0:0:0:0:
284,104,43704,2,0,L|261:24,1,82.5000025177003,0|0,3:0|0:0,0:0:0:0:
220,284,44020,2,0,P|348:280|392:320,1,165.000005035401,0|0,3:0|3:0,0:0:0:0:
300,128,44494,1,0,0:0:0:0:
268,136,44573,1,0,0:0:0:0:
240,140,44652,5,0,3:0:0:0:
28,36,44810,1,0,0:0:0:0:
132,312,44968,5,0,3:0:0:0:
352,200,45125,1,0,0:0:0:0:
144,76,45283,1,0,3:0:0:0:
144,76,45362,1,0,0:0:0:0:
144,76,45441,1,0,0:0:0:0:
144,76,45520,1,0,0:0:0:0:
144,76,45599,6,0,L|152:128,1,41.2500012588501,0|0,3:2|0:0,0:0:0:0:
36,288,45757,2,0,L|42:247,1,41.2500012588501
336,152,45915,1,4,3:2:0:0:
172,304,46231,6,0,B|200:288|200:288|232:292|232:292|296:240|384:268,1,209.999993591309,0|4,3:0|3:2,0:0:0:0:
60,248,46862,2,0,L|80:76,1,157.499995193482,0|0,3:0|0:0,0:0:0:0:
84,64,47178,5,4,3:2:0:0:
192,324,47336,1,0,0:0:0:0:
360,112,47494,1,4,3:2:0:0:
52,176,47652,1,0,0:0:0:0:
436,344,47810,1,4,3:2:0:0:
116,104,48441,5,12,1:2:0:0:
116,104,48520,1,0,1:1:0:0:
72,272,48678,5,8,1:1:0:0:
80,296,48757,1,0,1:1:0:0:
244,384,48915,5,8,1:1:0:0:
244,384,48994,1,0,1:1:0:0:
200,216,49152,5,8,1:1:0:0:
208,192,49231,1,0,1:1:0:0:
376,72,49389,5,8,1:1:0:0:
368,336,49546,1,8,1:1:0:0:
244,48,49704,5,12,1:2:0:0:
244,48,49783,1,0,1:1:0:0:
156,224,49941,5,8,1:1:0:0:
132,232,50020,1,0,1:1:0:0:
0,148,50178,5,8,1:1:0:0:
0,148,50257,1,0,1:1:0:0:
88,324,50415,5,8,1:1:0:0:
112,332,50494,1,0,1:1:0:0:
272,352,50652,5,8,1:1:0:0:
239,138,50810,1,8,1:1:0:0:
88,336,50968,5,12,1:2:0:0:
80,304,51046,1,0,1:1:0:0:
192,188,51204,5,8,1:1:0:0:
184,220,51283,1,0,1:1:0:0:
328,152,51441,5,8,1:1:0:0:
320,120,51520,1,0,1:1:0:0:
432,4,51678,5,8,1:1:0:0:
424,36,51757,1,0,1:1:0:0:
344,316,51915,1,8,1:1:0:0:
472,140,52073,1,8,1:1:0:0:
304,120,52231,5,8,1:1:0:0:
268,140,52310,1,0,1:1:0:0:
228,152,52389,1,0,1:1:0:0:
187,155,52468,1,0,1:1:0:0:
147,148,52546,1,0,1:1:0:0:
109,132,52625,1,0,1:1:0:0:
76,107,52704,1,8,1:1:0:0:
49,76,52783,1,0,1:1:0:0:
30,40,52862,6,0,L|20:100,1,41.2500012588501,0|0,1:1|1:1,1:1:0:0:
88,284,53020,2,8,L|81:243,1,41.2500012588501,8|0,1:1|1:1,1:1:0:0:
200,32,53178,1,8,1:1:0:0:
267,40,53256,1,8,1:1:0:0:
336,48,53336,1,8,1:1:0:0:
406,57,53415,1,8,1:1:0:0:
475,65,53494,5,4,3:2:0:0:
384,264,53652,1,0,0:0:0:0:
388,272,53731,1,0,0:0:0:0:
392,280,53810,1,0,3:0:0:0:
280,168,53968,1,0,0:0:0:0:
60,308,54125,1,0,3:0:0:0:
232,324,54283,1,0,0:0:0:0:
184,56,54441,1,0,3:0:0:0:
424,144,54599,1,0,0:0:0:0:
116,204,54757,5,0,3:0:0:0:
312,32,54915,1,0,0:0:0:0:
324,64,54994,1,0,0:0:0:0:
328,96,55073,1,0,3:0:0:0:
72,0,55231,1,0,0:0:0:0:
228,184,55389,1,0,3:0:0:0:
4,232,55546,1,0,0:0:0:0:
96,96,55704,1,0,3:0:0:0:
144,320,55862,1,0,0:0:0:0:
296,164,56020,5,0,3:0:0:0:
172,308,56178,1,0,0:0:0:0:
144,320,56257,1,0,0:0:0:0:
120,332,56336,1,0,3:0:0:0:
224,32,56494,1,0,0:0:0:0:
432,264,56652,1,0,3:0:0:0:
116,192,56810,1,0,0:0:0:0:
348,32,56968,1,0,3:0:0:0:
352,324,57125,1,0,0:0:0:0:
176,88,57283,6,0,P|108:112|72:120,1,82.5000025177003,0|0,3:0|0:0,0:0:0:0:
278,293,57599,2,0,P|317:304|355:319,1,82.5000025177003,0|0,3:0|0:0,0:0:0:0:
97,114,57915,1,0,3:0:0:0:
99,134,57994,1,0,0:0:0:0:
101,154,58073,1,0,0:0:0:0:
103,175,58152,1,0,0:0:0:0:
180,200,58231,5,0,3:0:0:0:
176,240,58310,1,0,0:0:0:0:
172,280,58389,1,0,0:0:0:0:
168,322,58468,1,0,0:0:0:0:
162,362,58546,5,4,3:2:0:0:
304,256,58704,1,0,0:0:0:0:
304,256,58783,1,0,0:0:0:0:
304,256,58862,1,0,3:0:0:0:
480,324,59020,1,0,0:0:0:0:
436,136,59178,5,0,3:0:0:0:
204,184,59336,1,0,0:0:0:0:
316,56,59494,5,0,3:0:0:0:
84,8,59652,1,0,0:0:0:0:
160,228,59810,1,0,3:0:0:0:
188,24,59968,1,0,0:0:0:0:
192,20,60046,1,0,0:0:0:0:
196,16,60125,1,0,3:0:0:0:
0,88,60283,1,0,0:0:0:0:
156,240,60441,2,0,L|164:360,1,82.5000025177003,0|0,3:0|0:0,0:0:0:0:
332,92,60757,2,0,L|326:9,1,82.5000025177003,0|0,3:0|0:0,0:0:0:0:
272,280,61073,5,0,3:0:0:0:
412,104,61231,1,0,0:0:0:0:
412,104,61310,1,0,0:0:0:0:
412,104,61389,1,0,3:0:0:0:
384,308,61546,5,0,0:0:0:0:
208,168,61704,1,0,3:0:0:0:
48,248,61862,5,0,0:0:0:0:
188,72,62020,1,0,3:0:0:0:
248,288,62178,1,0,0:0:0:0:
248,288,62257,1,0,0:0:0:0:
248,288,62336,5,0,3:0:0:0:
308,36,62494,1,0,0:0:0:0:
460,384,62652,5,0,3:0:0:0:
400,132,62810,1,0,0:0:0:0:
212,268,62968,5,0,3:0:0:0:
154,265,63046,1,0,0:0:0:0:
106,234,63125,1,0,0:0:0:0:
80,183,63204,1,0,0:0:0:0:
83,126,63283,1,0,3:0:0:0:
114,78,63362,1,0,0:0:0:0:
164,52,63441,1,0,0:0:0:0:
221,54,63520,1,0,0:0:0:0:
272,76,63599,5,4,3:2:0:0:
488,52,63757,1,0,0:0:0:0:
408,264,63915,5,0,3:0:0:0:
190,231,64073,1,0,0:0:0:0:
40,36,64231,5,0,3:0:0:0:
72,276,64389,1,0,0:0:0:0:
264,136,64546,1,0,3:0:0:0:
0,212,64704,1,0,0:0:0:0:
192,384,64862,1,0,3:0:0:0:
200,48,65020,1,0,0:0:0:0:
480,240,65178,1,0,3:0:0:0:
280,220,65336,1,0,0:0:0:0:
440,40,65494,5,2,0:3:0:0:
464,352,65810,1,2,0:3:0:0:
78,69,66125,5,4,3:2:0:0:
89,102,66204,1,0,0:0:0:0:
86,136,66283,1,0,0:0:0:0:
99,167,66362,1,0,0:0:0:0:
96,200,66441,5,0,3:0:0:0:
131,184,66520,1,0,0:0:0:0:
171,176,66599,1,0,0:0:0:0:
212,177,66678,1,0,0:0:0:0:
252,185,66757,1,0,3:0:0:0:
290,202,66836,1,0,0:0:0:0:
323,227,66915,1,0,0:0:0:0:
351,257,66994,1,0,0:0:0:0:
372,292,67073,6,0,L|376:348,1,41.2500012588501,0|0,3:0|0:0,0:0:0:0:
484,120,67231,2,0,L|486:78,1,41.2500012588501
296,104,67389,1,0,3:0:0:0:
227,97,67468,1,0,0:0:0:0:
164,126,67546,1,0,0:0:0:0:
125,183,67625,1,0,0:0:0:0:
120,252,67704,6,0,L|128:328,1,56.2500021457673,0|0,3:0|0:0,0:0:0:0:
36,56,67862,2,0,L|44:-20,1,56.2500021457673
256,88,68020,1,2,0:3:0:0:
256,88,68336,1,2,0:3:0:0:
384,92,68652,5,4,3:2:0:0:
372,300,68810,1,0,0:0:0:0:
372,300,68889,1,0,0:0:0:0:
372,300,68968,1,0,3:0:0:0:
192,176,69125,1,0,0:0:0:0:
464,184,69283,2,0,P|500:100|452:4,1,165.000005035401,0|0,3:0|3:0,0:0:0:0:
204,160,69757,1,0,0:0:0:0:
204,160,69836,1,0,0:0:0:0:
204,160,69915,6,0,L|208:256,1,82.5000025177003,0|0,3:0|0:0,0:0:0:0:
40,84,70231,2,0,L|43:1,1,82.5000025177003,0|0,3:0|0:0,0:0:0:0:
288,112,70546,1,0,3:0:0:0:
289,132,70625,1,0,0:0:0:0:
290,153,70704,1,0,0:0:0:0:
292,173,70783,1,0,0:0:0:0:
368,200,70862,5,0,3:0:0:0:
365,244,70941,1,0,0:0:0:0:
363,290,71020,1,0,0:0:0:0:
359,335,71099,1,0,0:0:0:0:
356,381,71178,5,4,3:2:0:0:
140,256,71336,1,0,0:0:0:0:
140,256,71415,1,0,0:0:0:0:
140,256,71494,1,0,3:0:0:0:
332,140,71652,1,0,0:0:0:0:
76,156,71810,2,0,B|56:116|56:116|68:-16,1,165.000005035401,0|0,3:0|3:0,0:0:0:0:
232,240,72283,1,0,0:0:0:0:
236,216,72362,1,0,0:0:0:0:
240,192,72441,5,0,3:0:0:0:
448,144,72599,1,0,0:0:0:0:
284,80,72757,5,0,3:0:0:0:
76,32,72915,1,0,0:0:0:0:
144,240,73073,1,0,3:0:0:0:
165,236,73152,1,0,0:0:0:0:
186,236,73231,1,0,0:0:0:0:
207,239,73310,1,0,0:0:0:0:
296,264,73389,5,0,3:0:0:0:
343,273,73468,1,0,0:0:0:0:
391,273,73546,1,0,0:0:0:0:
439,266,73625,1,0,0:0:0:0:
485,248,73704,5,4,3:2:0:0:
360,64,73862,1,0,0:0:0:0:
360,64,73941,1,0,0:0:0:0:
360,64,74020,1,0,3:0:0:0:
280,268,74178,1,0,0:0:0:0:
136,88,74336,2,0,P|32:100|-4:28,1,165.000005035401,0|0,3:0|3:0,0:0:0:0:
72,336,74810,1,0,0:0:0:0:
72,336,74889,1,0,0:0:0:0:
72,336,74968,5,0,3:0:0:0:
324,256,75125,1,0,0:0:0:0:
192,84,75283,5,0,3:0:0:0:
444,164,75441,1,0,0:0:0:0:
240,340,75599,1,0,3:0:0:0:
198,344,75678,1,0,0:0:0:0:
157,348,75757,1,0,0:0:0:0:
116,352,75836,1,0,0:0:0:0:
75,357,75915,6,0,L|84:296,1,41.2500012588501,0|0,3:2|0:0,0:0:0:0:
216,68,76073,2,0,L|225:129,1,41.2500012588501,0|0,0:2|0:0,0:0:0:0:
272,272,76231,1,4,3:2:0:0:
96,140,76546,6,0,B|148:156|148:156|224:108|300:156,1,209.999993591309,0|4,3:0|3:2,0:0:0:0:
484,280,77178,2,0,L|288:296,1,157.499995193482,0|0,3:0|0:0,0:0:0:0:
304,296,77494,5,4,3:2:0:0:
120,56,77652,1,0,0:0:0:0:
32,336,77810,1,4,3:2:0:0:
240,68,77968,1,0,0:0:0:0:
392,380,78125,5,4,3:2:0:0:
73,150,78757,5,12,1:2:0:0:
68,196,78836,1,0,1:1:0:0:
196,315,78994,5,8,1:1:0:0:
192,269,79073,1,0,1:2:0:0:
287,96,79231,5,8,1:2:0:0:
283,141,79310,1,0,1:1:0:0:
411,260,79468,5,8,1:1:0:0:
406,214,79546,1,0,1:2:0:0:
140,60,79704,5,8,1:1:0:0:
428,12,79862,1,8,1:1:0:0:
328,276,80020,1,12,1:2:0:0:
328,276,80099,1,0,1:1:0:0:
128,176,80257,6,0,L|64:188,1,41.2500012588501,8|0,1:1|1:1,1:1:0:0:
176,316,80494,5,8,1:1:0:0:
176,316,80573,1,0,1:1:0:0:
276,116,80731,6,0,L|264:52,1,41.2500012588501,8|0,1:1|1:1,1:1:0:0:
76,44,80968,1,8,1:1:0:0:
288,256,81125,1,8,1:1:0:0:
48,236,81283,5,12,1:2:0:0:
56,216,81362,1,0,1:1:0:0:
156,84,81520,5,8,1:1:0:0:
164,104,81599,1,0,1:1:0:0:
300,328,81757,5,8,1:1:0:0:
320,320,81836,1,0,1:1:0:0:
188,220,81994,5,8,1:1:0:0:
168,212,82073,1,0,1:1:0:0:
396,168,82231,1,8,1:1:0:0:
232,20,82389,1,8,1:1:0:0:
56,192,82546,5,8,1:1:0:0:
56,192,82625,1,0,1:1:0:0:
56,192,82704,1,0,1:1:0:0:
56,192,82783,1,0,1:1:0:0:
56,192,82862,5,0,1:1:0:0:
102,167,82941,1,0,1:1:0:0:
153,152,83020,1,8,1:1:0:0:
205,148,83099,1,0,1:1:0:0:
257,154,83178,1,0,1:1:0:0:
308,170,83257,1,0,1:1:0:0:
353,196,83336,1,8,1:1:0:0:
393,231,83415,1,0,1:1:0:0:
425,273,83494,6,0,L|432:208,1,41.2500012588501,8|8,1:1|1:1,1:1:0:0:
488,40,83652,1,8,1:1:0:0:
492,81,83731,1,8,1:1:0:0:
497,123,83810,5,12,1:2:0:0:
497,123,83889,1,0,1:1:0:0:
312,312,84046,5,8,1:1:0:0:
312,312,84125,1,0,1:1:0:0:
332,32,84283,5,8,1:1:0:0:
332,32,84362,1,0,1:1:0:0:
147,221,84520,5,8,1:1:0:0:
147,221,84599,1,0,1:1:0:0:
344,324,84757,1,8,1:1:0:0:
332,96,84915,1,8,1:1:0:0:
64,48,85073,5,12,1:2:0:0:
72,128,85152,1,0,1:1:0:0:
204,184,85310,5,8,1:1:0:0:
212,264,85389,1,0,1:1:0:0:
456,312,85546,5,8,1:1:0:0:
448,232,85625,1,0,1:1:0:0:
316,176,85783,5,8,1:1:0:0:
308,96,85862,1,0,1:1:0:0:
124,224,86020,1,8,1:1:0:0:
316,324,86178,1,8,1:1:0:0:
272,104,86336,6,0,L|264:63,1,41.2500012588501,12|0,1:2|1:1,1:1:0:0:
136,208,86573,6,0,L|143:248,1,41.2500012588501,8|0,1:1|1:1,1:1:0:0:
144,92,86810,6,0,L|103:99,1,41.2500012588501,8|0,1:1|1:1,1:1:0:0:
248,228,87046,6,0,L|288:220,1,41.2500012588501,8|0,1:1|1:1,1:1:0:0:
440,64,87283,1,8,1:1:0:0:
496,296,87441,1,8,1:1:0:0:
328,84,87599,6,0,L|276:96,1,41.2500012588501,8|0,1:1|1:1,1:1:0:0:
164,72,87757,2,0,L|112:84,1,41.2500012588501,0|0,1:1|1:1,1:1:0:0:
40,168,87915,1,0,1:1:0:0:
40,168,87994,1,0,1:1:0:0:
40,168,88073,1,8,1:1:0:0:
40,168,88152,1,0,1:1:0:0:
40,168,88231,5,0,1:1:0:0:
81,168,88310,1,0,1:1:0:0:
120,180,88389,1,8,1:1:0:0:
154,203,88468,1,0,1:1:0:0:
180,236,88546,6,8,L|176:304,1,41.2500012588501,8|8,1:1|1:1,1:1:0:0:
284,144,88704,2,8,L|281:102,1,41.2500012588501,8|8,1:1|1:1,1:1:0:0:
320,280,88862,5,2,0:0:0:0:
330,281,88941,1,0,0:0:0:0:
340,282,89020,1,2,0:0:0:0:
350,283,89099,1,0,0:0:0:0:
361,284,89178,1,2,0:0:0:0:
371,285,89257,1,0,0:0:0:0:
381,286,89336,1,2,0:0:0:0:
391,287,89415,1,0,0:0:0:0:
400,288,89494,6,0,L|412:232,1,41.2500012588501,2|0,0:0|0:0,0:0:0:0:
464,80,89652,2,0,L|472:120,1,41.2500012588501,2|0,0:0|0:0,0:0:0:0:
332,136,89810,1,2,0:0:0:0:
270,141,89889,1,0,0:0:0:0:
208,147,89968,1,2,0:0:0:0:
147,153,90046,1,0,0:0:0:0:
85,158,90125,5,2,0:0:0:0:
87,178,90204,1,0,0:0:0:0:
89,198,90283,1,2,0:0:0:0:
91,219,90362,1,0,0:0:0:0:
72,284,90441,5,2,0:0:0:0:
76,232,90520,1,0,0:0:0:0:
81,180,90599,1,2,0:0:0:0:
87,126,90678,1,0,0:0:0:0:
100,48,90757,5,2,0:0:0:0:
140,56,90836,1,0,0:0:0:0:
181,59,90915,1,2,0:0:0:0:
221,52,90994,1,0,0:0:0:0:
258,33,91073,1,2,0:0:0:0:
297,21,91152,1,0,0:0:0:0:
338,19,91231,1,2,0:0:0:0:
379,24,91310,1,0,0:0:0:0:
256,192,91389,12,0,93915,0:0:0:0:
