osu file format v14

[General]
AudioFilename: Buta-Otome [Ranko] - .mp3
AudioLeadIn: 0
PreviewTime: 38176
Countdown: 0
SampleSet: Soft
StackLeniency: 0.3
Mode: 0
LetterboxInBreaks: 1
WidescreenStoryboard: 1

[Editor]
DistanceSpacing: 0.1
BeatDivisor: 4
GridSize: 4
TimelineZoom: 3.699998

[Metadata]
Title:Taranchura
TitleUnicode:タランチュラ
Artist:Buta-Otome
ArtistUnicode:コンプ
Creator:Chiyuyu
Version:Expert
Source:東方Project
Tags:ranko buta-otome comp touhou
BeatmapID:925582
BeatmapSetID:319098

[Difficulty]
HPDrainRate:7
CircleSize:4
OverallDifficulty:8
ApproachRate:9.5
SliderMultiplier:1.7
SliderTickRate:1

[Events]
//Background and Video events
0,0,"Konachan.com - 200670 sample.jpg",0,0
//Break Periods
//Storyboard Layer 0 (Background)
//Storyboard Layer 1 (Fail)
//Storyboard Layer 2 (Pass)
//Storyboard Layer 3 (Foreground)
//Storyboard Sound Samples

[TimingPoints]
2968,315.789473684211,4,2,1,50,1,0
8020,-90.9090909090909,4,2,1,50,0,0
38178,-200,4,2,1,50,0,0
38336,-90.9090909090909,4,2,1,50,0,1
40546,-90.9090909090909,4,2,1,50,0,0
40862,-90.9090909090909,4,2,1,50,0,1
43073,-90.9090909090909,4,2,1,50,0,0
43389,-90.9090909090909,4,2,1,50,0,1
46231,-90.9090909090909,4,2,1,50,0,1
47099,-90.9090909090909,4,2,1,5,0,1
47178,-90.9090909090909,4,2,1,50,0,1
48441,-90.9090909090909,4,2,1,50,0,0
67704,-66.6666666666667,4,2,1,50,0,0
68020,-90.9090909090909,4,2,1,25,0,0
68336,-90.9090909090909,4,2,1,15,0,0
68652,-90.9090909090909,4,2,1,50,0,1
70862,-90.9090909090909,4,2,1,50,0,0
71178,-90.9090909090909,4,2,1,50,0,1
73389,-90.9090909090909,4,2,1,50,0,0
73704,-90.9090909090909,4,2,1,50,0,1
76546,-71.4285714285714,4,2,1,50,0,1
78757,-90.9090909090909,4,2,1,50,0,0
88862,-90.9090909090909,4,2,1,40,0,0
91389,-142.857142857143,4,2,1,50,0,0
93915,-142.857142857143,4,2,1,5,0,0

[Colours]
Combo1 : 0,128,0
Combo2 : 0,0,64
Combo3 : 128,0,64
Combo4 : 255,255,0
Combo5 : 0,128,255

[HitObjects]
80,96,2968,6,8,L|72:152,1,42.5,12|0,1:2|1:0,1:0:0:0:
164,248,3204,2,8,L|157:205,1,42.5,8|0,1:0|1:0,1:0:0:0:
204,60,3441,2,8,L|196:116,1,42.5,8|0,1:0|1:0,1:0:0:0:
288,212,3678,2,8,L|281:169,1,42.5,8|0,1:0|1:0,1:0:0:0:
336,36,3915,2,8,L|460:44,1,85,8|8,1:0|1:0,1:0:0:0:
424,228,4231,6,8,L|368:236,1,42.5,12|0,1:2|1:0,1:0:0:0:
268,352,4468,2,8,L|310:345,1,42.5,8|0,1:0|1:0,1:0:0:0:
256,160,4704,2,8,L|200:168,1,42.5,8|0,1:0|1:0,1:0:0:0:
100,284,4941,2,8,L|142:277,1,42.5,8|0,1:0|1:0,1:0:0:0:
340,164,5178,2,8,P|416:144|436:144,1,85,8|8,1:0|1:0,1:0:0:0:
228,80,5494,6,8,P|190:90|179:90,1,42.5,12|0,1:2|1:0,1:0:0:0:
0,32,5731,2,8,P|19:24|40:21,1,42.5,8|0,1:0|1:0,1:0:0:0:
119,237,5968,2,8,P|121:258|129:277,1,42.5,8|0,1:0|1:0,1:0:0:0:
187,90,6205,2,8,P|184:68|176:49,1,42.5,8|0,1:0|1:0,1:0:0:0:
288,212,6441,2,8,L|384:204,1,85,8|8,1:0|1:0,1:0:0:0:
456,104,6757,6,0,L|460:44,3,42.5,8|0|0|0,1:0|1:0|1:0|1:0,1:0:0:0:
352,0,7073,2,0,L|354:42,3,42.5,0|0|8|0,1:0|1:0|1:0|1:0,1:0:0:0:
264,104,7389,1,0,1:0:0:0:
221,104,7467,1,0,1:0:0:0:
180,95,7546,1,8,1:0:0:0:
142,76,7625,1,0,1:0:0:0:
88,12,7704,5,8,1:0:0:0:
90,66,7782,1,8,1:0:0:0:
94,121,7861,1,8,1:0:0:0:
97,177,7940,1,8,1:0:0:0:
101,232,8020,6,0,P|164:240|200:252,1,93.5000028533936,4|0,3:2|0:0,0:0:0:0:
384,120,8336,2,0,P|339:132|292:136,1,93.5000028533936,0|0,3:0|0:0,0:0:0:0:
268,340,8652,1,0,3:0:0:0:
440,272,8810,1,0,0:0:0:0:
272,252,8968,1,0,3:0:0:0:
444,184,9126,1,0,0:0:0:0:
296,80,9283,5,0,3:0:0:0:
128,104,9441,1,0,0:0:0:0:
128,104,9520,1,0,0:0:0:0:
128,104,9599,2,0,L|140:212,1,93.5000028533936,0|0,3:0|0:0,0:0:0:0:
280,316,9915,2,0,L|290:223,1,93.5000028533936,0|0,3:0|0:0,0:0:0:0:
388,176,10231,1,0,3:0:0:0:
236,52,10389,1,0,0:0:0:0:
176,232,10546,5,0,3:0:0:0:
352,52,10704,1,0,0:0:0:0:
352,52,10783,1,0,0:0:0:0:
352,52,10862,2,0,P|400:72|452:80,1,93.5000028533936,0|0,3:0|0:0,0:0:0:0:
176,136,11178,2,0,P|130:144|87:163,1,93.5000028533936,0|0,3:0|0:0,0:0:0:0:
88,364,11494,1,0,3:0:0:0:
12,224,11652,1,0,0:0:0:0:
244,264,11810,6,0,L|356:276,1,93.5000028533936,0|0,3:0|0:0,0:0:0:0:
104,40,12125,2,0,L|11:30,1,93.5000028533936,0|0,3:0|0:0,0:0:0:0:
96,196,12441,5,0,3:0:0:0:
216,56,12599,1,0,0:0:0:0:
24,120,12757,1,0,3:0:0:0:
8,163,12835,1,0,0:0:0:0:
3,210,12914,1,0,0:0:0:0:
11,256,12993,1,0,0:0:0:0:
29,299,13073,6,0,P|116:292|232:336,1,187.000005706787,4|0,3:2|3:0,0:0:0:0:
209,321,13546,1,0,0:0:0:0:
288,180,13704,2,0,L|296:72,1,93.5000028533936,0|0,3:0|0:0,0:0:0:0:
92,80,14020,1,0,3:0:0:0:
200,24,14178,1,0,0:0:0:0:
196,304,14336,5,0,3:0:0:0:
168,160,14494,1,0,0:0:0:0:
168,160,14573,1,0,0:0:0:0:
168,160,14652,2,0,P|120:184|68:192,1,93.5000028533936,0|0,3:0|0:0,0:0:0:0:
0,376,14968,2,0,P|48:352|100:344,1,93.5000028533936,0|0,3:0|0:0,0:0:0:0:
332,272,15283,1,0,3:0:0:0:
180,256,15441,1,0,0:0:0:0:
272,144,15599,5,0,3:0:0:0:
392,344,15757,1,0,0:0:0:0:
392,344,15836,1,0,0:0:0:0:
392,344,15915,2,0,L|500:356,1,93.5000028533936,0|0,3:0|0:0,0:0:0:0:
364,154,16231,2,0,L|271:143,1,93.5000028533936,0|0,3:0|0:0,0:0:0:0:
112,312,16546,2,0,L|220:324,1,93.5000028533936,0|0,3:0|0:0,0:0:0:0:
352,264,16862,5,0,3:0:0:0:
367,149,17020,1,0,0:0:0:0:
160,52,17178,5,0,3:0:0:0:
144,166,17336,1,0,0:0:0:0:
64,316,17494,6,0,L|128:312,3,46.7500014266968,0|0|0|0,3:0|0:0|0:0|0:0,0:0:0:0:
184,260,17810,1,0,3:0:0:0:
230,262,17888,1,0,0:0:0:0:
277,265,17967,1,0,0:0:0:0:
323,268,18046,1,0,0:0:0:0:
370,271,18125,5,4,3:2:0:0:
380,76,18283,1,0,0:0:0:0:
472,348,18441,5,0,3:0:0:0:
462,153,18599,1,0,0:0:0:0:
276,154,18757,5,0,3:0:0:0:
286,349,18915,1,0,0:0:0:0:
194,77,19073,5,0,3:0:0:0:
184,272,19231,1,0,0:0:0:0:
352,180,19389,6,0,L|456:176,1,93.5000028533936,0|0,3:0|0:0,0:0:0:0:
256,132,19704,2,0,P|244:188|252:232,1,93.5000028533936,0|0,3:0|0:0,3:0:0:0:
312,344,20020,5,2,0:3:0:0:
376,36,20336,1,2,0:3:0:0:
144,100,20652,6,0,P|88:112|40:112,1,93.5000028533936,4|0,3:2|0:0,0:0:0:0:
224,32,20968,1,0,3:0:0:0:
208,216,21125,1,0,0:0:0:0:
208,216,21204,1,0,0:0:0:0:
208,216,21283,2,0,B|260:224|260:224|304:252,1,93.5000028533936,0|0,3:0|0:0,0:0:0:0:
88,340,21599,2,0,B|36:332|36:332|-8:304,1,93.5000028533936,0|0,3:0|0:0,0:0:0:0:
1,310,21836,1,0,0:0:0:0:
1,310,21915,5,0,3:0:0:0:
104,148,22073,1,0,0:0:0:0:
316,164,22231,5,0,3:0:0:0:
213,1,22389,1,0,0:0:0:0:
248,260,22546,5,2,0:3:0:0:
452,36,22862,1,2,0:3:0:0:
104,116,23178,6,0,P|104:240|140:320,1,187.000005706787,4|0,3:2|3:0,0:0:0:0:
184,344,23652,1,0,0:0:0:0:
296,184,23810,2,0,L|400:192,1,93.5000028533936,0|0,3:0|0:0,0:0:0:0:
248,36,24125,2,0,L|154:28,1,93.5000028533936,0|0,3:0|0:0,0:0:0:0:
48,184,24441,5,0,3:0:0:0:
65,37,24599,1,0,0:0:0:0:
65,37,24678,1,0,0:0:0:0:
65,37,24757,2,0,P|137:37|169:17,1,93.5000028533936,0|0,3:0|0:0,0:0:0:0:
344,176,25073,2,0,P|300:160|254:167,1,93.5000028533936,0|0,3:0|0:0,0:0:0:0:
132,296,25389,1,0,3:0:0:0:
312,340,25546,1,0,0:0:0:0:
132,296,25704,5,0,3:0:0:0:
192,116,25862,1,0,0:0:0:0:
192,116,25941,1,0,0:0:0:0:
192,116,26020,1,0,3:0:0:0:
320,264,26178,1,0,0:0:0:0:
152,320,26336,5,0,3:0:0:0:
199,136,26494,1,0,0:0:0:0:
337,274,26652,1,0,3:0:0:0:
91,199,26810,1,0,0:0:0:0:
272,64,26968,6,0,P|332:68|384:80,1,93.5000028533936,0|0,3:0|0:0,0:0:0:0:
152,276,27283,2,0,P|106:284|59:286,1,93.5000028533936,0|0,3:0|0:0,0:0:0:0:
24,72,27599,5,0,3:0:0:0:
24,72,27678,1,0,0:0:0:0:
24,72,27757,1,0,0:0:0:0:
24,72,27836,1,0,0:0:0:0:
24,72,27915,2,0,L|32:136,1,46.7500014266968,0|0,3:0|0:0,0:0:0:0:
112,160,28073,2,0,L|104:224,1,46.7500014266968
12,264,28231,6,0,P|56:292|200:272,1,187.000005706787,4|0,3:2|3:0,0:0:0:0:
280,212,28704,1,0,0:0:0:0:
280,212,28783,1,0,0:0:0:0:
280,212,28862,2,0,P|328:200|388:196,1,93.5000028533936,0|0,3:0|0:0,0:0:0:0:
168,180,29178,2,0,P|121:175|76:163,1,93.5000028533936,0|0,3:0|0:0,0:0:0:0:
144,32,29494,5,0,3:0:0:0:
260,104,29652,1,0,0:0:0:0:
272,116,29731,1,0,0:0:0:0:
288,128,29810,1,0,3:0:0:0:
48,56,29968,1,0,0:0:0:0:
168,180,30125,2,0,P|156:228|160:304,1,93.5000028533936,0|0,3:0|0:0,0:0:0:0:
380,168,30441,2,0,P|378:121|366:76,1,93.5000028533936,0|0,3:0|0:0,0:0:0:0:
200,48,30757,5,0,3:0:0:0:
280,208,30915,1,0,0:0:0:0:
284,240,30994,1,0,0:0:0:0:
288,272,31073,1,0,3:0:0:0:
208,352,31231,1,0,0:0:0:0:
124,272,31389,2,0,L|16:280,1,93.5000028533936,0|0,3:0|0:0,0:0:0:0:
136,132,31704,2,0,L|229:125,1,93.5000028533936,0|0,3:0|0:0,0:0:0:0:
328,252,32020,5,0,3:0:0:0:
404,112,32178,1,0,0:0:0:0:
236,268,32336,1,0,3:0:0:0:
96,192,32494,1,0,0:0:0:0:
216,65,32652,6,0,L|220:112,3,46.7500014266968,0|0|0|0,3:0|0:0|0:0|0:0,0:0:0:0:
272,176,32968,1,0,3:0:0:0:
268,222,33046,1,0,0:0:0:0:
265,269,33125,1,0,0:0:0:0:
262,315,33204,1,0,0:0:0:0:
259,362,33283,6,0,P|320:360|372:352,1,93.5000028533936,4|0,3:2|0:0,0:0:0:0:
132,216,33599,2,0,P|85:221|38:222,1,93.5000028533936,0|0,3:0|0:0,0:0:0:0:
351,77,33915,6,0,P|398:77|445:83,1,93.5000028533936,0|0,3:0|0:0,0:0:0:0:
225,222,34231,2,0,P|178:217|131:216,1,93.5000028533936,0|0,3:0|0:0,0:0:0:0:
52,84,34546,5,0,3:0:0:0:
52,84,34704,1,0,0:0:0:0:
60,280,34862,6,0,L|56:392,1,93.5000028533936,0|0,3:0|0:0,0:0:0:0:
216,128,35178,5,2,0:3:0:0:
416,192,35494,1,2,0:3:0:0:
144,204,35810,6,0,P|88:208|28:224,1,93.5000028533936,4|0,3:2|0:0,0:0:0:0:
12,48,36125,1,0,3:0:0:0:
156,96,36283,1,0,0:0:0:0:
156,96,36362,1,0,0:0:0:0:
156,96,36441,2,0,L|268:92,1,93.5000028533936,0|0,3:0|0:0,0:0:0:0:
344,24,36757,1,0,3:0:0:0:
388,144,36915,1,0,0:0:0:0:
388,144,36994,1,0,0:0:0:0:
388,144,37073,6,0,P|408:232|412:256,1,93.5000028533936,0|0,3:0|0:0,0:0:0:0:
220,356,37389,2,0,P|229:310|240:264,1,93.5000028533936,0|0,3:0|0:0,0:0:0:0:
124,52,37704,5,2,0:3:0:0:
144,264,38020,6,0,L|148:232,6,23.3750007133484,2|0|0|0|0|0|0,0:3|0:0|0:0|0:0|0:0|0:0|0:0,0:0:0:0:
152,220,38336,6,0,B|272:240|224:168|344:192,1,187.000005706787,4|0,3:2|3:0,0:0:0:0:
330,189,38810,1,0,0:0:0:0:
148,92,38968,2,0,L|28:108,1,93.5000028533936,0|0,3:0|0:0,0:0:0:0:
292,16,39283,2,0,L|412:32,1,93.5000028533936,0|0,3:0|0:0,0:0:0:0:
368,236,39599,5,0,3:0:0:0:
500,116,39757,1,0,0:0:0:0:
296,384,39915,5,0,3:0:0:0:
176,252,40073,1,0,0:0:0:0:
260,112,40231,1,0,3:0:0:0:
260,112,40310,1,0,0:0:0:0:
260,112,40389,1,0,0:0:0:0:
260,112,40468,1,0,0:0:0:0:
260,112,40546,6,0,L|264:176,1,46.7500014266968,0|0,3:0|0:0,0:0:0:0:
132,76,40704,2,0,L|134:29,1,46.7500014266968
64,196,40862,6,0,L|72:316,1,93.5000028533936,4|0,3:2|0:0,0:0:0:0:
262,158,41178,2,0,L|255:64,1,93.5000028533936,0|0,3:0|0:0,0:0:0:0:
196,256,41494,2,0,P|284:280|356:208,1,187.000005706787,0|0,3:0|3:0,0:0:0:0:
416,48,41968,1,0,0:0:0:0:
416,48,42046,1,0,0:0:0:0:
416,48,42125,6,0,P|356:56|308:80,1,93.5000028533936,0|0,3:0|0:0,0:0:0:0:
105,235,42441,2,0,P|148:251|195:255,1,93.5000028533936,0|0,3:0|0:0,0:0:0:0:
443,185,42757,1,0,3:0:0:0:
406,158,42836,1,0,0:0:0:0:
361,144,42915,1,0,0:0:0:0:
315,146,42994,1,0,0:0:0:0:
272,164,43073,6,0,L|204:160,1,46.7500014266968,0|0,3:0|0:0,0:0:0:0:
64,72,43231,2,0,L|110:69,1,46.7500014266968
248,8,43389,6,0,L|356:16,1,93.5000028533936,4|0,3:2|0:0,0:0:0:0:
225,161,43704,2,0,L|131:167,1,93.5000028533936,0|0,3:0|0:0,0:0:0:0:
64,325,44020,2,0,B|136:320|136:320|178:293|178:293|262:287,1,187.000005706787,0|0,3:0|3:0,0:0:0:0:
376,172,44494,1,0,0:0:0:0:
380,192,44573,1,0,0:0:0:0:
376,212,44652,1,0,3:0:0:0:
188,128,44810,1,0,0:0:0:0:
344,4,44968,1,0,3:0:0:0:
256,216,45125,1,0,0:0:0:0:
84,140,45283,6,0,L|12:152,1,46.7500014266968,0|0,3:0|0:0,0:0:0:0:
144,32,45441,2,0,L|190:39,1,46.7500014266968
200,144,45599,6,0,B|232:128|276:140|276:140|300:72|380:64,1,187.000005706787,0|4,3:2|3:2,0:0:0:0:
152,260,46231,2,0,P|68:192|88:96,1,187.000005706787,0|4,3:2|3:2,0:0:0:0:
184,152,46862,6,0,P|273:142|336:124,1,140.25000428009,0|0,3:2|0:0,0:0:0:0:
344,120,47178,1,4,3:2:0:0:
320,292,47336,1,0,0:0:0:0:
444,56,47494,1,4,3:2:0:0:
468,228,47652,1,0,0:0:0:0:
174,62,47810,5,4,3:2:0:0:
80,156,48441,6,8,L|76:224,1,46.7500014266968,12|0,1:2|1:0,1:0:0:0:
216,300,48678,2,0,L|213:253,1,46.7500014266968,8|0,1:0|1:0,1:0:0:0:
200,80,48915,2,8,L|196:148,1,46.7500014266968,8|0,1:0|1:0,1:0:0:0:
336,224,49152,2,8,L|333:177,1,46.7500014266968,8|0,1:0|1:0,1:0:0:0:
104,28,49389,2,8,L|96:140,1,93.5000028533936,8|8,1:0|1:0,1:0:0:0:
164,312,49704,6,8,P|184:324|228:336,1,46.7500014266968,12|0,1:2|1:0,1:0:0:0:
332,177,49941,2,8,P|310:185|290:197,1,46.7500014266968,8|0,1:0|1:0,1:0:0:0:
48,120,50178,2,8,P|68:108|112:96,1,46.7500014266968,8|0,1:0|1:0,1:0:0:0:
216,255,50415,2,8,P|194:246|174:234,1,46.7500014266968,8|0,1:0|1:0,1:0:0:0:
332,177,50652,2,8,L|432:185,1,93.5000028533936,8|8,1:0|1:0,1:0:0:0:
208,100,50968,5,12,1:2:0:0:
208,100,51046,1,0,1:0:0:0:
168,188,51204,2,8,L|176:252,1,46.7500014266968,8|0,1:0|1:0,1:0:0:0:
104,360,51442,5,8,1:0:0:0:
104,360,51520,1,0,1:0:0:0:
64,272,51678,2,8,L|72:208,1,46.7500014266968,8|0,1:0|1:0,1:0:0:0:
224,356,51915,2,8,L|344:352,1,93.5000028533936,8|8,1:0|1:0,1:0:0:0:
324,260,52231,6,0,L|232:264,1,46.7500014266968,8|0,1:0|1:0,1:0:0:0:
420,360,52389,2,0,L|466:362,1,46.7500014266968,0|0,1:0|1:0,1:0:0:0:
344,156,52546,2,0,L|252:160,1,46.7500014266968,0|0,1:0|1:0,1:0:0:0:
440,256,52704,2,0,L|486:258,1,46.7500014266968,8|0,1:0|1:0,1:0:0:0:
368,56,52862,2,0,L|276:60,1,46.7500014266968,0|0,1:0|1:0,1:0:0:0:
464,156,53020,2,0,L|510:158,1,46.7500014266968,8|0,1:0|1:0,1:0:0:0:
292,288,53178,5,8,1:0:0:0:
249,269,53256,1,8,1:0:0:0:
204,255,53335,1,8,1:0:0:0:
158,245,53414,1,8,1:0:0:0:
112,240,53494,6,0,L|104:124,1,93.5000028533936,4|0,3:2|0:0,0:0:0:0:
238,89,53810,2,0,P|298:109|354:109,1,93.5000028533936,0|0,3:0|0:0,0:0:0:0:
176,320,54125,2,0,P|129:325|86:342,1,93.5000028533936,0|0,3:0|0:0,0:0:0:0:
48,144,54441,1,0,3:0:0:0:
8,300,54599,1,0,0:0:0:0:
148,144,54757,5,0,3:0:0:0:
272,72,54915,1,0,0:0:0:0:
272,72,54994,1,0,0:0:0:0:
272,72,55073,2,0,P|280:136|280:184,1,93.5000028533936,0|0,3:0|0:0,0:0:0:0:
200,280,55389,1,0,3:0:0:0:
336,312,55546,1,0,0:0:0:0:
404,188,55704,1,0,3:0:0:0:
308,84,55862,1,0,0:0:0:0:
284,224,56020,5,0,3:0:0:0:
184,128,56178,1,0,0:0:0:0:
184,128,56257,1,0,0:0:0:0:
184,128,56336,2,0,P|124:136|80:160,1,93.5000028533936,0|0,3:0|0:0,0:0:0:0:
88,292,56652,2,0,P|148:284|192:260,1,93.5000028533936,0|0,3:0|0:0,0:0:0:0:
292,188,56968,2,0,L|416:196,1,93.5000028533936,0|0,3:0|0:0,0:0:0:0:
448,88,57283,5,0,3:0:0:0:
464,296,57441,1,0,0:0:0:0:
340,104,57599,5,0,3:0:0:0:
324,312,57757,1,0,0:0:0:0:
184,132,57915,6,0,L|116:144,1,46.7500014266968,0|0,3:0|0:0,0:0:0:0:
8,192,58073,2,0,L|54:200,1,46.7500014266968
224,152,58231,6,0,L|142:166,1,46.7500014266968,0|0,3:0|0:0,0:0:0:0:
12,224,58389,2,0,L|67:233,1,46.7500014266968
248,176,58546,6,0,L|128:200,1,93.5000028533936,4|0,3:2|0:0,0:0:0:0:
156,194,58783,1,0,0:0:0:0:
156,194,58862,1,0,3:0:0:0:
272,196,59020,5,0,0:0:0:0:
272,92,59178,2,0,P|336:116|372:152,1,93.5000028533936,0|0,3:0|0:0,0:0:0:0:
268,308,59494,2,0,P|204:284|168:248,1,93.5000028533936,0|0,3:0|0:0,0:0:0:0:
156,64,59810,5,0,3:0:0:0:
104,188,59968,1,0,0:0:0:0:
104,188,60046,1,0,0:0:0:0:
104,188,60125,2,0,L|-4:196,1,93.5000028533936,0|0,3:0|0:0,0:0:0:0:
228,296,60441,2,0,L|336:304,1,93.5000028533936,0|0,3:0|0:0,0:0:0:0:
424,156,60757,1,0,3:0:0:0:
440,300,60915,1,0,0:0:0:0:
344,104,61073,5,0,3:0:0:0:
192,180,61231,1,0,0:0:0:0:
192,180,61310,1,0,0:0:0:0:
192,180,61389,1,0,3:0:0:0:
212,16,61546,1,0,0:0:0:0:
292,236,61704,1,0,3:0:0:0:
72,316,61862,1,0,0:0:0:0:
212,340,62020,1,0,3:0:0:0:
164,208,62178,1,0,0:0:0:0:
264,112,62336,6,0,B|316:120|316:120|372:152,1,93.5000028533936,0|0,3:0|0:0,0:0:0:0:
436,252,62652,2,0,B|400:272|400:272|348:280,1,93.5000028533936,0|0,3:0|0:0,0:0:0:0:
220,336,62968,5,0,3:0:0:0:
202,330,63046,1,0,0:0:0:0:
202,311,63125,1,0,0:0:0:0:
220,305,63204,1,0,0:0:0:0:
230,320,63283,5,0,3:0:0:0:
200,283,63361,1,0,0:0:0:0:
183,240,63440,1,0,0:0:0:0:
178,194,63519,1,0,0:0:0:0:
187,148,63599,6,0,L|192:40,1,93.5000028533936,4|0,3:2|0:0,0:0:0:0:
340,160,63915,2,0,L|335:253,1,93.5000028533936,0|0,3:0|0:0,0:0:0:0:
88,256,64231,6,0,L|92:147,1,93.5000028533936,0|0,3:0|0:0,0:0:0:0:
240,267,64547,2,0,L|235:360,1,93.5000028533936,0|0,3:0|0:0,0:0:0:0:
228,84,64862,5,0,3:0:0:0:
400,172,65020,1,0,0:0:0:0:
256,176,65178,5,0,3:0:0:0:
344,4,65336,1,0,0:0:0:0:
344,288,65494,5,2,0:3:0:0:
72,172,65810,1,2,0:3:0:0:
84,56,66125,5,4,3:2:0:0:
224,52,66283,1,0,0:0:0:0:
224,52,66362,1,0,0:0:0:0:
224,52,66441,2,0,L|232:172,1,93.5000028533936,0|0,3:0|0:0,0:0:0:0:
428,328,66757,5,0,3:0:0:0:
288,332,66915,1,0,0:0:0:0:
288,332,66994,1,0,0:0:0:0:
288,332,67073,2,0,L|281:238,1,93.5000028533936,0|0,3:0|0:0,0:0:0:0:
400,112,67389,2,0,P|412:176|428:240,1,93.5000028533936,0|0,3:0|0:0,0:0:0:0:
208,144,67704,6,0,L|120:156,1,63.7500024318696,0|0,3:0|0:0,0:0:0:0:
4,288,67862,2,0,L|67:296,1,63.7500024318696
224,148,68020,5,2,0:3:0:0:
244,152,68336,1,2,0:3:0:0:
260,156,68652,6,0,B|312:148|312:148|356:124,1,93.5000028533936,4|0,3:2|0:0,0:0:0:0:
180,0,68968,2,0,B|128:8|128:8|92:27,1,93.5000028533936,0|0,3:0|0:0,0:0:0:0:
2,245,69283,2,0,B|112:272|76:208|184:228,1,187.000005706787,0|0,3:0|3:0,0:0:0:0:
182,227,69757,1,0,0:0:0:0:
208,352,69915,6,0,P|276:312|304:276,1,93.5000028533936,0|0,3:0|0:0,0:0:0:0:
132,88,70231,2,0,P|89:107|54:138,1,93.5000028533936,0|0,3:0|0:0,0:0:0:0:
296,120,70546,5,0,3:0:0:0:
296,120,70625,1,0,0:0:0:0:
296,120,70704,1,0,0:0:0:0:
296,120,70783,1,0,0:0:0:0:
316,140,70862,5,0,3:0:0:0:
319,186,70940,1,0,0:0:0:0:
323,233,71019,1,0,0:0:0:0:
327,279,71098,1,0,0:0:0:0:
331,326,71178,6,0,P|408:328|448:352,1,93.5000028533936,4|0,3:2|0:0,0:0:0:0:
196,252,71494,2,0,P|151:264|105:260,1,93.5000028533936,0|0,3:0|0:0,0:0:0:0:
264,80,71810,2,0,B|400:56|400:56|392:128,1,187.000005706787,0|0,3:0|3:0,0:0:0:0:
324,232,72283,1,0,0:0:0:0:
324,232,72362,1,0,0:0:0:0:
324,232,72441,6,0,L|332:352,1,93.5000028533936,0|0,3:0|0:0,0:0:0:0:
148,136,72757,2,0,L|154:42,1,93.5000028533936,0|0,3:0|0:0,0:0:0:0:
65,230,73073,5,0,3:0:0:0:
104,253,73151,1,0,0:0:0:0:
150,261,73230,1,0,0:0:0:0:
196,252,73309,1,0,0:0:0:0:
235,227,73389,6,0,P|240:192|240:148,1,46.7500014266968,0|0,3:0|0:0,0:0:0:0:
312,56,73546,2,0,P|313:79|317:102,1,46.7500014266968
344,232,73704,6,0,L|332:340,1,93.5000028533936,4|0,3:2|0:0,0:0:0:0:
432,164,74020,2,0,L|421:71,1,93.5000028533936,0|0,3:0|0:0,0:0:0:0:
136,124,74336,2,0,B|184:100|184:100|332:124,1,187.000005706787,0|0,3:0|3:0,0:0:0:0:
420,324,74810,1,0,0:0:0:0:
424,304,74889,1,0,0:0:0:0:
428,284,74968,5,0,3:0:0:0:
340,104,75125,1,0,0:0:0:0:
232,280,75283,1,0,3:0:0:0:
440,164,75441,1,0,0:0:0:0:
184,208,75599,1,0,3:0:0:0:
172,210,75677,1,0,0:0:0:0:
161,213,75756,1,0,0:0:0:0:
149,216,75835,1,0,0:0:0:0:
136,220,75915,6,0,L|144:148,1,46.7500014266968,0|0,3:0|0:0,0:0:0:0:
92,112,76073,2,0,L|100:40,1,46.7500014266968
156,12,76231,1,4,3:2:0:0:
236,196,76546,6,0,P|296:152|264:248,1,237.999992736817,0|4,3:0|3:2,0:0:0:0:
282,253,77178,2,0,P|296:164|292:68,1,178.499994552612,0|0,3:0|0:0,0:0:0:0:
288,52,77494,5,4,3:2:0:0:
96,116,77652,1,0,0:0:0:0:
192,252,77810,5,4,3:2:0:0:
0,188,77968,1,0,0:0:0:0:
380,152,78125,1,4,3:2:0:0:
200,264,78757,6,8,L|196:348,1,46.7500014266968,12|0,1:2|1:0,1:0:0:0:
288,216,78994,2,8,L|290:169,1,46.7500014266968,8|0,1:0|1:0,1:0:0:0:
360,284,79231,2,8,L|356:368,1,46.7500014266968,8|0,1:0|1:0,1:0:0:0:
448,236,79468,2,8,L|450:189,1,46.7500014266968,8|0,1:0|1:0,1:0:0:0:
380,56,79704,1,8,1:0:0:0:
380,56,79862,1,8,1:0:0:0:
248,124,80020,5,12,1:2:0:0:
248,124,80099,1,0,1:0:0:0:
160,164,80257,2,8,P|140:156|100:152,1,46.7500014266968,8|0,1:0|1:0,1:0:0:0:
264,260,80494,5,8,1:0:0:0:
264,260,80573,1,0,1:0:0:0:
352,220,80731,2,8,P|372:228|412:232,1,46.7500014266968,8|0,1:0|1:0,1:0:0:0:
392,124,80968,2,8,L|384:16,1,93.5000028533936,8|8,1:0|1:0,1:0:0:0:
84,80,81283,5,12,1:2:0:0:
84,80,81362,1,0,1:0:0:0:
184,124,81520,5,8,1:0:0:0:
184,124,81599,1,0,1:0:0:0:
208,248,81757,5,8,1:0:0:0:
208,248,81836,1,0,1:0:0:0:
108,204,81994,5,8,1:0:0:0:
108,204,82073,1,0,1:0:0:0:
300,164,82231,2,8,B|348:180|348:180|404:176,1,93.5000028533936,8|8,1:0|1:0,1:0:0:0:
360,40,82546,5,8,1:0:0:0:
360,40,82625,1,0,1:0:0:0:
360,40,82704,1,0,1:0:0:0:
360,40,82783,1,0,1:0:0:0:
360,40,82862,6,0,P|312:32|300:24,1,46.7500014266968,0|0,1:0|1:0,1:0:0:0:
172,104,83020,2,0,P|194:97|217:97,1,46.7500014266968,8|0,1:0|1:0,1:0:0:0:
380,140,83178,6,0,P|332:132|320:124,1,46.7500014266968,0|0,1:0|1:0,1:0:0:0:
192,204,83336,2,0,P|214:197|237:197,1,46.7500014266968,8|0,1:0|1:0,1:0:0:0:
334,133,83494,1,8,1:0:0:0:
337,179,83572,1,8,1:0:0:0:
341,226,83651,1,8,1:0:0:0:
344,272,83730,1,8,1:0:0:0:
348,319,83810,5,12,1:2:0:0:
348,319,83889,1,0,1:0:0:0:
216,300,84046,2,8,L|140:316,1,46.7500014266968,8|8,1:0|1:0,1:0:0:0:
44,188,84283,5,8,1:0:0:0:
44,188,84363,1,0,1:0:0:0:
176,207,84520,2,8,L|252:191,1,46.7500014266968,8|0,1:0|1:0,1:0:0:0:
348,124,84757,2,8,P|364:200|364:256,1,93.5000028533936,8|8,1:0|1:0,1:0:0:0:
204,76,85073,6,8,L|208:0,1,46.7500014266968,12|0,1:2|1:0,1:0:0:0:
80,72,85310,2,8,L|77:118,1,46.7500014266968,8|0,1:0|1:0,1:0:0:0:
320,196,85546,2,8,L|324:120,1,46.7500014266968,8|0,1:0|1:0,1:0:0:0:
196,192,85783,2,8,L|193:238,1,46.7500014266968,8|0,1:0|1:0,1:0:0:0:
292,52,86020,2,8,P|368:56|408:80,1,93.5000028533936,8|8,1:0|1:0,1:0:0:0:
428,244,86336,6,8,P|392:240|364:240,1,46.7500014266968,12|0,1:2|1:0,1:0:0:0:
256,344,86573,2,8,P|279:340|302:339,1,46.7500014266968,8|0,1:0|1:0,1:0:0:0:
392,152,86810,2,8,P|356:148|328:148,1,46.7500014266968,8|0,1:0|1:0,1:0:0:0:
220,252,87046,2,8,P|243:248|266:247,1,46.7500014266968,8|0,1:0|1:0,1:0:0:0:
120,172,87283,2,8,L|0:184,1,93.5000028533936,8|8,1:0|1:0,1:0:0:0:
208,48,87599,6,0,L|272:40,1,46.7500014266968,8|0,1:0|1:0,1:0:0:0:
340,80,87757,2,0,L|404:72,1,46.7500014266968,0|0,1:0|1:0,1:0:0:0:
480,196,87915,2,0,L|433:201,1,46.7500014266968,0|0,1:0|1:0,1:0:0:0:
348,164,88073,2,0,L|301:169,1,46.7500014266968,8|0,1:0|1:0,1:0:0:0:
168,152,88231,1,0,1:0:0:0:
174,198,88309,1,0,1:0:0:0:
194,239,88388,1,8,1:0:0:0:
225,275,88467,1,0,1:0:0:0:
272,320,88546,5,8,1:0:0:0:
248,320,88624,1,8,1:0:0:0:
225,321,88703,1,8,1:0:0:0:
201,322,88782,1,8,1:0:0:0:
176,324,88862,6,0,L|112:336,3,46.7500014266968,2|0|0|0,0:0|0:0|0:0|0:0,0:0:0:0:
4,276,89178,2,0,L|49:267,3,46.7500014266968,2|0|0|0,0:0|0:0|0:0|0:0,0:0:0:0:
128,184,89494,5,2,0:0:0:0:
172,168,89572,1,0,0:0:0:0:
218,162,89651,1,0,0:0:0:0:
265,164,89730,1,0,0:0:0:0:
310,175,89809,1,2,0:0:0:0:
352,195,89888,1,0,0:0:0:0:
390,222,89967,1,0,0:0:0:0:
423,255,90046,1,0,0:0:0:0:
448,295,90125,6,0,L|456:212,1,46.7500014266968,2|0,0:0|0:0,0:0:0:0:
428,136,90283,2,0,L|435:52,1,46.7500014266968
308,28,90441,6,0,L|303:74,1,46.7500014266968,2|0,0:0|0:0,0:0:0:0:
328,187,90599,2,0,L|323:233,1,46.7500014266968
228,320,90757,5,2,0:0:0:0:
181,317,90835,1,0,0:0:0:0:
139,296,90914,1,0,0:0:0:0:
108,262,90993,1,0,0:0:0:0:
92,218,91073,5,2,0:0:0:0:
82,220,91152,1,0,0:0:0:0:
79,211,91231,1,0,0:0:0:0:
89,208,91310,1,0,0:0:0:0:
