osu file format v14

[General]
AudioFilename: jh.mp3
AudioLeadIn: 0
PreviewTime: 59030
Countdown: 0
SampleSet: Soft
StackLeniency: 0.7
Mode: 0
LetterboxInBreaks: 0
WidescreenStoryboard: 0

[Editor]
Bookmarks: 13854,25148,36442,47736,59030,81618,84442,95736,107030,118324,129618,140912,163501,169148,183265,200207,211501,236912,259324
DistanceSpacing: 1
BeatDivisor: 2
GridSize: 4
TimelineZoom: 1.5

[Metadata]
Title:Sharekoube
TitleUnicode:髑髏
Artist:Buta-Otome
ArtistUnicode:豚乙女
Creator:Damnae
Version:ryuu's Easy
Source:
Tags:コンプ comp ランコ ranko skull ボウリング 豚乙女 歌うアコースティック evilelvis ryuu kite fergas
BeatmapID:686376
BeatmapSetID:304940

[Difficulty]
HPDrainRate:2
CircleSize:2.6
OverallDifficulty:2
ApproachRate:3
SliderMultiplier:0.8
SliderTickRate:1

[Events]
//Background and Video events
0,0,"113230.png",0,0
//Break Periods
2,81112,83002
2,162995,167708
2,183265,198767
2,233583,235472
//Storyboard Layer 0 (Background)
//Storyboard Layer 1 (Fail)
//Storyboard Layer 2 (Pass)
//Storyboard Layer 3 (Foreground)
//Storyboard Sound Samples

[TimingPoints]
2560,352.941176470588,4,2,2,70,1,0
36442,-100,4,2,2,60,0,0
38736,-100,4,2,2,80,0,0
39265,-100,4,2,2,60,0,0
41559,-100,4,2,2,80,0,0
41824,-100,4,2,2,60,0,0
47736,-100,4,2,2,70,0,0
59030,-100,4,2,2,70,0,1
69971,-100,4,2,2,70,0,0
70324,-100,4,2,2,70,0,1
80912,-100,4,2,2,70,0,0
140912,-100,4,2,2,70,0,1
151854,-100,4,2,2,70,0,0
152207,-100,4,2,2,70,0,1
162795,-100,4,2,2,70,0,0
169501,-100,4,2,2,70,0,1
169677,-100,4,2,2,70,0,0
175148,-100,4,2,2,70,0,1
175324,-100,4,2,2,70,0,0
182207,-100,4,2,2,50,0,0
183265,-100,4,2,2,50,0,0
200207,-100,4,2,2,30,0,0
209912,-100,4,2,2,50,0,0
211148,-100,4,2,2,70,0,0
211501,-100,4,2,2,30,0,0
211854,-100,4,2,2,70,0,1
222442,-100,4,2,2,70,0,0
222795,-100,4,2,2,70,0,1
233383,-100,4,2,2,70,0,0
258265,-100,4,2,2,70,0,1
259324,-100,4,2,2,70,0,0

[Colours]
Combo1 : 255,94,55
Combo2 : 173,255,95
Combo3 : 17,254,176
Combo4 : 255,88,100

[HitObjects]
104,292,2560,6,0,P|177:284|244:300,1,120,8|8,0:3|0:3,0:0:0:0:
336,336,3618,1,0,0:0:0:0:
372,264,3971,2,0,L|380:120,1,120,8|8,0:3|0:3,0:0:0:0:
320,40,5030,1,2,0:0:0:0:
252,84,5383,2,0,P|178:91|112:76,1,120,8|8,0:3|0:3,0:0:0:0:
40,156,6442,1,0,0:0:0:0:
148,212,6971,2,0,L|144:292,2,80,4|4|4,0:0|0:0|0:0,0:0:0:0:
260,260,8207,6,0,L|404:252,1,120,8|8,0:3|0:3,0:0:0:0:
484,316,9265,1,0,0:0:0:0:
500,236,9618,2,0,P|492:176|508:108,1,120,8|8,0:3|0:3,0:0:0:0:
408,44,10677,1,2,0:0:0:0:
348,96,11030,2,0,L|352:232,1,120,8|8,0:3|0:3,0:0:0:0:
300,324,12089,1,0,0:0:0:0:
232,280,12442,2,0,B|176:256|104:280|104:280|132:208|96:144,1,240,4|0,0:0|0:0,0:0:0:0:
124,96,13854,6,0,P|172:100|236:84,1,80,0|8,1:2|0:0,0:0:0:0:
352,40,14912,1,8,0:0:0:0:
420,84,15265,2,0,L|412:204,2,120,0|8|2,1:0|0:0|0:3,0:0:0:0:
352,40,16677,2,0,P|313:52|260:48,1,80,0|8,1:0|0:0,0:0:0:0:
116,80,17736,1,8,0:0:0:0:
84,152,18089,2,0,L|92:236,2,80,4|4|4,1:0|1:2|1:0,0:0:0:0:
244,176,19501,6,0,P|300:164|380:176,1,120,0|8,1:0|0:0,0:0:0:0:
412,280,20559,1,8,0:0:0:0:
344,320,20912,2,0,P|288:332|208:320,1,120,0|8,1:0|0:0,0:0:0:0:
124,260,21971,1,2,0:3:0:0:
68,200,22324,2,0,L|60:32,2,160,0|0|4,1:0|1:0|0:2,0:0:0:0:
124,260,24089,1,8,0:0:0:0:
276,312,24795,1,2,0:3:0:0:
352,284,25148,6,0,L|360:136,1,120,8|12,1:0|0:0,0:0:0:0:
420,60,26207,1,8,0:0:0:0:
344,32,26559,2,0,P|302:38|264:32,1,80,8|8,1:0|0:0,0:0:0:0:
204,84,27265,2,0,L|208:168,1,80,2|8,0:0|0:0,0:0:0:0:
280,196,27971,2,0,L|272:340,1,120,8|8,1:0|0:0,0:0:0:0:
156,336,29030,1,8,0:0:0:0:
104,276,29383,2,0,P|64:280|16:272,2,80,4|4|2,1:0|1:2|3:0,0:0:0:0:
216,160,30795,6,0,L|208:20,1,120,8|12,1:0|0:0,0:0:0:0:
328,28,31854,1,8,0:0:0:0:
376,92,32207,2,0,L|368:272,1,160,0|2,1:0|0:0,0:0:0:0:
328,320,33265,1,8,0:0:0:0:
260,280,33618,2,0,P|188:264|92:292,1,160,8|8,1:0|1:0,0:0:0:0:
0,176,35030,2,0,B|60:148|64:80|64:80|140:120|204:84,1,240,8|2,1:0|3:0,0:0:0:0:
248,56,36442,6,0,L|368:44,2,120,8|8|8,1:0|1:0|1:0,0:0:0:0:
177,95,37854,2,0,L|57:107,1,120,8|8,1:0|1:0,0:0:0:0:
72,224,38912,1,12,0:0:0:0:
112,292,39265,2,0,P|180:292|252:268,2,120,8|8|8,1:0|1:0|1:0,0:0:0:0:
72,224,40677,2,0,P|73:164|58:106,1,120,8|8,1:0|1:0,0:0:0:0:
148,28,41736,1,12,0:0:0:0:
220,68,42089,6,0,L|228:188,2,120,8|8|8,1:0|1:0|1:0,0:0:0:0:
296,40,43501,2,0,P|356:48|436:24,1,120,8|8,1:0|1:0,0:0:0:0:
472,140,44559,1,8,1:0:0:0:
408,192,44912,2,0,P|345:177|224:204,1,160,4|8,1:2|0:0,0:0:0:0:
136,300,46324,2,0,L|124:124,1,160,4|8,1:2|0:0,0:0:0:0:
268,68,47736,6,0,L|261:196,2,120,12|10|10,1:3|0:0|0:0,0:0:0:0:
196,32,49148,2,0,P|136:48|76:36,1,120,10|8,0:3|0:0,0:0:0:0:
36,148,50207,1,8,1:0:0:0:
108,184,50559,2,0,P|120:240|108:308,2,120,12|8|10,1:3|0:0|0:0,0:0:0:0:
172,136,51971,2,0,L|292:124,1,120,10|8,0:3|0:0,0:0:0:0:
376,208,53030,1,8,1:0:0:0:
340,280,53383,6,0,P|204:280|96:344,1,240,4|8,1:3|1:0,0:0:0:0:
40,360,54795,2,0,P|72:240|28:124,1,240,4|8,0:3|1:0,0:0:0:0:
52,56,56207,2,0,L|144:48,1,80,4|4,0:0|0:0,0:0:0:0:
188,108,56912,2,0,L|328:120,1,120,0|4,1:0|1:2,0:0:0:0:
348,188,57795,2,0,L|488:176,1,120,0|4,1:0|1:2,0:0:0:0:
404,324,59030,6,0,L|320:320,1,80,4|8,1:0|1:0,0:0:0:0:
256,280,59736,2,0,P|192:300|84:276,1,160,2|0,0:3|0:0,0:0:0:0:
44,136,61148,2,0,L|40:48,2,80,4|8|4,0:3|1:0|0:3,0:0:0:0:
164,124,62383,2,0,P|240:96|336:108,1,160,4|4,0:0|0:0,0:0:0:0:
424,156,63618,1,8,1:0:0:0:
464,224,63971,6,0,L|460:320,1,80,4|8,0:3|1:0,0:0:0:0:
392,348,64677,1,4,0:3:0:0:
236,312,65383,2,0,B|188:332|156:316|120:300|72:320,1,160,0|4,0:0|0:3,0:0:0:0:
24,168,66795,1,0,0:0:0:0:
156,76,67501,2,0,P|216:84|276:68,2,120,4|4|2,1:0|0:3|0:3,0:0:0:0:
104,136,68912,2,0,L|112:304,1,160,0|4,0:0|0:3,0:0:0:0:
260,352,70324,6,0,L|268:184,1,160,4|0,1:0|0:0,0:0:0:0:
340,160,71383,2,0,L|336:72,1,80,8|0,1:0|0:0,0:0:0:0:
176,64,72442,2,0,P|131:81|76:76,1,80,0|8,0:0|1:0,0:0:0:0:
28,48,73148,1,4,0:3:0:0:
36,168,73677,2,0,L|44:268,1,80,4|2,0:3|0:0,0:0:0:0:
96,308,74383,2,0,P|184:292|240:312,1,120,4|8,0:3|1:0,0:0:0:0:
284,336,75265,2,0,P|328:336|368:320,1,80,2|8,0:3|1:0,0:0:0:0:
400,252,75971,6,0,L|408:104,2,120,4|4|8,1:3|0:0|1:0,0:0:0:0:
320,252,77383,2,0,P|264:240|188:256,2,120,4|4|8,1:3|0:0|1:0,0:0:0:0:
256,192,78795,12,4,80912,0:0:0:0:
432,328,84442,6,0,L|436:200,1,120,8|8,0:3|0:3,0:0:0:0:
360,116,85501,1,0,0:0:0:0:
284,92,85854,2,0,P|224:104|148:92,1,120,8|8,0:3|0:3,0:0:0:0:
60,44,86912,1,2,0:0:0:0:
44,124,87265,2,0,L|48:256,1,120,8|8,0:3|0:3,0:0:0:0:
128,332,88324,1,0,0:0:0:0:
236,276,88854,2,0,L|336:272,1,80,4|4,0:0|0:0,0:0:0:0:
384,228,89559,1,4,0:0:0:0:
364,108,90089,6,0,P|303:122|228:112,1,120,8|8,0:3|0:3,0:0:0:0:
148,48,91148,1,0,0:0:0:0:
80,92,91501,2,0,P|92:148|84:220,1,120,8|8,0:3|0:3,0:0:0:0:
40,320,92559,1,2,0:0:0:0:
120,336,92912,2,0,L|252:328,1,120,8|8,0:3|0:3,0:0:0:0:
360,348,93971,1,2,0:0:0:0:
404,284,94324,2,0,B|420:236|380:192|380:192|420:156|420:156|392:104|424:44,1,240,2|8,0:0|1:0,0:0:0:0:
340,36,95736,6,0,P|304:40|248:28,2,80,0|8|0,1:0|0:0|0:0,0:0:0:0:
448,156,97148,2,0,L|440:328,1,160,0|2,1:0|0:3,0:0:0:0:
280,320,98559,2,0,P|216:310|152:324,2,120,0|8|8,1:0|0:0|0:0,0:0:0:0:
324,252,99971,2,0,L|328:152,1,80,4|4,1:0|1:2,0:0:0:0:
384,116,100677,1,4,1:0:0:0:
252,28,101383,6,0,P|200:48|108:32,1,120,0|8,1:0|0:0,0:0:0:0:
20,24,102442,1,8,0:0:0:0:
48,100,102795,2,0,L|56:280,2,160,0|2|0,1:0|0:3|1:0,0:0:0:0:
192,32,104912,1,0,1:0:0:0:
228,188,105618,2,0,B|252:228|236:280|236:280|276:264|320:268|356:292|392:268,1,240,8|2,1:0|3:0,0:0:0:0:
416,204,107030,6,0,P|404:140|416:76,1,120,4|10,1:0|0:0,0:0:0:0:
308,28,108089,1,8,0:0:0:0:
232,52,108442,2,0,L|112:48,2,120,4|10|8,0:3|0:0|0:0,0:0:0:0:
292,104,109854,2,0,P|308:188|276:280,1,160,4|0,0:3|0:0,0:0:0:0:
228,312,110912,1,8,0:0:0:0:
152,340,111265,2,0,L|72:336,2,80,4|4|2,1:0|1:2|0:3,0:0:0:0:
116,184,112677,6,0,L|104:44,1,120,4|8,0:3|0:0,0:0:0:0:
216,16,113736,1,8,0:0:0:0:
284,60,114089,2,0,P|332:68|384:60,1,80,4|8,0:3|0:0,0:0:0:0:
440,84,114795,2,0,L|436:172,1,80,2|8,0:3|0:0,0:0:0:0:
388,228,115501,2,0,P|304:216|200:240,1,160,4|4,1:3|1:3,0:0:0:0:
88,296,116912,2,0,P|62:220|68:140,1,160,4|0,1:3|0:0,0:0:0:0:
220,88,118324,6,0,L|344:92,2,120,12|8|2,0:3|0:3|0:0,0:0:0:0:
160,36,119736,2,0,P|112:52|36:40,1,120,8|8,0:3|0:3,0:0:0:0:
28,164,120795,1,2,0:0:0:0:
88,220,121148,2,0,L|96:340,1,120,12|8,0:3|0:3,0:0:0:0:
216,332,122207,1,2,0:0:0:0:
288,300,122559,2,0,P|352:304|416:288,2,120,8|8|12,0:3|0:3|0:0,0:0:0:0:
244,232,123971,6,0,P|180:228|116:244,1,120,12|8,0:3|1:0,0:0:0:0:
56,336,125030,1,0,0:0:0:0:
24,264,125383,2,0,L|16:136,1,120,12|8,0:3|1:0,0:0:0:0:
100,60,126442,1,8,0:3:0:0:
180,56,126795,2,0,P|264:72|352:56,1,160,12|2,0:3|0:0,0:0:0:0:
472,148,128207,2,0,L|464:316,1,160,12|2,0:3|0:0,0:0:0:0:
308,340,129618,6,0,L|188:332,2,120,4|8|8,0:3|1:0|1:0,0:0:0:0:
320,260,131030,2,0,P|308:208|320:140,1,120,8|8,0:3|1:0,0:0:0:0:
400,52,132089,1,8,0:3:0:0:
320,36,132442,2,0,P|260:44|200:32,2,120,12|8|8,3:0|1:0|1:0,0:0:0:0:
348,112,133854,2,0,L|340:232,1,120,8|8,0:3|1:0,0:0:0:0:
252,312,134912,1,8,0:3:0:0:
200,248,135265,6,0,P|144:260|80:248,1,120,12|4,0:3|0:0,0:0:0:0:
16,148,136324,1,4,0:3:0:0:
64,84,136677,2,0,P|120:72|184:84,1,120,4|4,0:0|0:3,0:0:0:0:
248,184,137736,1,4,0:0:0:0:
276,260,138089,2,0,L|272:340,1,80,4|4,0:0|0:0,0:0:0:0:
352,352,138795,2,0,P|404:338|472:344,1,120,4|0,0:0|1:0,0:0:0:0:
496,268,139677,2,0,P|484:212|500:132,1,120,0|4,1:0|1:2,0:0:0:0:
360,60,140912,6,0,L|188:72,1,160,4|2,1:0|0:3,0:0:0:0:
124,92,141971,2,0,P|137:138|136:176,1,80,8|0,1:0|0:0,0:0:0:0:
96,324,143030,2,0,L|208:320,2,80,4|4|4,0:3|1:2|0:3,0:0:0:0:
72,248,144089,2,0,P|88:184|56:116,1,120,8|2,1:0|0:3,0:0:0:0:
112,64,144971,2,0,L|248:56,1,120,4|8,0:3|1:0,0:0:0:0:
296,104,145854,6,0,P|287:141|304:204,2,80,0|8|4,0:0|1:0|0:3,0:0:0:0:
444,160,147265,2,0,B|464:220|444:244|424:268|452:328,1,160,0|4,0:0|0:3,0:0:0:0:
288,348,148677,2,0,L|204:352,1,80,0|8,0:0|1:0,0:0:0:0:
196,272,149383,2,0,L|76:275,2,120,4|4|0,1:0|1:2|0:0,0:0:0:0:
208,192,150795,2,0,P|168:128|196:28,1,160,4|4,0:3|0:3,0:0:0:0:
328,108,152207,6,0,L|320:216,1,80,4|8,1:0|1:0,0:0:0:0:
364,256,152912,2,0,B|352:288|356:328|356:328|312:316|260:332,1,160,2|0,0:3|0:0,0:0:0:0:
112,300,154324,2,0,P|116:252|108:216,1,80,2|8,0:3|1:0,0:0:0:0:
176,176,155030,1,4,0:3:0:0:
76,108,155559,2,0,L|72:20,1,80,4|0,0:3|0:0,0:0:0:0:
152,24,156265,2,0,P|215:31|288:16,1,120,4|8,0:3|1:0,0:0:0:0:
320,84,157148,2,0,L|316:163,1,80,4|8,0:3|1:0,0:0:0:0:
376,216,157854,6,0,P|356:272|376:344,1,120,4|4,1:3|0:3,0:0:0:0:
252,368,158912,1,8,1:0:0:0:
196,312,159265,2,0,L|48:308,2,120,4|4|8,1:3|0:3|1:0,0:0:0:0:
256,192,160677,12,4,162795,1:2:0:0:
392,312,169148,6,0,L|400:208,1,80,0|4,0:0|1:3,0:0:0:0:
336,84,170207,1,8,1:0:0:0:
264,120,170559,2,0,P|203:136|144:123,1,120,4|4,0:3|0:3,0:0:0:0:
52,56,171618,1,8,1:0:0:0:
44,136,171971,2,0,L|56:324,1,160,4|2,0:3|0:3,0:0:0:0:
132,316,173030,2,0,B|180:328|212:312|240:296|292:308,1,160,8|8,1:0|1:0,0:0:0:0:
440,256,174442,1,8,1:0:0:0:
384,200,174795,6,0,P|344:212|284:200,1,80,2|4,0:3|1:3,0:0:0:0:
156,152,175854,1,8,1:0:0:0:
88,196,176207,2,0,L|84:292,2,80,4|8|2,0:3|1:0|0:0,0:0:0:0:
128,40,177618,2,0,P|208:56|287:26,1,160,8|8,1:3|1:3,0:0:0:0:
424,104,179030,2,0,L|412:280,1,160,8|8,1:3|0:3,0:0:0:0:
332,268,180089,2,0,L|336:352,1,80,4|4,0:3|0:3,0:0:0:0:
188,292,181148,6,0,L|192:208,1,80,0|8,0:0|1:0,0:0:0:0:
140,152,181854,1,4,0:0:0:0:
80,100,182207,2,0,P|72:56|80:4,2,80,0|2|2,0:0|0:0|0:0,0:0:0:0:
140,284,200207,6,0,L|328:288,1,160,8|0,0:3|0:0,0:0:0:0:
388,152,201618,2,0,L|228:148,1,160,8|0,0:3|0:0,0:0:0:0:
80,212,203030,2,0,P|58:135|74:58,2,160,8|0|10,0:3|0:0|0:3,0:0:0:0:
224,280,205148,6,0,L|320:276,1,80,0|8,0:0|0:3,0:0:0:0:
380,248,205854,1,8,0:3:0:0:
416,92,206559,2,0,L|320:96,1,80,0|8,0:0|0:3,0:0:0:0:
256,80,207265,1,8,0:3:0:0:
108,136,207971,2,0,P|100:180|112:232,1,80,0|8,0:0|0:3,0:0:0:0:
148,284,208677,1,10,0:3:0:0:
260,332,209207,2,0,L|364:328,1,80,2|0,0:3|0:0,0:0:0:0:
400,276,209912,2,0,P|384:204|404:148,1,120,4|4,0:3|1:3,0:0:0:0:
460,112,210795,1,8,0:0:0:0:
432,36,211148,6,0,L|332:28,1,80,4|0,1:2|0:0,0:0:0:0:
288,76,211854,5,4,1:0:0:0:
236,136,212207,2,0,P|180:156|96:140,1,120,4|4,0:3|0:3,0:0:0:0:
12,100,213265,1,8,1:0:0:0:
24,180,213618,2,0,L|32:272,2,80,4|8|4,0:3|1:0|0:3,0:0:0:0:
100,84,214854,2,0,P|189:95|288:68,1,160,4|4,0:3|0:3,0:0:0:0:
364,24,216089,1,8,1:0:0:0:
432,64,216442,6,0,L|424:148,1,80,2|8,0:0|1:0,0:0:0:0:
480,204,217148,1,4,0:3:0:0:
388,332,217854,2,0,B|356:348|312:332|268:316|224:340,1,160,2|4,0:3|0:3,0:0:0:0:
124,216,219265,2,0,L|116:124,1,80,2|8,0:3|1:0,0:0:0:0:
188,104,219971,2,0,P|260:108|324:84,2,120,4|4|8,1:0|1:0|1:0,0:0:0:0:
132,48,221383,2,0,P|92:44|52:54,1,80,0|8,0:0|1:0,0:0:0:0:
32,132,222089,1,4,1:2:0:0:
104,276,222795,6,0,P|184:284|284:256,1,160,4|2,1:0|0:3,0:0:0:0:
316,208,223854,2,0,L|324:128,1,80,8|0,1:0|0:0,0:0:0:0:
456,40,224912,2,0,L|464:120,1,80,2|8,0:3|1:0,0:0:0:0:
436,196,225618,1,4,0:3:0:0:
364,292,226148,2,0,L|260:284,1,80,4|0,0:3|0:0,0:0:0:0:
220,332,226854,2,0,P|159:321|80:356,1,120,4|8,0:3|1:0,0:0:0:0:
52,280,227736,2,0,L|48:192,1,80,2|8,0:3|1:0,0:0:0:0:
112,152,228442,6,0,L|116:24,2,120,4|4|8,0:3|0:0|1:0,0:0:0:0:
172,204,229854,2,0,P|240:196|296:212,1,120,4|4,1:2|0:3,0:0:0:0:
364,304,230912,1,8,1:0:0:0:
256,192,231265,12,4,233383,0:2:0:0:
360,92,236912,6,0,L|232:88,1,120,8|8,0:3|0:3,0:0:0:0:
128,48,237971,1,0,0:0:0:0:
72,104,238324,2,0,L|84:240,1,120,8|8,0:3|0:3,0:0:0:0:
176,300,239383,1,2,0:0:0:0:
244,260,239736,2,0,P|307:244|380:268,1,120,8|8,0:3|0:3,0:0:0:0:
452,332,240795,1,0,0:0:0:0:
476,216,241324,2,0,L|484:124,2,80,4|4|4,0:0|0:0|0:0,0:0:0:0:
356,224,242559,6,0,L|366:368,2,120,8|8|0,0:3|0:3|0:0,0:0:0:0:
288,184,243971,2,0,P|236:204|152:188,1,120,8|8,0:3|0:3,0:0:0:0:
76,124,245030,1,2,0:0:0:0:
116,56,245383,2,0,P|168:36|252:52,1,120,8|8,0:3|0:3,0:0:0:0:
324,116,246442,1,0,0:0:0:0:
280,228,246971,2,0,L|276:312,2,80,4|4|4,0:0|0:0|0:0,0:0:0:0:
176,284,248207,6,0,P|128:296|44:268,1,120,8|8,0:3|1:0,0:0:0:0:
20,168,249265,1,8,1:0:0:0:
92,132,249618,2,0,L|80:12,2,120,8|8|8,0:3|1:0|1:0,0:0:0:0:
172,144,251030,2,0,P|220:132|304:160,1,120,8|8,0:3|1:0,0:0:0:0:
360,244,252089,1,8,1:0:0:0:
420,140,252618,2,0,L|424:24,1,80,4|4,1:2|1:2,0:0:0:0:
352,24,253324,1,8,1:0:0:0:
248,88,253854,6,0,P|196:108|112:96,1,120,8|8,0:3|1:0,0:0:0:0:
36,176,254912,1,8,1:0:0:0:
104,220,255265,2,0,L|112:340,1,120,8|8,0:3|1:0,0:0:0:0:
232,356,256324,1,8,1:0:0:0:
292,304,256677,2,0,L|424:300,2,120,8|8|8,0:3|1:0|1:0,0:0:0:0:
240,196,258265,6,0,L|157:200,1,80,4|4,1:2|1:2,0:0:0:0:
116,132,258971,2,0,L|33:128,1,80,4|2,1:2|0:0,0:0:0:0:
