osu file format v14

[General]
AudioFilename: jh.mp3
AudioLeadIn: 0
PreviewTime: 59030
Countdown: 0
SampleSet: Soft
StackLeniency: 0.7
Mode: 0
LetterboxInBreaks: 0
WidescreenStoryboard: 1

[Editor]
Bookmarks: 7677,13854,19501,25148,30795,36442,47736,59030,81618,84442,95736,107030,118324,129618,140912,163501,169148,174442,180442,183265,200207,204265,211501,236912,248207,259324
DistanceSpacing: 1
BeatDivisor: 2
GridSize: 32
TimelineZoom: 1.4

[Metadata]
Title:Sharekoube
TitleUnicode:髑髏
Artist:Buta-Otome
ArtistUnicode:豚乙女
Creator:Damnae
Version:fergas' Normal
Source:
Tags:コンプ comp ランコ ranko skull ボウリング 豚乙女 歌うアコースティック evilelvis ryuu kite fergas
BeatmapID:720225
BeatmapSetID:304940

[Difficulty]
HPDrainRate:3
CircleSize:3
OverallDifficulty:3
ApproachRate:5
SliderMultiplier:1
SliderTickRate:1

[Events]
//Background and Video events
0,0,"113230.png",0,0
//Break Periods
2,81112,83242
2,162994,168301
2,183265,199007
2,233583,235712
//Storyboard Layer 0 (Background)
//Storyboard Layer 1 (Fail)
//Storyboard Layer 2 (Pass)
//Storyboard Layer 3 (Foreground)
//Storyboard Sound Samples

[TimingPoints]
2560,352.941176470588,4,2,2,70,1,0
36442,-100,4,2,2,60,0,0
45265,-100,4,3,2,60,0,0
46324,-100,4,2,2,60,0,0
46677,-100,4,3,2,60,0,0
47736,-100,4,2,2,70,0,0
56207,-100,4,1,2,70,0,0
59030,-100,4,2,2,70,0,1
69971,-100,4,2,2,70,0,0
70324,-100,4,2,2,70,0,1
80912,-100,4,2,2,45,0,0
84442,-100,4,2,2,70,0,0
138089,-100,4,1,2,70,0,0
140912,-100,4,2,2,70,0,1
151854,-100,4,2,2,70,0,0
152207,-100,4,2,2,70,0,1
162795,-100,4,2,2,45,0,0
169501,-100,4,2,2,70,0,1
169677,-100,4,2,2,70,0,0
175148,-100,4,2,2,70,0,1
175324,-100,4,2,2,70,0,0
182207,-100,4,2,2,50,0,0
183265,-100,4,2,2,50,0,0
200207,-100,4,2,2,30,0,0
208677,-100,4,2,2,40,0,0
209030,-100,4,2,2,45,0,0
209559,-100,4,2,2,50,0,0
209912,-100,4,1,2,70,0,0
211148,-100,4,2,2,70,0,0
211501,-100,4,2,2,30,0,0
211854,-100,4,2,2,70,0,1
222442,-100,4,2,2,70,0,0
222795,-100,4,2,2,70,0,1
233383,-100,4,2,2,45,0,0
236912,-100,4,2,2,70,0,0
258265,-100,4,2,2,70,0,1
259324,-100,4,2,2,70,0,0

[Colours]
Combo1 : 255,94,55
Combo2 : 173,255,95
Combo3 : 17,254,176
Combo4 : 255,88,100

[HitObjects]
440,316,2560,6,0,P|388:271|340:265,1,100,4|0,0:0|0:0,0:0:0:0:
309,269,3089,1,2,0:0:0:0:
219,313,3442,2,0,P|154:304|118:273,1,100
120,234,3971,2,0,P|184:211|218:131,1,150,4|2,0:0|0:0,0:0:0:0:
170,52,4854,2,0,P|139:42|119:26,2,50
220,48,5383,6,0,P|275:47|322:76,1,100,4|0,0:0|0:0,0:0:0:0:
339,110,5912,1,2,0:0:0:0:
317,207,6265,2,0,P|310:265|336:320,1,100
413,348,6971,1,4,0:0:0:0:
502,303,7324,1,4,0:0:0:0:
472,207,7677,2,0,P|482:174|500:156,2,50,4|8|0,0:0|0:0|0:0,0:0:0:0:
427,231,8207,6,0,P|377:230|334:190,1,100,4|0,0:0|0:0,0:0:0:0:
330,150,8736,1,2,0:0:0:0:
255,82,9089,2,0,P|195:66|151:72,1,100
115,96,9618,2,0,P|134:160|97:252,1,150,4|2,0:0|0:0,0:0:0:0:
46,315,10501,2,0,P|22:314|-6:324,2,50
93,331,11030,6,0,P|132:347|190:340,1,100,4|0,0:0|0:0,0:0:0:0:
229,311,11559,1,2,0:0:0:0:
279,224,11912,2,0,P|260:178|213:149,1,100
169,151,12442,2,2,P|153:79|312:96,1,300,0|0,0:0|0:0,0:0:0:0:
289,187,13854,6,0,P|287:242|326:285,1,100,4|0,0:0|0:0,0:0:0:0:
351,307,14383,2,0,P|278:296|199:328,1,150,2|0,0:0|0:0,0:0:0:0:
108,333,15265,1,8,0:0:0:0:
23,280,15618,2,0,P|6:252|4:220,2,50,0|2|0,0:0|0:0|0:0,0:0:0:0:
114,238,16324,1,2,0:0:0:0:
165,152,16677,6,0,P|168:91|135:40,1,100,4|0,0:0|0:0,0:0:0:0:
105,36,17207,2,0,P|175:67|257:45,1,150,2|0,0:0|0:0,0:0:0:0:
342,32,18089,1,4,0:0:0:0:
331,131,18442,1,4,0:0:0:0:
321,230,18795,1,4,0:0:0:0:
480,350,19501,6,0,P|490:291|476:242,1,100,4|0,0:0|0:0,0:0:0:0:
448,214,20030,2,0,P|432:185|438:114,1,100,2|0,0:0|0:0,0:0:0:0:
463,78,20559,1,0,0:0:0:0:
374,30,20912,1,8,0:0:0:0:
275,48,21265,2,0,P|239:40|221:25,2,50,0|2|0,0:0|0:0|0:0,0:0:0:0:
326,133,21971,1,2,0:0:0:0:
334,232,22324,6,0,P|312:272|252:298,1,100,4|0,0:0|0:0,0:0:0:0:
189,230,23030,2,0,P|137:215|74:227,1,100,4|0,0:0|0:0,0:0:0:0:
25,294,23736,2,0,P|65:326|173:328,1,150,4|2,0:0|0:0,0:0:0:0:
255,300,24618,2,0,P|286:303|310:314,2,50,0|2|2,0:0|0:0|0:0,0:0:0:0:
214,270,25148,6,0,P|199:227|222:158,1,100,4|0,0:0|0:0,0:0:0:0:
250,144,25677,2,0,P|288:183|387:196,1,150,2|0,0:0|0:0,0:0:0:0:
469,154,26559,1,8,0:0:0:0:
462,54,26912,2,0,P|473:26|496:4,2,50,0|2|0,0:0|0:0|0:0,0:0:0:0:
378,109,27618,1,2,0:0:0:0:
282,137,27971,6,0,P|226:134|175:100,1,100,4|0,0:0|0:0,0:0:0:0:
151,78,28501,2,0,P|167:130|131:237,1,150,2|0,0:0|0:0,0:0:0:0:
76,294,29383,1,4,0:0:0:0:
173,316,29736,1,4,0:0:0:0:
270,338,30089,1,4,0:0:0:0:
446,244,30795,6,0,P|405:201|345:185,1,100,4|0,0:0|0:0,0:0:0:0:
318,197,31324,2,0,P|235:228|158:215,1,150,2|0,0:0|0:0,0:0:0:0:
80,188,32207,1,8,0:0:0:0:
25,104,32559,2,0,P|26:75|8:39,1,50,0|2,0:0|0:0,0:0:0:0:
62,28,32912,2,0,P|105:50|169:49,1,100,0|2,0:0|0:0,0:0:0:0:
255,58,33618,6,0,P|295:101|304:158,1,100,4|0,0:0|0:0,0:0:0:0:
234,210,34324,2,0,P|265:248|311:266,1,100,8|0,0:0|0:0,0:0:0:0:
410,254,35030,2,0,P|393:207|397:153,1,100,4|0,0:0|0:0,0:0:0:0:
418,113,35559,2,0,P|352:138|270:112,1,150,2|2,0:0|0:0,0:0:0:0:
184,81,36442,6,0,P|147:84|86:133,1,100,4|0,0:0|0:0,0:0:0:0:
122,160,36971,2,0,P|97:188|89:266,1,100,2|0,0:0|0:0,0:0:0:0:
120,285,37501,1,2,0:0:0:0:
201,343,37854,2,0,P|250:347|296:328,1,100,2|0,0:0|0:0,0:0:0:0:
290,278,38383,2,0,P|333:215|417:207,1,150,2|8,0:0|0:0,0:0:0:0:
494,164,39265,6,0,P|484:128|421:80,1,100,4|0,0:0|0:0,0:0:0:0:
389,76,39795,1,2,0:0:0:0:
289,77,40148,2,0,P|261:66|237:39,2,50,2|0|2,0:0|0:0|0:0,0:0:0:0:
313,120,40677,2,0,P|295:152|234:183,1,100,2|0,0:0|0:0,0:0:0:0:
191,173,41206,2,0,P|112:169|52:208,1,150,2|8,0:0|0:0,0:0:0:0:
49,304,42089,6,0,P|93:329|142:331,1,100,4|0,0:0|0:0,0:0:0:0:
182,300,42618,2,0,P|230:288|285:307,1,100,2|0,0:0|0:0,0:0:0:0:
316,333,43148,1,2,0:0:0:0:
415,342,43501,2,0,P|446:309|462:256,1,100,2|0,0:0|0:0,0:0:0:0:
439,212,44030,1,2,0:0:0:0:
377,132,44383,2,0,P|376:104|392:67,2,50,2|0|0,0:0|0:0|0:0,0:0:0:0:
347,172,44912,6,0,P|293:187|236:174,1,100,4|2,0:0|0:0,0:0:0:0:
171,118,45618,1,8,0:2:0:0:
71,107,45971,1,2,0:0:0:0:
1,178,46324,2,0,P|-3:221|35:269,1,100,4|2,0:0|0:0,0:0:0:0:
121,303,47030,1,8,0:2:0:0:
211,259,47383,1,2,0:0:0:0:
219,159,47736,6,0,P|240:128|313:100,1,100,4|0,0:0|0:0,0:0:0:0:
318,145,48265,2,0,P|354:137|426:169,1,100,2|0,0:0|0:0,0:0:0:0:
428,205,48795,1,2,0:0:0:0:
399,300,49148,2,0,P|358:328|309:334,1,100,2|0,0:0|0:0,0:0:0:0:
290,288,49677,2,0,P|224:255|155:278,1,150,2|8,0:0|0:0,0:0:0:0:
57,298,50559,6,0,P|37:250|45:198,1,100,4|0,0:0|0:0,0:0:0:0:
68,160,51089,1,2,0:0:0:0:
156,113,51442,2,0,P|172:94|180:70,2,50,2|0|2,0:0|0:0|0:0,0:0:0:0:
179,157,51971,2,0,P|225:173|273:163,1,100,2|0,0:0|0:0,0:0:0:0:
303,123,52500,2,0,P|355:71|443:55,1,150,2|8,0:0|0:0,0:0:0:0:
494,128,53383,6,0,P|469:170|466:220,1,100,4|0,0:0|0:0,0:0:0:0:
482,268,53912,2,0,P|471:313|427:351,1,100,2|0,0:0|0:0,0:0:0:0:
382,353,54442,1,2,0:0:0:0:
289,315,54795,2,0,P|299:268|292:208,1,100,2|0,0:0|0:0,0:0:0:0:
271,171,55324,1,2,0:0:0:0:
171,161,55677,2,0,P|113:169|57:150,1,100,2|0,0:0|0:0,0:0:0:0:
37,123,56207,5,4,0:2:0:0:
20,221,56559,1,0,0:0:0:0:
5,319,56912,2,0,L|14:377,1,50,2|0,0:3|0:0,0:0:0:0:
111,350,57442,1,0,0:0:0:0:
175,273,57795,2,0,L|188:208,2,50
213,304,58324,1,4,0:2:0:0:
407,352,59030,6,0,P|472:328|500:291,1,100,4|8,0:0|0:0,0:0:0:0:
489,256,59559,2,0,P|483:221|488:199,2,50,0|2|0,0:0|0:0|0:0,0:0:0:0:
389,246,60265,2,0,P|338:223|294:138,1,150,2|0,0:0|0:0,0:0:0:0:
271,45,61148,1,2,0:0:0:0:
171,31,61501,1,2,0:0:0:0:
81,76,61854,6,0,P|50:127|52:187,1,100,4|8,0:0|0:0,0:0:0:0:
62,213,62383,1,2,0:0:0:0:
143,271,62736,2,0,P|168:297|176:317,1,50
214,338,63089,2,0,P|271:327|324:248,1,150,2|2,0:0|0:0,0:0:0:0:
316,156,63971,5,2,0:0:0:0:
350,62,64324,1,2,0:0:0:0:
449,53,64677,2,0,P|488:91|496:149,1,100,8|0,0:0|0:0,0:0:0:0:
453,223,65383,5,2,0:0:0:0:
356,250,65736,1,2,0:0:0:0:
270,198,66089,2,0,P|248:180|168:176,1,100,8|0,0:0|0:0,0:0:0:0:
87,213,66795,5,0,0:0:0:0:
66,310,67148,1,0,0:0:0:0:
149,365,67501,2,0,P|192:372|256:335,1,100,8|2,0:0|0:0,0:0:0:0:
272,309,68030,2,0,P|296:269|360:248,1,100,8|2,0:0|0:0,0:0:0:0:
443,247,68736,1,2,0:0:0:0:
498,163,69089,2,0,P|510:131|510:103,2,50
447,163,69618,1,2,0:0:0:0:
348,140,69971,2,2,P|329:125|319:102,1,50,0|0,0:0|0:0,0:0:0:0:
303,55,70324,6,0,P|274:96|231:126,1,100,4|8,0:0|0:0,0:0:0:0:
183,129,70854,2,0,P|162:117|118:112,2,50,0|2|0,0:0|0:0|0:0,0:0:0:0:
239,211,71559,2,0,P|239:281|173:342,1,150,2|0,0:0|0:0,0:0:0:0:
86,330,72442,1,2,0:0:0:0:
11,263,72795,1,2,0:0:0:0:
6,162,73148,6,0,P|33:121|77:99,1,100,4|8,0:0|0:0,0:0:0:0:
127,101,73677,1,2,0:0:0:0:
197,172,74030,2,0,P|217:188|260:194,1,50
282,167,74383,2,0,P|314:120|409:98,1,150,2|2,0:0|0:0,0:0:0:0:
485,148,75265,5,2,0:0:0:0:
490,247,75618,1,2,0:0:0:0:
425,323,75971,2,0,P|372:336|311:317,1,100,8|0,0:0|0:0,0:0:0:0:
286,299,76501,2,0,P|278:248|238:193,1,100,2|0,0:0|0:0,0:0:0:0:
206,188,77030,1,8,0:0:0:0:
108,165,77383,6,0,P|111:120|148:59,1,100,8|0,0:0|0:0,0:0:0:0:
184,81,77912,2,0,P|224:75|281:31,1,100,2|0,0:0|0:0,0:0:0:0:
304,4,78442,1,8,0:0:0:0:
256,192,78795,12,0,80912,1:0:0:0:
36,296,84442,6,0,P|70:260|117:244,1,100,4|0,0:0|0:0,0:0:0:0:
166,246,84971,1,2,0:0:0:0:
260,278,85324,2,0,P|302:303|351:306,1,100,0|0,0:0|0:0,0:0:0:0:
389,273,85853,2,0,P|394:209|451:137,1,150,4|2,0:0|0:0,0:0:0:0:
482,49,86736,2,0,P|503:35|518:12,2,50,0|0|0,0:0|0:0|0:0,0:0:0:0:
431,48,87265,6,0,P|387:36|319:47,1,100,4|0,0:0|0:0,0:0:0:0:
290,67,87794,1,2,0:0:0:0:
257,161,88148,2,0,P|250:219|215:259,1,100
135,294,88853,1,4,0:0:0:0:
39,264,89206,1,4,0:0:0:0:
19,165,89559,2,0,P|29:132|39:115,2,50,4|8|0,0:0|0:0|0:0,0:0:0:0:
67,179,90089,6,0,P|108:195|174:171,1,100,4|0,0:0|0:0,0:0:0:0:
200,151,90618,1,2,0:0:0:0:
273,83,90971,2,0,P|320:95|361:132,1,100,0|0,0:0|0:0,0:0:0:0:
347,176,91500,2,0,P|358:242|329:332,1,150,4|2,0:0|0:0,0:0:0:0:
237,338,92383,2,0,P|217:350|194:379,2,50,0|0|0,0:0|0:0|0:0,0:0:0:0:
256,291,92912,6,0,P|225:266|159:262,1,100,4|0,0:0|0:0,0:0:0:0:
117,269,93441,1,2,0:0:0:0:
99,170,93795,2,0,P|128:129|193:102,1,100
221,105,94324,2,2,P|292:212|457:262,1,300,0|0,0:0|0:0,0:0:0:0:
475,169,95736,6,0,P|447:128|447:79,1,100,4|0,0:0|0:0,0:0:0:0:
460,30,96265,2,0,P|394:11|343:21,1,100,2|0,0:0|0:0,0:0:0:0:
314,26,96795,1,0,0:0:0:0:
250,102,97147,1,8,0:0:0:0:
249,202,97501,2,0,P|266:230|268:262,2,50,0|2|0,0:0|0:0|0:0,0:0:0:0:
154,167,98206,1,2,0:0:0:0:
55,186,98559,6,0,P|22:223|10:271,1,100,4|0,0:0|0:0,0:0:0:0:
33,316,99089,2,0,P|99:306|146:321,1,100,2|0,0:0|0:0,0:0:0:0:
172,341,99618,1,0,0:0:0:0:
271,348,99971,1,4,0:0:0:0:
343,279,100324,1,4,0:0:0:0:
334,179,100677,1,4,0:0:0:0:
149,102,101383,6,0,P|195:87|247:38,1,100,4|0,0:0|0:0,0:0:0:0:
282,41,101912,2,0,P|333:54|378:93,1,100,2|0,0:0|0:0,0:0:0:0:
399,123,102441,1,0,0:0:0:0:
391,222,102794,1,8,0:0:0:0:
306,275,103148,2,0,P|298:311|310:337,2,50,0|2|0,0:0|0:0|0:0,0:0:0:0:
309,174,103853,1,2,0:0:0:0:
212,142,104206,6,0,P|164:150|125:181,1,100,4|0,0:0|0:0,0:0:0:0:
113,230,104736,1,0,0:0:0:0:
122,278,104912,2,0,P|171:294|212:336,1,100,4|0,0:0|0:0,0:0:0:0:
305,335,105618,2,0,P|352:320|404:237,1,150,4|2,0:0|0:0,0:0:0:0:
384,140,106501,2,0,P|396:107|415:87,2,50,0|2|2,0:0|0:0|0:0,0:0:0:0:
346,173,107030,6,0,P|302:183|235:160,1,100,4|0,0:0|0:0,0:0:0:0:
214,134,107559,2,0,P|236:177|223:281,1,150,2|0,0:0|0:0,0:0:0:0:
137,321,108441,1,8,0:0:0:0:
37,315,108795,2,0,P|21:334|13:357,2,50,0|2|0,0:0|0:0|0:0,0:0:0:0:
99,236,109500,1,2,0:0:0:0:
146,147,109854,6,0,P|131:99|99:61,1,100,4|0,0:0|0:0,0:0:0:0:
49,54,110383,2,0,P|119:77|191:60,1,150,2|0,0:0|0:0,0:0:0:0:
289,41,111265,1,4,0:0:0:0:
384,69,111618,1,4,0:0:0:0:
445,147,111971,1,4,0:0:0:0:
388,338,112677,6,0,P|331:318|303:285,1,100,4|0,0:0|0:0,0:0:0:0:
295,240,113206,2,0,P|242:202|142:194,1,150,2|0,0:0|0:0,0:0:0:0:
66,227,114089,1,8,0:0:0:0:
0,158,114441,2,0,P|-2:131|13:88,1,50,0|2,0:0|0:0,0:0:0:0:
46,84,114795,2,0,P|94:101|156:91,1,100,0|2,0:0|0:0,0:0:0:0:
236,61,115501,6,0,P|290:92|315:134,1,100,4|0,0:0|0:0,0:0:0:0:
310,172,116030,1,0,0:0:0:0:
296,219,116206,2,0,P|308:265|345:307,1,100,8|0,0:0|0:0,0:0:0:0:
264,369,116912,2,0,P|212:363|168:335,1,100,4|0,0:0|0:0,0:0:0:0:
147,294,117442,1,2,0:0:0:0:
134,194,117795,2,0,P|131:157|120:138,1,50,0|2,0:0|0:0,0:0:0:0:
191,70,118324,6,0,P|224:54|301:66,1,100,4|0,0:0|0:0,0:0:0:0:
284,108,118854,2,0,P|319:119|365:183,1,100,2|0,0:0|0:0,0:0:0:0:
348,215,119383,1,2,0:0:0:0:
314,309,119736,2,0,P|268:328|218:324,1,100,2|0,0:0|0:0,0:0:0:0:
213,274,120265,2,0,P|179:212|98:178,1,150,2|8,0:0|0:0,0:0:0:0:
19,221,121148,6,0,P|16:258|46:326,1,100,4|0,0:0|0:0,0:0:0:0:
83,337,121677,1,2,0:0:0:0:
183,335,122030,2,0,P|209:353|225:383,2,50,2|0|2,0:0|0:0|0:0,0:0:0:0:
175,285,122559,2,0,P|202:245|246:222,1,100,2|0,0:0|0:0,0:0:0:0:
288,251,123088,2,0,P|376:254|424:218,1,150,2|8,0:0|0:0,0:0:0:0:
396,123,123971,6,0,P|350:109|311:74,1,100,4|0,0:0|0:0,0:0:0:0:
271,44,124501,2,0,P|223:40|161:74,1,100,2|0,0:0|0:0,0:0:0:0:
154,105,125030,1,2,0:0:0:0:
138,203,125383,2,0,P|147:248|186:290,1,100,2|0,0:0|0:0,0:0:0:0:
230,301,125912,1,2,0:0:0:0:
330,301,126265,2,0,P|359:318|381:348,2,50,2|0|0,0:0|0:0|0:0,0:0:0:0:
309,255,126795,6,0,P|310:195|375:124,1,150,4|0,0:0|0:0,0:0:0:0:
452,79,127677,2,0,P|484:74|503:62,2,50,0|2|0,0:0|0:0|0:0,0:0:0:0:
407,55,128207,2,0,P|342:36|263:53,1,150,4|0,0:0|0:0,0:0:0:0:
222,144,129089,2,0,P|242:171|246:201,2,50,0|2|0,0:0|0:0|0:0,0:0:0:0:
176,122,129618,6,0,P|126:115|81:134,1,100,4|0,0:0|0:0,0:0:0:0:
78,184,130148,2,0,P|42:217|28:265,1,100,2|0,0:0|0:0,0:0:0:0:
56,307,130677,1,2,0:0:0:0:
150,341,131030,2,0,P|199:334|240:307,1,100,2|0,0:0|0:0,0:0:0:0:
245,257,131559,2,0,P|263:188|334:141,1,150,2|8,0:0|0:0,0:0:0:0:
399,209,132442,6,0,P|440:181|463:137,1,100,4|0,0:0|0:0,0:0:0:0:
449,89,132971,1,2,0:0:0:0:
352,61,133324,2,0,P|345:30|350:8,2,50,2|0|2,0:0|0:0|0:0,0:0:0:0:
333,107,133854,2,0,P|284:117|238:101,1,100,2|0,0:0|0:0,0:0:0:0:
197,71,134382,2,0,P|129:103|90:178,1,150,2|8,0:0|0:0,0:0:0:0:
157,242,135265,6,0,P|211:252|253:277,1,100,4|0,0:0|0:0,0:0:0:0:
276,316,135795,2,0,P|330:308|366:279,1,100,2|0,0:0|0:0,0:0:0:0:
364,230,136324,1,2,0:0:0:0:
306,148,136677,2,0,P|265:126|228:70,1,100,2|0,0:0|0:0,0:0:0:0:
224,34,137207,1,2,0:0:0:0:
124,28,137559,2,0,P|75:49|39:99,1,100,2|0,0:0|0:0,0:0:0:0:
57,133,138089,5,4,0:2:0:0:
86,228,138442,1,0,0:0:0:0:
116,323,138795,2,0,L|168:354,1,50,2|0,0:3|0:0,0:0:0:0:
227,275,139324,1,0,0:0:0:0:
325,259,139677,2,0,L|352:203,2,50,0|0|0,0:0|0:0|0:0,0:0:0:0:
343,305,140206,1,4,0:2:0:0:
480,159,140912,6,0,P|456:94|419:66,1,100,4|8,0:0|0:0,0:0:0:0:
385,61,141442,2,0,P|364:37|355:14,2,50,0|2|0,0:0|0:0|0:0,0:0:0:0:
374,160,142147,2,0,P|331:192|298:294,1,150,2|0,0:0|0:0,0:0:0:0:
221,345,143030,1,2,0:0:0:0:
121,333,143383,1,2,0:0:0:0:
61,252,143736,6,0,P|66:202|94:161,1,100,4|8,0:0|0:0,0:0:0:0:
138,138,144265,1,2,0:0:0:0:
237,127,144618,2,0,P|275:132|296:124,1,50,0|0,0:0|0:0,0:0:0:0:
330,105,144971,2,0,P|387:116|440:195,1,150,2|2,0:0|0:0,0:0:0:0:
414,284,145853,5,2,0:0:0:0:
317,310,146206,1,2,0:0:0:0:
225,269,146559,2,0,P|212:221|236:160,1,100,8|0,0:0|0:0,0:0:0:0:
271,84,147265,5,2,0:0:0:0:
183,35,147618,1,2,0:0:0:0:
85,57,147971,2,0,P|67:79|63:159,1,100,8|0,0:0|0:0,0:0:0:0:
98,240,148677,5,2,0:0:0:0:
183,291,149030,1,2,0:0:0:0:
273,250,149383,2,0,P|317:225|369:224,1,100,8|2,0:0|0:0,0:0:0:0:
413,242,149912,2,0,P|461:225|501:181,1,100,8|2,0:0|0:0,0:0:0:0:
506,91,150618,1,2,0:0:0:0:
415,49,150971,2,0,P|395:20|388:-6,2,50,0|0|0,0:0|0:0|0:0,0:0:0:0:
415,99,151500,1,2,0:0:0:0:
333,157,151853,2,2,P|309:177|294:205,1,50,0|0,0:0|0:0,0:0:0:0:
288,241,152206,6,0,P|263:196|220:165,1,100,4|8,0:0|0:0,0:0:0:0:
176,152,152736,2,0,P|167:131|166:86,2,50,0|2|0,0:0|0:0|0:0,0:0:0:0:
186,251,153441,2,0,P|151:306|63:329,1,150,2|0,0:0|0:0,0:0:0:0:
3,257,154324,1,2,0:0:0:0:
19,158,154677,1,2,0:0:0:0:
92,90,155030,6,0,P|148:92|192:125,1,100,4|8,0:0|0:0,0:0:0:0:
203,161,155559,1,2,0:0:0:0:
226,258,155912,2,0,P|235:281|261:309,1,50,0|0,0:0|0:0,0:0:0:0:
300,306,156265,2,0,P|348:271|442:267,1,150,2|2,0:0|0:0,0:0:0:0:
487,179,157147,5,2,0:0:0:0:
432,95,157500,1,2,0:0:0:0:
340,55,157854,2,0,P|287:64|241:100,1,100,8|0,0:0|0:0,0:0:0:0:
255,140,158383,2,0,P|250:191|206:236,1,100,2|0,0:0|0:0,0:0:0:0:
172,242,158912,1,8,0:0:0:0:
89,297,159265,6,0,P|109:330|164:357,1,100,8|0,0:0|0:0,0:0:0:0:
208,337,159795,2,0,P|247:328|315:351,1,100,2|0,0:0|0:0,0:0:0:0:
344,372,160324,1,8,0:0:0:0:
256,192,160677,12,0,162794,1:0:0:0:
61,102,169501,6,0,P|81:144|190:179,1,150,4|0,0:0|0:0,0:0:0:0:
221,177,170207,1,2,0:0:0:0:
319,160,170559,1,2,0:0:0:0:
413,192,170912,2,0,P|439:230|442:294,1,100,4|0,0:0|0:0,0:0:0:0:
378,358,171618,1,2,0:0:0:0:
288,316,171971,6,0,P|247:297|172:303,1,100,8|0,0:0|0:0,0:0:0:0:
93,306,172677,1,2,0:0:0:0:
52,214,173030,2,0,P|46:182|81:111,1,100
117,104,173559,2,0,P|168:127|233:119,2,100,2|0|0,0:0|0:0|0:0,0:0:0:0:
97,57,174442,1,2,0:0:0:0:
295,31,175148,6,0,P|341:27|426:104,1,150,4|0,0:0|0:0,0:0:0:0:
440,132,175854,1,2,0:0:0:0:
414,228,176206,1,2,0:0:0:0:
323,184,176559,2,0,P|267:170|211:192,1,100,4|0,0:0|0:0,0:0:0:0:
175,268,177265,1,2,0:0:0:0:
227,352,177618,5,8,0:0:0:0:
326,360,177971,2,0,P|357:355|386:327,2,50,0|0|2,0:0|0:0|0:0,0:0:0:0:
286,268,178677,1,8,0:0:0:0:
285,167,179030,1,0,0:0:0:0:
352,92,179383,2,0,P|385:92|411:102,2,50,0|0|8,0:0|0:0|0:0,0:0:0:0:
251,90,180089,1,2,0:0:0:0:
154,65,180442,6,0,P|98:93|68:178,1,150,4|2,0:0|0:0,0:0:0:0:
72,220,181148,1,0,0:0:0:0:
125,304,181501,1,0,0:0:0:0:
219,338,181854,1,8,0:0:0:0:
66,80,200207,6,0,P|107:110|155:121,1,100,2|0,0:0|0:0,0:0:0:0:
203,105,200736,2,0,P|209:71|221:50,2,50,2|0|0,0:0|0:0|0:0,0:0:0:0:
290,153,201442,2,0,P|335:199|348:302,1,150,2|0,0:0|0:0,0:0:0:0:
289,358,202324,1,2,0:0:0:0:
189,349,202677,1,0,0:0:0:0:
140,261,203030,5,0,0:0:0:0:
129,161,203383,2,0,P|146:124|169:106,1,50,2|0,0:0|0:0,0:0:0:0:
249,93,203912,2,0,P|268:116|277:147,1,50,2|0,0:0|0:0,0:0:0:0:
282,184,204265,2,0,P|332:226|437:216,1,150,2|0,0:0|0:0,0:0:0:0:
478,151,205148,1,0,0:0:0:0:
451,54,205501,1,0,0:0:0:0:
352,34,205854,6,0,P|292:50|252:112,1,100,2|0,0:0|0:0,0:0:0:0:
260,175,206559,1,0,0:0:0:0:
216,265,206912,1,0,0:0:0:0:
120,293,207265,2,0,P|57:270|31:220,1,100,2|0,0:0|0:0,0:0:0:0:
29,145,207971,1,0,0:0:0:0:
104,79,208324,1,0,0:0:0:0:
201,100,208677,5,0,0:0:0:0:
268,173,209030,2,0,P|277:202|276:233,1,50
272,321,209559,1,0,0:0:0:0:
363,362,209912,5,0,0:0:0:0:
460,341,210265,2,0,P|491:288|491:240,1,100
478,202,210795,1,0,0:0:0:0:
419,120,211148,6,2,P|362:141|299:108,1,100,0|0,0:0|0:0,0:0:0:0:
236,85,211854,5,8,0:0:0:0:
190,65,212030,2,0,P|161:54|132:53,2,50,0|2|0,0:0|0:0|0:0,0:0:0:0:
188,165,212736,2,0,P|181:226|112:299,1,150,2|0,0:0|0:0,0:0:0:0:
30,260,213619,1,2,0:0:0:0:
6,162,213972,1,2,0:0:0:0:
59,77,214325,6,0,P|106:68|161:86,1,100,4|8,0:0|0:0,0:0:0:0:
197,109,214854,1,2,0:0:0:0:
233,202,215207,2,0,P|241:231|260:251,1,50,0|0,0:0|0:0,0:0:0:0:
297,270,215560,2,0,P|339:235|443:224,1,150,2|2,0:0|0:0,0:0:0:0:
500,149,216442,5,2,0:0:0:0:
447,63,216795,1,2,0:0:0:0:
347,58,217148,2,0,P|305:91|286:148,1,100,8|0,0:0|0:0,0:0:0:0:
292,233,217854,5,2,0:0:0:0:
250,323,218207,1,2,0:0:0:0:
155,355,218560,2,0,P|106:346|68:310,1,100,8|0,0:0|0:0,0:0:0:0:
66,212,219266,5,0,0:0:0:0:
142,147,219619,1,0,0:0:0:0:
240,161,219972,2,0,P|291:160|349:126,1,100,8|2,0:0|0:0,0:0:0:0:
375,110,220501,2,0,P|421:113|471:152,1,100,8|2,0:0|0:0,0:0:0:0:
489,239,221207,1,2,0:0:0:0:
421,312,221560,2,0,P|407:346|411:375,2,50,0|0|0,0:0|0:0|0:0,0:0:0:0:
399,266,222089,1,2,0:0:0:0:
307,225,222442,2,2,P|275:231|247:257,1,50,0|0,0:0|0:0,0:0:0:0:
220,270,222795,6,0,P|169:256|126:220,1,100,4|8,0:0|0:0,0:0:0:0:
118,179,223324,2,0,P|122:157|108:113,2,50,0|2|0,0:0|0:0|0:0,0:0:0:0:
19,158,224030,2,0,P|21:84|73:24,1,150,2|0,0:0|0:0,0:0:0:0:
167,34,224913,1,2,0:0:0:0:
230,111,225266,1,2,0:0:0:0:
226,210,225619,6,0,P|276:247|326:245,1,100,4|8,0:0|0:0,0:0:0:0:
362,244,226148,1,2,0:0:0:0:
432,172,226501,2,0,P|437:148|430:124,1,50,0|0,0:0|0:0,0:0:0:0:
402,82,226854,2,0,P|328:124|265:119,1,150,2|2,0:0|0:0,0:0:0:0:
177,71,227736,5,2,0:0:0:0:
78,90,228089,1,2,0:0:0:0:
35,180,228442,2,0,P|44:233|83:275,1,100,8|0,0:0|0:0,0:0:0:0:
121,279,228972,2,0,P|171:287|217:328,1,100,2|0,0:0|0:0,0:0:0:0:
241,355,229501,1,8,0:0:0:0:
340,352,229854,6,0,P|375:332|406:280,1,100,8|0,0:0|0:0,0:0:0:0:
374,242,230383,2,0,P|374:201|344:148,1,100,2|0,0:0|0:0,0:0:0:0:
297,137,230913,1,8,0:0:0:0:
256,192,231266,12,0,233383,1:0:0:0:
449,147,236912,6,0,P|380:151|342:181,1,100,4|0,0:0|0:0,0:0:0:0:
328,210,237441,1,2,0:0:0:0:
304,307,237795,2,0,P|249:339|201:334,1,100
168,317,238324,2,0,P|165:251|113:182,1,150,4|2,0:0|0:0,0:0:0:0:
52,108,239206,2,0,P|23:93|5:76,2,50,0|0|0,0:0|0:0|0:0,0:0:0:0:
96,84,239736,6,0,P|151:83|197:59,1,100,4|0,0:0|0:0,0:0:0:0:
233,36,240264,1,2,0:0:0:0:
332,23,240618,2,0,P|360:69|362:130,1,100
310,198,241323,1,4,0:0:0:0:
210,202,241676,1,4,0:0:0:0:
113,177,242030,2,0,P|83:156|67:139,2,50,4|8|0,0:0|0:0|0:0,0:0:0:0:
121,226,242559,6,0,P|148:259|157:320,1,100,4|0,0:0|0:0,0:0:0:0:
154,364,243088,1,2,0:0:0:0:
254,364,243442,2,0,P|303:353|344:315,1,100
336,271,243971,2,0,P|320:198|341:126,1,150,4|2,0:0|0:0,0:0:0:0:
431,81,244854,2,0,P|454:80|483:72,2,50
393,47,245383,6,0,P|344:32|282:38,1,100,4|0,0:0|0:0,0:0:0:0:
252,59,245911,1,2,0:0:0:0:
206,148,246265,2,0,P|216:196|205:248,1,100,0|0,0:0|0:0,0:0:0:0:
121,299,246971,5,4,0:0:0:0:
27,262,247324,1,4,0:0:0:0:
39,162,247677,2,0,P|42:138|38:106,2,50,4|8|0,0:0|0:0|0:0,0:0:0:0:
82,187,248207,6,0,P|132:181|179:146,1,100,4|0,0:0|0:0,0:0:0:0:
203,114,248736,1,2,0:0:0:0:
288,62,249089,2,0,P|330:87|358:130,1,100,0|0,0:0|0:0,0:0:0:0:
352,179,249618,2,0,P|295:228|280:313,1,150,4|2,0:0|0:0,0:0:0:0:
367,343,250501,2,0,P|395:356|417:374,2,50,0|0|0,0:0|0:0|0:0,0:0:0:0:
366,292,251030,6,0,P|415:289|455:255,1,100,4|0,0:0|0:0,0:0:0:0:
470,211,251559,1,2,0:0:0:0:
402,136,251912,2,0,P|363:98|344:46,1,100,0|0,0:0|0:0,0:0:0:0:
250,26,252618,1,4,0:0:0:0:
152,47,252971,1,4,0:0:0:0:
99,131,253324,2,0,P|76:147|47:152,2,50,4|8|0,0:0|0:0|0:0,0:0:0:0:
149,134,253854,6,0,P|187:164|212:222,1,100,4|0,0:0|0:0,0:0:0:0:
210,259,254383,1,2,0:0:0:0:
270,338,254736,2,0,P|317:350|365:335,1,100,0|0,0:0|0:0,0:0:0:0:
387,290,255265,2,0,P|372:215|399:143,1,150,4|2,0:0|0:0,0:0:0:0:
455,66,256148,2,0,P|456:42|446:14,2,50,0|0|0,0:0|0:0|0:0,0:0:0:0:
404,65,256677,6,0,P|352:48|308:55,1,100,4|0,0:0|0:0,0:0:0:0:
261,72,257206,1,2,0:0:0:0:
205,155,257559,2,0,P|206:204|226:250,1,100,0|0,0:0|0:0,0:0:0:0:
308,307,258265,1,4,0:0:0:0:
407,309,258618,1,4,0:0:0:0:
479,240,258971,2,0,P|504:224|530:222,2,50,4|8|0,0:0|0:0|0:0,0:0:0:0:
