osu file format v14

[General]
AudioFilename: jh.mp3
AudioLeadIn: 0
PreviewTime: 59030
Countdown: 0
SampleSet: Soft
StackLeniency: 0.7
Mode: 0
LetterboxInBreaks: 0
WidescreenStoryboard: 1

[Editor]
Bookmarks: 13854,25148,36442,47736,59030,81618,84442,95736,107030,118324,129618,140912,163501,169148,183265,200207,211501,236912,259324
DistanceSpacing: 1
BeatDivisor: 2
GridSize: 4
TimelineZoom: 0.9999999

[Metadata]
Title:Sharekoube
TitleUnicode:髑髏
Artist:Buta-Otome
ArtistUnicode:豚乙女
Creator:Damnae
Version:Kite's Hard
Source:
Tags:コンプ comp ランコ ranko skull ボウリング 豚乙女 歌うアコースティック evilelvis ryuu kite fergas
BeatmapID:720226
BeatmapSetID:304940

[Difficulty]
HPDrainRate:5
CircleSize:3.8
OverallDifficulty:6.3
ApproachRate:8
SliderMultiplier:1.6
SliderTickRate:1

[Events]
//Background and Video events
0,0,"113230.png",0,0
//Break Periods
2,84442,93574
2,200207,209162
//Storyboard Layer 0 (Background)
//Storyboard Layer 1 (Fail)
//Storyboard Layer 2 (Pass)
//Storyboard Layer 3 (Foreground)
//Storyboard Sound Samples

[TimingPoints]
2560,352.941176470588,4,2,22,40,1,0
2648,-111.111111111111,4,2,22,40,0,0
13765,-111.111111111111,4,2,22,40,0,0
25148,-100,4,2,22,40,0,0
30795,-100,4,2,22,40,0,0
36442,-111.111111111111,4,2,22,45,0,0
47736,-100,4,2,22,50,0,0
59030,-100,4,2,22,60,0,1
70148,-100,4,2,22,40,0,0
70324,-100,4,2,22,60,0,1
81089,-100,4,2,22,40,0,1
81265,-100,4,2,22,40,0,1
81618,-133.333333333333,4,2,22,40,0,0
94324,-100,4,2,22,20,0,0
95383,-100,4,2,22,20,0,0
95736,-111.111111111111,4,2,22,40,0,0
107030,-100,4,2,22,40,0,0
112324,-100,4,2,22,20,0,0
112677,-100,4,2,22,40,0,0
118324,-111.111111111111,4,2,22,45,0,0
129618,-100,4,2,22,50,0,0
140912,-100,4,2,22,60,0,1
152030,-100,4,2,22,40,0,0
152207,-100,4,2,22,60,0,1
163501,-133.333333333333,4,2,22,40,0,0
166324,-133.333333333333,4,2,22,40,0,0
169148,-133.333333333333,4,2,22,20,0,0
169501,-111.111111111111,4,2,22,40,0,0
174354,-133.333333333333,4,2,22,40,0,0
174707,-200,4,2,22,40,0,0
175059,-111.111111111111,4,2,22,40,0,0
200207,-200,4,2,22,40,0,0
209912,-100,4,2,22,40,0,0
211501,-200,4,2,22,60,0,1
211765,-200,4,2,22,30,0,1
211854,-100,4,2,22,60,0,1
222618,-100,4,2,22,40,0,0
222795,-100,4,2,22,60,0,1
234089,-133.333333333333,4,2,22,40,0,0

[Colours]
Combo1 : 255,94,55
Combo2 : 173,255,95
Combo3 : 17,254,176
Combo4 : 255,88,100

[HitObjects]
286,341,2560,5,4,0:0:0:0:
433,262,2824,2,0,L|444:219,1,35.9999989013672,0|2,0:0|0:2,0:0:0:0:
355,288,3089,2,0,P|407:342|487:322,1,143.999995605469
433,262,3618,1,0,0:0:0:0:
410,178,3795,1,0,0:0:0:0:
446,101,3971,5,4,0:0:0:0:
290,131,4236,2,0,L|291:171,1,35.9999989013672,0|2,0:0|0:2,0:0:0:0:
216,101,4501,2,0,P|262:53|345:73,1,143.999995605469
290,131,5030,1,0,0:0:0:0:
213,188,5207,1,0,0:0:0:0:
156,263,5383,5,4,0:0:0:0:
27,189,5648,2,0,L|28:144,1,35.9999989013672,0|2,0:0|0:2,0:0:0:0:
116,184,5912,2,0,P|108:276|100:348,1,143.999995605469
196,360,6442,1,0,0:0:0:0:
288,336,6618,1,0,0:0:0:0:
376,308,6795,1,0,0:0:0:0:
460,280,6971,6,0,L|476:200,1,71.9999978027344,2|0,0:2|0:0,0:0:0:0:
384,204,7324,2,0,L|400:124,1,71.9999978027344,2|0,0:2|0:0,0:0:0:0:
308,132,7677,2,0,L|324:52,2,71.9999978027344,2|2|2,0:2|0:2|0:2,0:0:0:0:
243,206,8207,6,0,P|185:228|135:204,1,107.999996704102,4|0,0:0|0:0,0:0:0:0:
121,182,8559,2,0,L|40:196,1,71.9999978027344,2|0,0:2|0:0,0:0:0:0:
308,132,9089,1,0,0:0:0:0:
337,225,9265,2,0,L|329:304,1,71.9999978027344
437,224,9618,6,0,P|450:158|454:102,2,107.999996704102,4|2|0,0:0|0:2|0:0,0:0:0:0:
278,40,10501,1,0,0:0:0:0:
202,102,10677,1,0,0:0:0:0:
113,61,10854,1,0,0:0:0:0:
68,147,11030,6,0,P|59:209|58:266,2,107.999996704102,4|2|0,0:0|0:2|0:0,0:0:0:0:
213,327,11912,1,0,0:0:0:0:
283,268,12089,2,0,P|323:257|365:268,1,71.9999978027344
443,297,12442,5,0,0:0:0:0:
451,273,13854,5,4,0:0:0:0:
383,206,14030,1,0,0:0:0:0:
383,206,14118,1,0,0:0:0:0:
383,206,14207,1,2,0:2:0:0:
474,172,14383,2,0,P|483:115|473:29,1,143.999995605469,8|0,0:2|0:0,0:0:0:0:
379,36,14912,1,0,0:0:0:0:
285,42,15089,1,0,0:0:0:0:
192,55,15265,6,0,P|192:106|194:162,1,107.999996704102,4|0,0:0|0:0,0:0:0:0:
247,188,15618,2,0,P|242:225|234:258,1,71.9999978027344,8|8,0:2|0:2,0:0:0:0:
130,358,15971,2,0,P|120:286|119:215,1,143.999995605469,2|0,0:2|0:2,0:0:0:0:
334,42,16677,6,0,P|396:26|454:72,1,143.999995605469,4|2,0:0|0:0,0:0:0:0:
325,171,17207,2,0,P|256:165|179:136,1,143.999995605469,8|0,0:0|0:0,0:0:0:0:
103,87,17736,1,2,0:0:0:0:
39,16,17912,1,2,0:0:0:0:
8,106,18089,5,4,0:0:0:0:
242,39,18442,1,4,0:0:0:0:
419,190,18795,2,0,L|424:262,2,71.9999978027344,4|0|0,0:0|0:0|0:0,0:0:0:0:
237,342,19501,6,0,P|158:362|96:322,1,143.999995605469,0|2,0:0|0:0,0:0:0:0:
46,209,20030,2,0,P|38:132|38:50,1,143.999995605469,8|0,0:0|0:0,0:0:0:0:
139,136,20559,2,0,P|143:184|143:224,1,71.9999978027344,2|0,0:0|0:0,0:0:0:0:
197,51,20912,6,0,P|236:31|316:42,1,107.999996704102,4|0,0:0|0:0,0:0:0:0:
334,54,21265,2,0,P|373:69|415:59,1,71.9999978027344,8|8,0:0|0:0,0:0:0:0:
493,20,21618,2,0,P|498:107|496:179,1,143.999995605469,2|0,0:0|0:0,0:0:0:0:
489,274,22148,1,0,0:0:0:0:
407,215,22324,6,0,P|352:202|288:214,1,107.999996704102,4|0,0:0|0:0,0:0:0:0:
269,225,22677,1,2,0:0:0:0:
255,334,22854,1,8,0:0:0:0:
167,266,23030,2,0,P|156:224|162:187,1,71.9999978027344,2|0,0:0|0:0,0:0:0:0:
204,90,23383,1,2,0:0:0:0:
105,108,23559,1,0,0:0:0:0:
287,73,23736,6,0,P|266:29|163:20,1,143.999995605469,6|2,0:0|0:0,0:0:0:0:
30,54,24265,1,2,0:0:0:0:
204,90,24618,1,0,0:0:0:0:
244,179,24795,1,2,0:0:0:0:
211,264,24971,5,0,0:0:0:0:
211,264,25059,1,0,0:0:0:0:
211,264,25148,2,0,P|194:327|165:373,1,120,4|0,0:0|0:0,0:0:0:0:
90,351,25501,2,0,P|113:316|131:282,1,80,2|8,0:0|0:0,0:0:0:0:
94,63,26030,1,0,0:0:0:0:
57,162,26207,2,0,P|51:206|51:244,1,80,2|0,0:0|0:0,0:0:0:0:
94,63,26559,6,0,P|166:48|217:46,1,120,4|0,0:0|0:0,0:0:0:0:
245,47,26912,1,8,0:0:0:0:
321,124,27089,1,8,0:0:0:0:
219,152,27265,2,0,P|205:218|191:309,1,160,2|0,0:0|0:0,0:0:0:0:
447,166,27971,6,0,P|472:102|421:31,1,160,4|2,0:0|0:0,0:0:0:0:
324,47,28501,2,0,P|300:120|347:180,1,160,8|0,0:0|0:0,0:0:0:0:
386,106,29030,1,2,0:0:0:0:
447,166,29207,1,2,0:0:0:0:
470,252,29383,5,4,0:0:0:0:
277,360,29736,1,4,0:0:0:0:
74,275,30089,2,0,P|62:226|57:191,2,80,4|0|0,0:0|0:0|0:0,0:0:0:0:
181,32,30795,6,0,P|183:102|174:193,1,160,4|2,0:0|0:0,0:0:0:0:
276,153,31324,2,0,P|334:131|426:165,1,160,8|0,0:0|0:0,0:0:0:0:
472,255,31854,1,2,0:0:0:0:
390,337,32030,1,0,0:0:0:0:
295,270,32207,6,0,P|281:224|276:148,1,120,4|0,0:0|0:0,0:0:0:0:
277,124,32559,1,8,0:0:0:0:
349,46,32736,1,8,0:0:0:0:
248,26,32912,2,0,L|86:13,1,160,2|0,0:0|0:0,0:0:0:0:
32,263,33618,6,0,P|81:313|168:293,1,160,4|2,0:0|0:0,0:0:0:0:
233,231,34148,1,8,0:0:0:0:
308,291,34324,2,0,P|316:335|308:369,1,80,2|0,0:0|0:0,0:0:0:0:
233,231,34677,1,2,0:0:0:0:
226,135,34854,1,0,0:0:0:0:
217,40,35030,6,0,P|268:31|343:20,1,120,2|0,0:0|0:0,0:0:0:0:
359,52,35383,2,0,P|405:45|441:39,1,80,8|8,0:0|0:0,0:0:0:0:
470,318,35912,1,2,0:0:0:0:
402,250,36089,2,0,P|396:209|410:174,1,80,8|8,0:0|0:0,0:0:0:0:
470,318,36442,6,0,L|365:349,1,107.999996704102,4|0,0:0|0:0,0:0:0:0:
341,356,36795,1,2,0:0:0:0:
232,311,36971,2,0,P|205:246|237:182,1,143.999995605469,8|0,0:0|0:0,0:0:0:0:
312,128,37501,1,2,0:0:0:0:
226,91,37677,1,0,0:0:0:0:
198,84,37765,1,0,0:0:0:0:
169,83,37854,6,0,P|125:85|59:102,1,107.999996704102,4|0,0:0|0:0,0:0:0:0:
26,142,38207,2,0,P|61:144|103:153,1,71.9999978027344,8|8,0:0|0:0,0:0:0:0:
179,192,38559,1,2,0:0:0:0:
162,282,38736,1,0,0:0:0:0:
252,266,38912,2,0,L|266:196,1,71.9999978027344,2|0,0:0|0:0,0:0:0:0:
363,145,39265,6,0,P|371:219|368:253,1,107.999996704102,4|0,0:0|0:0,0:0:0:0:
363,278,39618,1,2,0:0:0:0:
462,223,39795,2,0,P|458:153|440:82,1,143.999995605469,8|0,0:0|0:0,0:0:0:0:
351,51,40324,1,2,0:0:0:0:
259,69,40501,1,0,0:0:0:0:
234,83,40589,1,0,0:0:0:0:
211,100,40677,6,0,P|177:125|125:173,1,107.999996704102,4|0,0:0|0:0,0:0:0:0:
115,196,41030,2,0,P|151:182|186:175,1,71.9999978027344,8|8,0:0|0:0,0:0:0:0:
277,166,41383,1,2,0:0:0:0:
305,255,41559,1,0,0:0:0:0:
369,186,41736,2,0,P|378:148|379:109,1,71.9999978027344,2|0,0:0|0:0,0:0:0:0:
457,29,42089,6,0,P|468:87|465:144,1,107.999996704102,4|0,0:0|0:0,0:0:0:0:
461,163,42442,1,2,0:0:0:0:
385,270,42618,2,0,P|309:289|252:253,1,143.999995605469,8|0,0:0|0:0,0:0:0:0:
211,175,43148,1,2,0:0:0:0:
124,209,43324,1,0,0:0:0:0:
99,223,43412,1,0,0:0:0:0:
77,243,43501,6,0,P|74:311|89:348,1,107.999996704102,4|0,0:0|0:0,0:0:0:0:
113,360,43854,2,0,L|188:346,1,71.9999978027344,8|8,0:0|0:0,0:0:0:0:
257,288,44207,1,2,0:0:0:0:
335,339,44383,1,0,0:0:0:0:
404,276,44559,2,0,P|410:238|407:198,1,71.9999978027344,2|0,0:0|0:0,0:0:0:0:
325,154,44912,6,0,P|317:97|321:44,1,107.999996704102,4|0,0:0|0:0,0:0:0:0:
331,25,45265,2,0,L|402:16,1,71.9999978027344,2|8,0:0|0:0,0:0:0:0:
487,70,45618,1,2,0:0:0:0:
487,70,45795,1,0,0:0:0:0:
480,163,45971,1,2,0:0:0:0:
480,163,46148,1,0,0:0:0:0:
469,256,46324,6,0,P|428:271|365:265,1,107.999996704102,4|0,0:0|0:0,0:0:0:0:
336,253,46677,2,0,P|295:242|263:245,1,71.9999978027344,2|8,0:0|0:0,0:0:0:0:
174,265,47030,1,2,0:0:0:0:
174,265,47207,1,0,0:0:0:0:
103,204,47383,1,2,0:0:0:0:
103,204,47559,1,0,0:0:0:0:
32,128,47736,6,0,P|32:89|37:47,2,80,4|0|2,0:0|0:0|0:0,0:0:0:0:
103,204,48265,2,0,P|97:286|88:366,1,160,8|0,0:0|0:0,0:0:0:0:
203,326,48795,2,0,P|207:285|210:244,1,80,2|0,0:0|0:0,0:0:0:0:
283,160,49148,6,0,P|320:149|365:157,2,80,4|0|8,0:0|0:0|0:0,0:0:0:0:
209,246,49677,2,0,P|141:268|59:231,1,160,8|0,0:0|0:0,0:0:0:0:
32,137,50207,2,0,L|36:51,1,80,2|0,0:0|0:0,0:0:0:0:
159,26,50559,6,0,P|157:81|144:151,1,120,4|0,0:0|0:0,0:0:0:0:
138,171,50912,1,2,0:0:0:0:
245,118,51089,2,0,P|292:105|379:164,1,160,8|0,0:0|0:0,0:0:0:0:
378,267,51618,1,2,0:0:0:0:
444,348,51795,1,0,0:0:0:0:
486,253,51971,6,0,P|495:200|487:126,1,120,4|0,0:0|0:0,0:0:0:0:
481,108,52324,1,8,0:0:0:0:
372,162,52501,2,0,P|319:177|233:124,1,160,8|0,0:0|0:0,0:0:0:0:
207,25,53030,1,2,0:0:0:0:
105,45,53207,1,0,0:0:0:0:
4,69,53383,6,0,P|4:113|7:153,2,80,4|0|2,0:0|0:0|0:0,0:0:0:0:
105,45,53912,2,0,P|108:137|105:210,1,160,8|0,0:0|0:0,0:0:0:0:
190,302,54442,2,0,P|192:260|196:220,1,80,2|0,0:0|0:0,0:0:0:0:
293,129,54795,6,0,P|292:174|287:210,2,80,4|0|2,0:0|0:0|0:0,0:0:0:0:
390,38,55324,2,0,P|392:124|388:202,1,160,8|0,0:0|0:0,0:0:0:0:
472,288,55854,2,0,P|478:248|481:201,1,80,2|0,0:0|0:0,0:0:0:0:
378,335,56207,5,4,0:0:0:0:
91,327,56559,1,4,0:0:0:0:
226,75,56912,2,0,P|266:62|303:72,1,80,4|0,0:0|0:0,0:0:0:0:
371,132,57265,1,2,0:0:0:0:
453,90,57442,5,4,0:0:0:0:
251,296,57795,1,4,0:0:0:0:
187,230,57971,2,0,P|151:216|110:224,2,80,2|0|2,0:0|0:0|0:0,0:0:0:0:
454,211,59030,6,0,P|480:144|435:75,1,160,4|2,0:0|0:0,0:0:0:0:
389,151,59559,1,2,0:0:0:0:
389,151,59648,1,0,0:0:0:0:
389,151,59736,2,0,P|346:160|311:155,1,80,0|2,0:0|0:0,0:0:0:0:
50,59,60265,6,0,P|52:118|78:220,1,160,4|0,0:0|0:0,0:0:0:0:
159,150,60795,2,0,P|176:100|211:41,1,120,2|0,0:0|0:0,0:0:0:0:
238,20,61148,2,0,P|236:68|239:103,1,80,2|0,0:0|0:0,0:0:0:0:
331,199,61501,2,0,P|333:159|331:119,1,80,2|0,0:0|0:0,0:0:0:0:
428,29,61854,6,0,P|429:94|433:188,1,160,4|2,0:0|0:0,0:0:0:0:
437,285,62383,2,0,P|377:334|302:311,1,160,2|0,0:0|0:0,0:0:0:0:
244,237,62912,1,2,0:0:0:0:
210,327,63089,2,0,P|126:349|51:358,1,160,4|0,0:0|0:0,0:0:0:0:
1,277,63618,1,2,0:0:0:0:
127,40,63971,1,2,0:0:0:0:
178,122,64148,1,0,0:0:0:0:
260,72,64324,2,0,P|297:59|338:66,1,80,2|0,0:0|0:0,0:0:0:0:
248,184,64677,6,0,P|188:220|108:187,1,160,4|2,0:0|0:0,0:0:0:0:
52,111,65207,1,0,0:0:0:0:
14,199,65383,2,0,P|11:240|11:282,1,80,2|0,0:0|0:0,0:0:0:0:
81,353,65736,1,2,0:0:0:0:
162,294,65912,5,0,0:0:0:0:
162,294,66001,1,0,0:0:0:0:
162,294,66089,2,0,P|234:277|317:293,1,160,4|2,0:0|0:0,0:0:0:0:
405,333,66618,1,0,0:0:0:0:
466,259,66795,2,0,P|474:217|468:179,1,80,2|0,0:0|0:0,0:0:0:0:
436,90,67148,1,2,0:0:0:0:
359,147,67324,1,0,0:0:0:0:
344,52,67501,6,0,P|266:42|183:34,1,160,4|0,0:0|0:0,0:0:0:0:
97,73,68030,2,0,P|66:118|100:211,1,160,4|0,0:0|0:0,0:0:0:0:
179,264,68559,1,2,0:0:0:0:
232,184,68736,6,0,P|306:177|394:172,1,160,4|0,0:0|0:0,0:0:0:0:
458,271,69265,2,0,P|419:266|377:262,1,80,2|0,0:0|0:0,0:0:0:0:
260,335,69618,2,0,P|299:340|340:344,1,80,2|0,0:0|0:0,0:0:0:0:
458,271,69971,2,0,P|470:244|473:231,2,40,2|0|0,0:0|0:0|0:0,0:0:0:0:
260,335,70324,6,0,P|165:337|97:337,1,160,4|2,0:0|0:0,0:0:0:0:
35,265,70854,1,0,0:0:0:0:
35,265,70942,1,0,0:0:0:0:
35,265,71030,2,0,P|30:208|28:182,2,80,2|0|2,0:0|0:0|0:0,0:0:0:0:
126,203,71559,6,0,P|126:123|122:43,1,160,4|0,0:0|0:0,0:0:0:0:
218,94,72089,2,0,P|219:138|216:176,1,80,2|0,0:0|0:0,0:0:0:0:
203,269,72442,1,2,0:0:0:0:
338,52,72795,1,2,0:0:0:0:
488,271,73148,6,0,P|450:305|345:292,1,160,4|2,0:0|0:0,0:0:0:0:
331,164,73677,2,0,P|369:130|474:143,1,160,4|0,0:0|0:0,0:0:0:0:
412,217,74207,1,2,0:0:0:0:
244,213,74383,2,0,P|223:109|214:54,1,160,4|0,0:0|0:0,0:0:0:0:
297,7,74912,1,2,0:0:0:0:
67,151,75265,2,0,P|59:198|54:233,2,80,2|0|2,0:0|0:0|0:0,0:0:0:0:
94,58,75795,1,0,0:0:0:0:
153,209,75971,6,0,P|154:281|154:369,1,160,4|0,0:0|0:0,0:0:0:0:
250,280,76501,2,0,P|309:252|391:288,1,160,4|0,0:0|0:0,0:0:0:0:
317,349,77030,1,2,0:0:0:0:
463,153,77383,5,4,0:0:0:0:
429,74,77559,1,0,0:0:0:0:
429,74,77648,1,0,0:0:0:0:
429,74,77736,1,2,0:0:0:0:
368,148,77912,2,0,P|313:170|237:117,1,160,4|0,0:0|0:0,0:0:0:0:
227,20,78442,2,0,P|181:15|145:13,1,80,2|2,0:0|0:0,0:0:0:0:
54,38,78795,5,4,0:0:0:0:
54,38,78971,1,0,0:0:0:0:
114,113,79148,1,2,0:0:0:0:
114,113,79324,1,0,0:0:0:0:
52,197,79501,1,2,0:0:0:0:
52,197,79677,1,0,0:0:0:0:
113,291,79854,1,2,0:0:0:0:
113,291,80030,1,0,0:0:0:0:
211,234,80207,6,0,P|249:222|290:230,1,80,2|0,0:0|0:0,0:0:0:0:
371,291,80559,1,2,0:0:0:0:
396,190,80736,1,0,0:0:0:0:
473,260,80912,1,2,0:0:0:0:
312,109,81618,6,0,P|303:80|305:50,2,60.0000022888184,2|0|0,0:0|0:0|0:0,0:0:0:0:
229,178,82148,2,0,P|206:226|230:294,1,120.000004577637,2|0,0:0|0:0,0:0:0:0:
288,342,82677,1,2,0:0:0:0:
371,356,82854,1,0,0:0:0:0:
448,323,83030,2,0,P|456:290|454:262,1,60.0000022888184,2|0,0:0|0:0,0:0:0:0:
419,188,83383,1,2,0:0:0:0:
206,367,83736,1,2,0:0:0:0:
256,192,94324,12,0,95383,0:0:0:0:
95,325,95736,6,0,P|136:340|199:317,1,107.999996704102,4|0,0:0|0:0,0:0:0:0:
211,308,96089,1,2,0:0:0:0:
147,240,96265,2,0,P|138:183|148:97,1,143.999995605469,8|0,0:0|0:0,0:0:0:0:
236,66,96795,1,2,0:0:0:0:
327,43,96971,1,0,0:0:0:0:
418,23,97148,6,0,P|418:74|416:130,1,107.999996704102,4|0,0:0|0:0,0:0:0:0:
372,147,97501,2,0,P|377:184|385:217,1,71.9999978027344,8|8,0:0|0:0,0:0:0:0:
481,220,97854,2,0,P|468:291|447:359,1,143.999995605469,2|0,0:0|0:0,0:0:0:0:
265,246,98559,6,0,P|215:231|166:258,1,107.999996704102,4|0,0:0|0:0,0:0:0:0:
154,274,98912,1,2,0:0:0:0:
63,344,99089,2,0,P|62:280|74:201,1,143.999995605469,8|0,0:0|0:0,0:0:0:0:
100,111,99618,1,2,0:0:0:0:
75,21,99795,1,2,0:0:0:0:
10,89,99971,5,4,0:0:0:0:
211,167,100324,1,4,0:0:0:0:
410,87,100677,2,0,L|405:15,2,71.9999978027344,4|0|0,0:0|0:0|0:0,0:0:0:0:
460,327,101383,6,0,P|381:347|319:307,1,143.999995605469,4|2,0:0|0:0,0:0:0:0:
313,229,101912,2,0,P|321:152|321:70,1,143.999995605469,8|0,0:0|0:0,0:0:0:0:
219,135,102442,2,0,P|223:183|223:223,1,71.9999978027344,2|0,0:0|0:0,0:0:0:0:
148,71,102795,6,0,P|104:66|33:105,1,107.999996704102,4|0,0:0|0:0,0:0:0:0:
0,154,103148,2,0,P|39:169|81:159,1,71.9999978027344,8|8,0:0|0:0,0:0:0:0:
219,135,103501,2,0,P|224:222|222:294,1,143.999995605469,2|0,0:0|0:0,0:0:0:0:
206,372,104030,1,0,0:0:0:0:
307,335,104207,6,0,P|360:328|412:341,1,107.999996704102,4|0,0:0|0:0,0:0:0:0:
435,353,104559,1,2,0:0:0:0:
481,271,104736,1,8,0:0:0:0:
430,193,104912,2,0,P|419:151|425:114,1,71.9999978027344,2|0,0:0|0:0,0:0:0:0:
454,33,105265,1,2,0:0:0:0:
454,33,105442,1,0,0:0:0:0:
256,192,105618,12,0,106677,0:0:0:0:
190,92,107030,6,0,P|133:59|80:47,1,120,4|0,0:0|0:0,0:0:0:0:
58,46,107383,1,2,0:0:0:0:
38,144,107559,2,0,P|32:205|24:303,1,160,8|0,0:0|0:0,0:0:0:0:
96,368,108089,1,2,0:0:0:0:
156,293,108265,1,0,0:0:0:0:
233,350,108442,6,0,P|305:365|356:367,1,120,4|0,0:0|0:0,0:0:0:0:
376,366,108795,1,8,0:0:0:0:
456,314,108971,1,8,0:0:0:0:
371,269,109148,2,0,P|361:235|370:188,1,80,2|0,0:0|0:0,0:0:0:0:
401,101,109501,1,2,0:0:0:0:
227,269,109854,6,0,P|156:293|93:238,1,160,4|8,0:0|0:0,0:0:0:0:
76,149,110383,1,8,0:0:0:0:
338,29,110736,1,0,0:0:0:0:
401,101,110912,2,0,L|405:184,1,80,2|0,0:0|0:0,0:0:0:0:
466,255,111265,5,4,0:0:0:0:
259,151,111618,1,4,0:0:0:0:
66,279,111971,2,0,P|72:318|82:357,2,80,4|0|0,0:0|0:0|0:0,0:0:0:0:
66,68,112677,6,0,P|133:47|223:33,1,160,4|2,0:0|0:0,0:0:0:0:
196,138,113207,2,0,P|180:214|223:279,1,160,8|0,0:0|0:0,0:0:0:0:
317,306,113736,1,2,0:0:0:0:
403,264,113912,1,0,0:0:0:0:
490,223,114089,6,0,P|489:174|470:101,1,120,2|0,0:0|0:0,0:0:0:0:
462,78,114442,1,8,0:0:0:0:
384,22,114618,1,8,0:0:0:0:
333,104,114795,2,0,P|263:138|176:135,1,160,2|0,0:0|0:0,0:0:0:0:
92,103,115324,5,0,0:0:0:0:
84,120,115412,1,0,0:0:0:0:
76,136,115501,2,0,P|57:186|39:253,1,120,4|0,0:0|0:0,0:0:0:0:
66,275,115854,2,0,P|64:318|60:355,1,80,2|8,0:0|0:0,0:0:0:0:
163,282,116207,2,0,P|165:239|169:202,1,80,2|0,0:0|0:0,0:0:0:0:
227,126,116559,1,2,0:0:0:0:
294,195,116736,1,0,0:0:0:0:
383,160,116912,6,0,P|390:208|346:270,1,120,2|0,0:0|0:0,0:0:0:0:
323,282,117265,2,0,L|305:364,1,80,8|8,0:0|0:0,0:0:0:0:
316,86,117795,1,0,0:0:0:0:
234,36,117971,2,0,P|191:26|150:36,1,80,2|0,0:0|0:0,0:0:0:0:
69,74,118324,5,4,0:0:0:0:
33,178,118501,1,0,0:0:0:0:
44,204,118589,2,0,P|80:230|140:215,1,107.999996704102,2|8,0:0|0:0,0:0:0:0:
162,199,118942,2,0,P|211:183|256:211,1,107.999996704102,2|0,0:0|0:0,0:0:0:0:
308,281,119383,1,2,0:0:0:0:
386,245,119559,1,0,0:0:0:0:
463,205,119736,6,0,P|454:161|428:98,1,107.999996704102,4|0,0:0|0:0,0:0:0:0:
403,80,120089,2,0,P|401:115|392:157,1,71.9999978027344,8|8,0:0|0:0,0:0:0:0:
317,190,120442,1,2,0:0:0:0:
274,115,120618,1,0,0:0:0:0:
211,174,120795,2,0,L|197:244,1,71.9999978027344,2|0,0:0|0:0,0:0:0:0:
90,311,121148,6,0,P|82:237|85:203,1,107.999996704102,4|0,0:0|0:0,0:0:0:0:
90,178,121501,1,2,0:0:0:0:
116,95,121677,2,0,P|181:58|241:80,1,143.999995605469,8|0,0:0|0:0,0:0:0:0:
297,147,122207,1,2,0:0:0:0:
333,68,122383,1,0,0:0:0:0:
400,122,122559,6,0,P|406:163|409:234,1,107.999996704102,4|0,0:0|0:0,0:0:0:0:
375,255,122912,2,0,P|361:291|354:326,1,71.9999978027344,8|8,0:0|0:0,0:0:0:0:
254,345,123265,2,0,P|268:309|275:274,1,71.9999978027344,2|0,0:0|0:0,0:0:0:0:
237,198,123618,1,2,0:0:0:0:
174,257,123795,1,0,0:0:0:0:
144,176,123971,6,0,P|133:118|136:61,1,107.999996704102,4|0,0:0|0:0,0:0:0:0:
140,42,124324,1,2,0:0:0:0:
217,81,124501,2,0,P|273:98|343:52,1,143.999995605469,8|0,0:0|0:0,0:0:0:0:
420,20,125030,2,0,P|417:63|421:98,1,71.9999978027344,2|0,0:0|0:0,0:0:0:0:
468,168,125383,6,0,L|455:315,1,143.999995605469,4|8,0:0|0:0,0:0:0:0:
367,343,125912,2,0,L|380:196,1,143.999995605469,8|0,0:0|0:0,0:0:0:0:
356,116,126442,1,2,0:0:0:0:
284,163,126618,1,0,0:0:0:0:
239,89,126795,6,0,P|198:69|132:67,1,107.999996704102,4|0,0:0|0:0,0:0:0:0:
115,73,127148,1,2,0:0:0:0:
45,135,127324,2,0,L|36:284,1,143.999995605469,8|0,0:0|0:0,0:0:0:0:
112,341,127854,2,0,L|118:268,1,71.9999978027344,2|0,0:0|0:0,0:0:0:0:
167,186,128207,6,0,P|208:171|271:177,1,107.999996704102,4|0,0:0|0:0,0:0:0:0:
291,187,128559,1,8,0:0:0:0:
316,282,128736,2,0,L|457:311,1,143.999995605469,8|0,0:0|0:0,0:0:0:0:
497,234,129265,1,2,0:0:0:0:
497,234,129442,1,0,0:0:0:0:
428,162,129618,6,0,P|426:95|431:2,1,160,4|2,0:0|0:0,0:0:0:0:
337,79,130148,2,0,P|331:161|322:241,1,160,8|0,0:0|0:0,0:0:0:0:
240,172,130677,2,0,P|236:131|233:90,1,80,2|0,0:0|0:0,0:0:0:0:
137,169,131030,6,0,P|128:252|127:331,1,160,4|8,0:0|0:0,0:0:0:0:
225,275,131559,2,0,P|287:264|361:322,1,160,8|0,0:0|0:0,0:0:0:0:
452,351,132089,1,2,0:0:0:0:
452,351,132265,1,0,0:0:0:0:
477,251,132442,6,0,P|475:196|462:126,1,120,4|0,0:0|0:0,0:0:0:0:
456,106,132795,1,2,0:0:0:0:
373,167,132971,2,0,P|326:180|239:121,1,160,8|0,0:0|0:0,0:0:0:0:
225,26,133501,1,2,0:0:0:0:
225,26,133677,1,0,0:0:0:0:
130,67,133854,6,0,P|121:120|129:194,1,120,2|0,0:0|0:0,0:0:0:0:
135,212,134207,1,8,0:0:0:0:
199,296,134383,2,0,L|361:283,1,160,8|0,0:0|0:0,0:0:0:0:
444,239,134912,1,2,0:0:0:0:
363,187,135089,1,0,0:0:0:0:
358,283,135265,6,0,P|358:327|361:367,2,80,4|0|2,0:0|0:0|0:0,0:0:0:0:
444,239,135795,2,0,P|447:147|444:74,1,160,8|0,0:0|0:0,0:0:0:0:
346,30,136324,2,0,P|348:72|352:112,1,80,2|0,0:0|0:0,0:0:0:0:
254,188,136677,6,0,P|255:143|260:107,2,80,4|0|2,0:0|0:0|0:0,0:0:0:0:
157,191,137207,2,0,P|155:277|159:355,1,160,8|0,0:0|0:0,0:0:0:0:
285,351,137736,2,0,P|291:311|294:264,1,80,2|0,0:0|0:0,0:0:0:0:
254,188,138089,5,4,0:0:0:0:
37,219,138442,1,4,0:0:0:0:
137,44,138795,2,0,P|177:31|214:41,2,80,4|0|2,0:0|0:0|0:0,0:0:0:0:
67,100,139324,5,4,0:0:0:0:
287,320,139677,1,4,0:0:0:0:
374,353,139854,1,2,0:0:0:0:
381,261,140030,1,0,0:0:0:0:
468,294,140207,1,4,0:0:0:0:
130,359,140912,6,0,P|75:312|82:229,1,160,4|2,0:0|0:0,0:0:0:0:
151,161,141442,1,0,0:0:0:0:
151,161,141530,1,0,0:0:0:0:
151,161,141618,2,0,P|164:114|163:83,1,80,2|0,0:0|0:0,0:0:0:0:
375,196,142148,6,0,P|373:255|347:357,1,160,4|0,0:0|0:0,0:0:0:0:
276,269,142677,2,0,P|272:226|246:153,1,120
221,158,143030,2,0,P|210:207|196:240,1,80,2|0,0:0|0:0,0:0:0:0:
107,293,143383,2,0,P|93:244|90:208,1,80,2|0,0:0|0:0,0:0:0:0:
151,105,143736,6,0,P|193:72|288:101,1,160,4|2,0:0|0:0,0:0:0:0:
347,177,144265,2,0,P|416:210|483:172,1,160,4|0,0:0|0:0,0:0:0:0:
504,78,144795,1,2,0:0:0:0:
421,30,144971,2,0,P|334:39|261:58,1,160,4|0,0:0|0:0,0:0:0:0:
173,90,145501,1,2,0:0:0:0:
385,338,145854,1,2,0:0:0:0:
385,338,146030,1,0,0:0:0:0:
348,249,146207,2,0,P|341:207|351:168,1,80,2|0,0:0|0:0,0:0:0:0:
461,192,146559,6,0,L|476:354,1,160,4|0,0:0|0:0,0:0:0:0:
385,338,147089,1,0,0:0:0:0:
298,298,147265,2,0,P|257:287|216:297,1,80,2|0,0:0|0:0,0:0:0:0:
133,333,147618,1,2,0:0:0:0:
58,273,147795,5,0,0:0:0:0:
58,273,147883,1,0,0:0:0:0:
58,273,147971,2,0,P|45:208|41:109,1,160,4|0,0:0|0:0,0:0:0:0:
60,21,148501,1,0,0:0:0:0:
134,82,148677,2,0,P|176:83|213:71,1,80,2|0,0:0|0:0,0:0:0:0:
289,14,149030,1,2,0:0:0:0:
351,88,149207,1,0,0:0:0:0:
405,167,149383,6,0,P|415:245|423:328,1,160,4|0,0:0|0:0,0:0:0:0:
319,267,149912,2,0,P|244:245|184:293,1,160,4|0,0:0|0:0,0:0:0:0:
267,344,150442,1,2,0:0:0:0:
184,293,150618,6,0,P|110:286|22:281,1,160,4|0,0:0|0:0,0:0:0:0:
240,214,151148,2,0,P|201:209|159:205,1,80,2|0,0:0|0:0,0:0:0:0:
310,137,151501,2,0,P|271:132|229:128,1,80,2|0,0:0|0:0,0:0:0:0:
375,73,151854,2,0,P|387:46|390:33,2,40,2|0|0,0:0|0:0|0:0,0:0:0:0:
287,38,152207,6,0,P|192:36|124:36,1,160,4|2,0:0|0:0,0:0:0:0:
64,115,152736,1,0,0:0:0:0:
64,115,152824,1,0,0:0:0:0:
64,115,152912,2,0,P|100:118|147:119,1,80,2|0,0:0|0:0,0:0:0:0:
463,52,153442,6,0,P|463:132|459:212,1,160,4|0,0:0|0:0,0:0:0:0:
360,292,153971,2,0,P|359:248|362:210,1,80,2|0,0:0|0:0,0:0:0:0:
366,116,154324,1,2,0:0:0:0:
151,53,154677,1,2,0:0:0:0:
22,259,155030,6,0,P|60:293|165:280,1,160,4|2,0:0|0:0,0:0:0:0:
226,210,155559,2,0,P|301:190|366:233,1,160,4|0,0:0|0:0,0:0:0:0:
401,324,156089,1,2,0:0:0:0:
467,255,156265,2,0,P|488:151|497:96,1,160,4|0,0:0|0:0,0:0:0:0:
467,6,156795,1,2,0:0:0:0:
228,104,157148,2,0,P|187:109|146:105,2,80,2|0|2,0:0|0:0|0:0,0:0:0:0:
319,73,157677,1,0,0:0:0:0:
295,174,157854,6,0,P|296:246|296:334,1,160,4|2,0:0|0:0,0:0:0:0:
211,273,158383,2,0,P|152:245|70:281,1,160,4|0,0:0|0:0,0:0:0:0:
25,366,158912,1,4,0:0:0:0:
65,157,159265,5,4,0:0:0:0:
48,71,159442,1,0,0:0:0:0:
48,71,159530,1,0,0:0:0:0:
48,71,159618,1,2,0:0:0:0:
139,103,159795,2,0,P|161:158|108:234,1,160,4|0,0:0|0:0,0:0:0:0:
24,282,160324,2,0,P|19:328|17:364,1,80,2|0,0:0|0:0,0:0:0:0:
124,344,160677,5,4,0:0:0:0:
124,344,160854,1,0,0:0:0:0:
197,265,161030,1,2,0:0:0:0:
197,265,161207,1,0,0:0:0:0:
140,180,161383,1,2,0:0:0:0:
140,180,161559,1,0,0:0:0:0:
227,114,161736,1,2,0:0:0:0:
227,114,161912,1,0,0:0:0:0:
293,200,162089,6,0,P|330:211|371:203,1,80,2|0,0:0|0:0,0:0:0:0:
461,144,162442,1,2,0:0:0:0:
443,38,162618,1,0,0:0:0:0:
461,144,162795,1,2,0:0:0:0:
304,350,163501,6,0,P|273:359|240:354,2,60.0000022888184,2|0|2,0:0|0:0|0:0,0:0:0:0:
279,257,164030,2,0,P|267:208|282:142,1,120.000004577637
334,60,164559,1,2,0:0:0:0:
239,45,164736,1,0,0:0:0:0:
145,28,164912,2,0,L|85:20,1,60.0000022888184,2|0,0:0|0:0,0:0:0:0:
23,86,165265,1,2,0:0:0:0:
239,45,165618,1,2,0:0:0:0:
256,192,166324,12,0,169148,0:0:0:0:
464,231,169501,6,0,P|472:158|472:86,1,143.999995605469,4|2,0:0|0:0,0:0:0:0:
402,20,170030,1,0,0:0:0:0:
402,20,170118,1,0,0:0:0:0:
402,20,170207,1,2,0:0:0:0:
341,95,170383,1,0,0:0:0:0:
268,31,170559,6,0,P|228:27|191:27,1,71.9999978027344,4|0,0:0|0:0,0:0:0:0:
101,47,170912,1,2,0:0:0:0:
171,115,171089,2,0,P|176:205|174:262,1,143.999995605469,8|0,0:0|0:0,0:0:0:0:
252,353,171618,2,0,P|253:313|255:281,1,71.9999978027344,8|0,0:0|0:0,0:0:0:0:
325,175,171971,6,0,P|374:155|454:197,1,143.999995605469,4|2,0:0|0:0,0:0:0:0:
483,286,172501,1,0,0:0:0:0:
420,360,172677,2,0,L|270:366,1,143.999995605469,8|0,0:0|0:0,0:0:0:0:
191,317,173207,2,0,L|41:323,1,143.999995605469,8|0,0:0|0:0,0:0:0:0:
5,235,173736,2,0,L|77:231,1,71.9999978027344,2|8,0:0|0:0,0:0:0:0:
165,189,174089,5,2,0:0:0:0:
196,86,174265,1,0,0:0:0:0:
177,208,174442,2,0,L|179:270,1,60.0000022888184,2|0,0:0|0:0,0:0:0:0:
263,190,174795,2,0,L|262:151,1,40,2|0,0:0|0:0,0:0:0:0:
319,283,175148,6,0,P|385:305|448:266,1,143.999995605469,4|2,0:0|0:0,0:0:0:0:
470,175,175677,1,0,0:0:0:0:
404,103,175854,2,0,L|394:29,1,71.9999978027344,2|0,0:0|0:0,0:0:0:0:
470,175,176207,2,0,P|468:237|455:324,1,143.999995605469,8|0,0:0|0:0,0:0:0:0:
319,355,176736,2,0,P|308:293|302:206,1,143.999995605469,8|0,0:0|0:0,0:0:0:0:
306,115,177265,1,2,0:0:0:0:
173,333,177618,6,0,P|123:351|48:310,1,143.999995605469,4|2,0:0|0:0,0:0:0:0:
15,222,178148,1,0,0:0:0:0:
15,222,178236,1,0,0:0:0:0:
15,222,178324,2,0,P|9:166|31:120,1,107.999996704102,2|0,0:0|0:0,0:0:0:0:
56,94,178677,2,0,P|108:73|158:83,1,107.999996704102,2|0,0:0|0:0,0:0:0:0:
189,102,179030,6,0,P|235:165|231:232,1,143.999995605469,4|0,0:0|0:0,0:0:0:0:
193,318,179559,1,0,0:0:0:0:
193,318,179648,1,0,0:0:0:0:
193,318,179736,2,0,P|228:342|294:336,1,107.999996704102,2|0,0:0|0:0,0:0:0:0:
322,318,180089,2,0,P|348:285|348:218,1,107.999996704102,2|0,0:0|0:0,0:0:0:0:
333,190,180442,6,0,P|309:120|349:64,1,143.999995605469,4|2,0:0|0:0,0:0:0:0:
441,42,180971,1,0,0:0:0:0:
492,125,181148,2,0,L|487:199,1,71.9999978027344,2|0,0:0|0:0,0:0:0:0:
478,294,181501,1,2,0:0:0:0:
390,252,181677,1,0,0:0:0:0:
398,349,181854,5,2,0:0:0:0:
284,331,182207,1,0,0:0:0:0:
172,308,182559,1,0,0:0:0:0:
60,280,182912,1,0,0:0:0:0:
24,171,183265,6,0,L|21:98,1,71.9999978027344,4|0,0:0|0:0,0:0:0:0:
77,19,183618,1,2,0:0:0:0:
135,97,183795,2,0,P|203:116|263:78,1,143.999995605469,8|0,0:0|0:0,0:0:0:0:
340,21,184324,1,8,0:0:0:0:
386,107,184501,5,0,0:0:0:0:
386,107,184589,2,0,L|390:217,1,107.999996704102,2|2,0:0|0:0,0:0:0:0:
471,269,185030,2,0,L|465:343,1,71.9999978027344,2|0,0:0|0:0,0:0:0:0:
376,380,185383,1,2,0:0:0:0:
144,248,185736,2,0,P|136:209|140:177,1,71.9999978027344,2|0,0:0|0:0,0:0:0:0:
181,89,186089,5,4,0:0:0:0:
270,51,186265,1,0,0:0:0:0:
255,147,186442,2,0,L|259:185,2,35.9999989013672,2|0|8,0:0|0:0|0:0,0:0:0:0:
270,51,186795,1,2,0:0:0:0:
181,89,186971,1,0,0:0:0:0:
255,147,187148,2,0,L|326:144,1,71.9999978027344,8|0,0:0|0:0,0:0:0:0:
332,241,187501,5,2,0:0:0:0:
332,241,187677,2,0,L|476:235,1,143.999995605469,2|0,0:0|0:0,0:0:0:0:
389,326,188207,2,0,L|460:323,2,71.9999978027344,2|0|2,0:0|0:0|0:0,0:0:0:0:
291,330,188736,1,0,0:0:0:0:
226,249,188912,6,0,P|168:221|96:249,1,143.999995605469,4|2,0:0|0:0,0:0:0:0:
40,329,189442,1,8,0:0:0:0:
40,329,189530,1,0,0:0:0:0:
40,329,189618,1,2,0:0:0:0:
10,236,189795,2,0,L|15:162,1,71.9999978027344,0|8,0:0|0:0,0:0:0:0:
24,67,190148,1,0,0:0:0:0:
106,125,190324,6,0,P|152:134|250:128,1,143.999995605469,4|2,0:0|0:0,0:0:0:0:
337,87,190854,1,8,0:0:0:0:
400,161,191030,2,0,L|387:237,1,71.9999978027344,2|0,0:0|0:0,0:0:0:0:
318,300,191383,1,8,0:0:0:0:
318,300,191559,1,0,0:0:0:0:
234,232,191736,6,0,P|198:220|163:224,1,71.9999978027344,4|0,0:0|0:0,0:0:0:0:
74,268,192089,1,2,0:0:0:0:
74,268,192177,2,0,P|47:217|28:164,1,107.999996704102,0|2,0:0|0:0,0:0:0:0:
235,30,192795,1,2,0:0:0:0:
259,124,192971,1,0,0:0:0:0:
333,61,193148,6,0,P|372:53|404:58,1,71.9999978027344,2|0,0:0|0:0,0:0:0:0:
488,125,193501,1,2,0:0:0:0:
488,125,193589,1,0,0:0:0:0:
488,125,193677,2,0,P|494:200|499:271,1,143.999995605469,2|2,0:0|0:0,0:0:0:0:
410,346,194207,2,0,L|408:268,1,71.9999978027344
319,334,194559,6,0,P|274:358|190:325,1,143.999995605469,4|2,0:0|0:0,0:0:0:0:
225,235,195089,2,0,P|232:160|226:91,1,143.999995605469,8|0,0:0|0:0,0:0:0:0:
162,18,195618,1,8,0:0:0:0:
114,103,195795,5,2,0:0:0:0:
350,40,196148,1,2,0:0:0:0:
126,187,196501,1,2,0:0:0:0:
363,125,196854,1,2,0:0:0:0:
363,125,197030,2,0,L|437:116,1,71.9999978027344,2|0,0:0|0:0,0:0:0:0:
400,215,197383,6,0,L|256:229,1,143.999995605469,4|2,0:0|0:0,0:0:0:0:
190,300,197912,1,8,0:0:0:0:
109,246,198089,2,0,P|101:212|105:173,1,71.9999978027344,2|0,0:0|0:0,0:0:0:0:
167,101,198442,2,8,P|170:65|162:30,1,71.9999978027344,2|0,0:0|0:0,0:0:0:0:
67,11,198795,5,2,0:0:0:0:
266,320,209912,6,0,L|425:331,1,160,4|0,0:0|0:0,0:0:0:0:
485,255,210442,1,2,0:0:0:0:
423,182,210618,1,0,0:0:0:0:
477,102,210795,2,0,P|485:60|477:24,2,80,2|0|0,0:0|0:0|0:0,0:0:0:0:
303,239,211501,5,4,0:0:0:0:
170,58,211854,6,0,P|104:25|31:60,1,160,2|2,0:0|0:0,0:0:0:0:
6,165,212383,1,0,0:0:0:0:
277,53,212736,2,0,L|437:42,1,160,4|0,0:0|0:0,0:0:0:0:
389,132,213265,2,0,L|469:126,1,80,2|0,0:0|0:0,0:0:0:0:
321,197,213618,2,0,P|292:268|326:342,1,160,2|2,0:0|0:0,0:0:0:0:
418,365,214148,1,0,0:0:0:0:
488,300,214324,6,0,P|495:230|496:140,1,160,4|2,0:0|0:0,0:0:0:0:
432,55,214854,2,0,P|372:24|291:60,1,160,4|0,0:0|0:0,0:0:0:0:
240,140,215383,1,2,0:0:0:0:
184,218,215559,2,0,P|119:247|46:203,1,160,4|0,0:0|0:0,0:0:0:0:
17,113,216089,1,2,0:0:0:0:
56,30,216265,1,0,0:0:0:0:
56,30,216354,1,0,0:0:0:0:
56,30,216442,2,0,L|136:24,1,80,2|0,0:0|0:0,0:0:0:0:
185,107,216795,2,0,L|265:101,1,80,2|0,0:0|0:0,0:0:0:0:
302,190,217148,6,0,L|462:178,1,160,4|2,0:0|0:0,0:0:0:0:
502,265,217677,1,0,0:0:0:0:
441,340,217854,2,0,P|405:355|363:348,1,80,2|0,0:0|0:0,0:0:0:0:
281,303,218207,2,0,P|241:297|205:312,1,80,2|0,0:0|0:0,0:0:0:0:
125,364,218559,6,0,P|37:347|14:289,1,160,4|2,0:0|0:0,0:0:0:0:
48,198,219089,1,0,0:0:0:0:
132,152,219265,2,0,P|141:113|134:72,1,80,2|0,0:0|0:0,0:0:0:0:
54,22,219618,1,2,0:0:0:0:
54,22,219795,1,0,0:0:0:0:
17,110,219971,6,0,P|17:210|19:273,1,160,4|2,0:0|0:0,0:0:0:0:
156,346,220501,2,0,P|156:246|154:183,1,160,4|0,0:0|0:0,0:0:0:0:
152,90,221030,1,2,0:0:0:0:
232,36,221207,6,0,P|297:16|362:71,1,160,4|0,0:0|0:0,0:0:0:0:
323,172,221736,2,0,P|318:217|336:251,1,80,2|0,0:0|0:0,0:0:0:0:
440,230,222089,2,0,P|445:185|427:151,1,80,2|0,0:0|0:0,0:0:0:0:
362,71,222442,2,0,L|366:32,2,40,2|0|0,0:0|0:0|0:0,0:0:0:0:
323,172,222795,6,0,P|244:195|164:211,1,160,4|2,0:0|0:0,0:0:0:0:
84,187,223324,1,0,0:0:0:0:
84,187,223412,1,0,0:0:0:0:
84,187,223501,2,0,P|80:146|71:108,2,80,2|0|2,0:0|0:0|0:0,0:0:0:0:
168,126,224030,2,0,P|246:110|323:87,1,160,4|0,0:0|0:0,0:0:0:0:
392,155,224559,6,0,P|402:205|399:274,1,120,2|0,0:0|0:0,0:0:0:0:
365,288,224912,2,0,P|363:331|368:369,1,80,2|0,0:0|0:0,0:0:0:0:
476,312,225265,2,0,P|485:270|487:231,1,80,2|0,0:0|0:0,0:0:0:0:
473,124,225618,6,2,P|426:71|343:82,1,160,6|2,0:0|0:0,0:0:0:0:
270,156,226148,2,0,P|191:173|112:176,1,160,4|0,0:0|0:0,0:0:0:0:
30,126,226677,1,2,0:0:0:0:
26,222,226854,1,4,0:0:0:0:
265,353,227207,1,0,0:0:0:0:
330,283,227383,1,2,0:0:0:0:
244,271,227559,5,0,0:0:0:0:
244,271,227648,1,0,0:0:0:0:
244,271,227736,2,0,L|232:188,1,80,2|0,0:0|0:0,0:0:0:0:
144,155,228089,2,0,L|132:72,1,80,2|0,0:0|0:0,0:0:0:0:
245,22,228442,6,0,P|334:31|406:44,1,160,4|2,0:0|0:0,0:0:0:0:
471,174,228971,2,0,P|382:165|310:152,1,160,4|0,0:0|0:0,0:0:0:0:
215,126,229501,1,2,0:0:0:0:
142,193,229677,5,0,0:0:0:0:
142,193,229765,1,0,0:0:0:0:
142,193,229854,2,0,P|133:243|132:273,1,80,4|0,0:0|0:0,0:0:0:0:
161,364,230207,1,2,0:0:0:0:
224,292,230383,2,0,P|280:263|366:297,1,160,4|0,0:0|0:0,0:0:0:0:
453,337,230912,2,0,P|465:295|466:251,1,80,2|0,0:0|0:0,0:0:0:0:
460,163,231265,5,4,0:0:0:0:
460,163,231442,1,0,0:0:0:0:
412,62,231618,1,2,0:0:0:0:
412,62,231795,1,0,0:0:0:0:
336,144,231971,1,2,0:0:0:0:
336,144,232148,1,0,0:0:0:0:
285,45,232324,1,2,0:0:0:0:
285,45,232501,1,0,0:0:0:0:
195,111,232677,6,0,L|177:188,1,80,2|0,0:0|0:0,0:0:0:0:
145,297,233030,1,2,0:0:0:0:
68,215,233207,1,0,0:0:0:0:
176,188,233383,1,2,0:0:0:0:
365,42,234089,6,0,P|397:35|424:39,2,60.0000022888184,2|0|2,0:0|0:0|0:0,0:0:0:0:
283,92,234618,2,0,P|225:103|163:86,1,120.000004577637
81,43,235148,1,2,0:0:0:0:
46,132,235324,1,0,0:0:0:0:
95,215,235501,2,0,P|101:250|96:279,1,60.0000022888184,2|0,0:0|0:0,0:0:0:0:
44,354,235854,1,2,0:0:0:0:
46,132,236207,1,2,0:0:0:0:
