osu file format v14

[General]
AudioFilename: jh.mp3
AudioLeadIn: 0
PreviewTime: 59030
Countdown: 0
SampleSet: Normal
StackLeniency: 0.7
Mode: 0
LetterboxInBreaks: 0
WidescreenStoryboard: 0

[Editor]
Bookmarks: 13854,25148,36442,47736,59030,81618,84442,95736,107030,118324,129618,140912,163501,169148,183265,200207,211501,236912,259324
DistanceSpacing: 1
BeatDivisor: 2
GridSize: 4
TimelineZoom: 1.5

[Metadata]
Title:Sharekoube
TitleUnicode:髑髏
Artist:Buta-Otome
ArtistUnicode:豚乙女
Creator:Damnae
Version:Insane
Source:
Tags:コンプ comp ランコ ranko skull ボウリング 豚乙女 歌うアコースティック evilelvis ryuu kite fergas
BeatmapID:683086
BeatmapSetID:304940

[Difficulty]
HPDrainRate:6
CircleSize:4
OverallDifficulty:7.5
ApproachRate:9
SliderMultiplier:1.6
SliderTickRate:1

[Events]
//Background and Video events
0,0,"113230.png",0,0
//Break Periods
2,81618,83842
2,163348,165724
//Storyboard Layer 0 (Background)
//Storyboard Layer 1 (Fail)
//Storyboard Layer 2 (Pass)
//Storyboard Layer 3 (Foreground)
//Storyboard Sound Samples

[TimingPoints]
2560,352.941176470588,4,1,2,30,1,0
2824,-100,4,1,2,15,0,0
2912,-100,4,1,2,30,0,0
3442,-100,4,1,2,20,0,0
3971,-100,4,1,2,30,0,0
4236,-100,4,1,2,15,0,0
4324,-100,4,1,2,30,0,0
4854,-100,4,1,2,20,0,0
5383,-100,4,1,2,30,0,0
5648,-100,4,1,2,15,0,0
5736,-100,4,1,2,30,0,0
6265,-100,4,1,2,20,0,0
6442,-100,4,1,2,30,0,0
6618,-100,4,1,2,20,0,0
6971,-100,4,1,2,30,0,0
8471,-100,4,1,2,15,0,0
8559,-100,4,1,2,30,0,0
9089,-100,4,1,2,20,0,0
9618,-100,4,1,2,30,0,0
9883,-100,4,1,2,15,0,0
9971,-100,4,1,2,30,0,0
10501,-100,4,1,2,20,0,0
11030,-100,4,1,2,30,0,0
11295,-100,4,1,2,15,0,0
11383,-100,4,1,2,30,0,0
11912,-100,4,1,2,20,0,0
12442,-100,4,1,1,30,0,0
13501,-100,4,1,2,5,0,0
13854,-100,4,1,2,30,0,0
14118,-100,4,1,2,15,0,0
14207,-100,4,1,2,30,0,0
15530,-100,4,1,2,15,0,0
15618,-100,4,1,2,30,0,0
16942,-100,4,1,2,15,0,0
17030,-100,4,1,2,30,0,0
18795,-100,4,1,2,25,0,0
18971,-100,4,1,1,30,0,0
19501,-100,4,1,2,30,0,0
19765,-100,4,1,2,15,0,0
19854,-100,4,1,2,30,0,0
21177,-100,4,1,2,15,0,0
21265,-100,4,1,2,30,0,0
22589,-100,4,1,2,15,0,0
22677,-100,4,1,2,30,0,0
24001,-100,4,1,2,15,0,0
24089,-100,4,1,2,30,0,0
24618,-100,4,1,2,20,0,0
25148,-100,4,1,2,30,0,0
30442,-100,4,1,2,10,0,0
30795,-100,4,1,2,30,0,0
35295,-100,4,1,2,15,0,0
35383,-100,4,1,2,30,0,0
36442,-100,4,1,2,35,0,0
47736,-100,4,1,2,40,0,0
59030,-100,4,1,2,50,0,1
70148,-100,4,1,2,30,0,0
70324,-100,4,1,2,50,0,1
81089,-100,4,1,2,30,0,1
81265,-100,4,1,2,30,0,1
81618,-100,4,1,2,30,0,0
84707,-100,4,1,2,15,0,0
84795,-100,4,1,2,30,0,0
85324,-100,4,1,2,20,0,0
85854,-100,4,1,2,30,0,0
86118,-100,4,1,2,15,0,0
86207,-100,4,1,2,30,0,0
86736,-100,4,1,2,20,0,0
87265,-100,4,1,2,30,0,0
87530,-100,4,1,2,15,0,0
87618,-100,4,1,2,30,0,0
88148,-100,4,1,2,20,0,0
88324,-100,4,1,2,30,0,0
88501,-100,4,1,2,20,0,0
88854,-100,4,1,2,30,0,0
90354,-100,4,1,2,15,0,0
90442,-100,4,1,2,30,0,0
90971,-100,4,1,2,20,0,0
91501,-100,4,1,2,30,0,0
91765,-100,4,1,2,15,0,0
91854,-100,4,1,2,30,0,0
92383,-100,4,1,2,20,0,0
92912,-100,4,1,2,30,0,0
93177,-100,4,1,2,15,0,0
93265,-100,4,1,2,30,0,0
93795,-100,4,1,2,20,0,0
93971,-100,4,1,2,30,0,0
94148,-100,4,1,2,20,0,0
94324,-100,4,1,1,10,0,0
95383,-100,4,1,2,10,0,0
95736,-100,4,1,2,30,0,0
96001,-100,4,1,2,15,0,0
96089,-100,4,1,2,30,0,0
97412,-100,4,1,2,15,0,0
97501,-100,4,1,2,30,0,0
98824,-100,4,1,2,15,0,0
98912,-100,4,1,2,30,0,0
100677,-100,4,1,2,25,0,0
100854,-100,4,1,1,30,0,0
101383,-100,4,1,2,30,0,0
101648,-100,4,1,2,15,0,0
101736,-100,4,1,2,30,0,0
103059,-100,4,1,2,15,0,0
103148,-100,4,1,2,30,0,0
104471,-100,4,1,2,15,0,0
104559,-100,4,1,2,30,0,0
105883,-100,4,1,2,15,0,0
105971,-100,4,1,2,30,0,0
112324,-100,4,1,2,10,0,0
112677,-100,4,1,2,30,0,0
117177,-100,4,1,2,15,0,0
117265,-100,4,1,2,30,0,0
118324,-100,4,1,2,35,0,0
129618,-100,4,1,2,40,0,0
140912,-100,4,1,2,50,0,1
152030,-100,4,1,2,30,0,0
152207,-100,4,1,2,50,0,1
163501,-100,4,1,2,30,0,0
166324,-133.333333333333,4,2,2,30,0,0
169148,-133.333333333333,4,2,2,10,0,0
169501,-133.333333333333,4,2,2,30,0,0
198971,-133.333333333333,4,2,2,15,0,0
200207,-200,4,2,2,30,0,0
201442,-200,4,2,2,15,0,0
201618,-200,4,2,2,30,0,0
202854,-200,4,2,2,15,0,0
203030,-200,4,2,2,30,0,0
204265,-200,4,2,2,15,0,0
204442,-200,4,2,2,30,0,0
205677,-200,4,2,2,15,0,0
205854,-200,4,2,2,30,0,0
208677,-151.515151515152,4,2,2,30,0,0
209207,-120.481927710843,4,2,2,30,0,0
209912,-100,4,1,2,30,0,0
211501,-200,4,1,2,50,0,1
211765,-200,4,1,2,20,0,1
211854,-100,4,1,2,50,0,1
222618,-100,4,1,2,30,0,0
222795,-100,4,1,2,50,0,1
234089,-133.333333333333,4,2,2,30,0,0
236912,-100,4,2,2,50,0,0
246795,-100,4,2,2,60,0,0
252618,-100,4,2,2,50,0,0
253854,-100,4,2,2,60,0,0
258089,-100,4,2,2,70,0,0

[Colours]
Combo1 : 255,94,55
Combo2 : 173,255,95
Combo3 : 17,254,176
Combo4 : 255,88,100

[HitObjects]
253,66,2560,6,0,P|181:68|101:62,1,120,0|0,0:2|0:0,0:0:0:0:
133,65,2912,1,0,0:0:0:0:
43,155,3089,2,0,P|117:170|147:241,1,160,2|0,0:2|0:0,0:0:0:0:
138,329,3618,2,0,P|98:330|58:329,1,80
258,226,3971,6,0,P|330:224|410:230,1,120,0|0,0:2|0:0,0:0:0:0:
378,226,4324,1,0,0:0:0:0:
352,335,4501,2,0,P|277:353|219:302,1,160,2|0,0:2|0:0,0:0:0:0:
271,212,5030,1,0,0:0:0:0:
188,137,5207,1,0,0:0:0:0:
256,58,5383,6,0,P|328:60|408:54,1,120,0|0,0:2|0:0,0:0:0:0:
375,57,5736,1,0,0:0:0:0:
265,146,5912,2,0,P|322:197|397:178,1,160,2|0,0:2|0:0,0:0:0:0:
128,31,6442,1,0,0:0:0:0:
128,31,6618,1,0,0:0:0:0:
220,38,6971,6,0,L|209:126,1,80,4|0,0:2|2:0,0:0:0:0:
50,98,7324,2,0,L|61:186,1,80,4|0,0:2|2:0,0:0:0:0:
167,240,7677,1,4,0:2:0:0:
292,197,7854,1,4,0:2:0:0:
421,161,8030,1,4,0:2:0:0:
421,161,8207,6,0,P|419:233|425:313,1,120,0|0,0:2|0:0,0:0:0:0:
421,280,8559,1,0,0:0:0:0:
300,347,8736,2,0,P|319:273|268:215,1,160,2|0,0:2|0:0,0:0:0:0:
102,234,9265,2,0,P|142:234|182:235,1,80,0|0,0:0|1:0,0:0:0:0:
229,26,9618,6,0,P|157:28|77:22,1,120,0|0,0:2|0:0,0:0:0:0:
109,25,9970,1,0,0:0:0:0:
57,97,10148,2,0,P|114:148|189:129,1,160,2|0,0:2|0:0,0:0:0:0:
432,82,10677,2,0,L|432:121|432:161,1,80,0|0,0:0|1:0,0:0:0:0:
314,226,11030,6,0,P|316:154|310:74,1,120,0|0,0:2|0:0,0:0:0:0:
313,106,11382,1,0,0:0:0:0:
438,89,11559,2,0,P|456:164|405:222,1,160,2|0,0:2|0:0,0:0:0:0:
190,254,12089,1,0,0:0:0:0:
176,152,12265,1,0,0:0:0:0:
176,152,12442,5,4,2:3:0:0:
256,192,12530,12,0,13501,2:0:0:0:
322,52,13854,6,0,P|338:155|342:199,1,120
339,170,14207,1,0,0:0:0:0:
416,100,14383,2,0,P|473:150|468:238,1,160,2|0,3:2|0:0,0:0:0:0:
382,282,14912,1,0,0:0:0:0:
282,250,15089,1,0,0:0:0:0:
180,268,15265,6,0,P|164:165|160:121,1,120
163,149,15618,1,0,0:0:0:0:
234,72,15795,1,2,3:2:0:0:
330,110,15971,2,0,P|331:187|273:239,1,160
171,215,16501,1,0,0:0:0:0:
71,186,16677,6,0,P|87:83|91:39,1,120
88,67,17030,1,0,0:0:0:0:
187,129,17207,2,0,P|168:251|163:303,1,160,2|0,3:2|0:0,0:0:0:0:
265,313,17736,2,0,P|289:270|286:231,1,80
79,125,18089,6,0,P|55:168|58:207,1,80,2|0,0:2|2:0,0:0:0:0:
338,162,18442,2,0,P|335:122|314:89,1,80,2|0,0:2|2:0,0:0:0:0:
227,30,18795,1,0,0:2:0:0:
224,227,18971,1,8,0:3:0:0:
19,257,19148,1,4,3:3:0:0:
19,257,19501,6,0,P|122:241|166:237,1,120
137,240,19854,1,0,0:0:0:0:
196,106,20030,2,0,P|118:105|67:163,1,160,2|0,3:2|0:0,0:0:0:0:
121,318,20559,1,0,0:0:0:0:
262,273,20736,1,0,0:0:0:0:
167,209,20912,6,0,P|151:106|147:62,1,120
150,90,21265,1,0,0:0:0:0:
275,67,21442,1,2,3:2:0:0:
395,47,21618,2,0,P|452:98|451:176,1,160
278,284,22148,1,0,0:0:0:0:
249,151,22324,6,0,P|233:48|229:4,1,120
232,32,22677,1,0,0:0:0:0:
142,226,22854,1,0,0:0:0:0:
41,38,23030,2,0,P|31:99|29:125,1,80,0|0,0:0|2:0,0:0:0:0:
29,117,23295,1,2,3:2:0:0:
29,117,23383,2,0,P|37:156|41:196,1,80
296,202,23736,6,0,P|236:209|177:219,1,120,0|2,0:0|2:2,0:0:0:0:
177,219,24089,1,0,0:0:0:0:
247,64,24265,1,2,0:2:0:0:
247,64,24618,5,8,0:1:0:0:
257,167,24795,1,8,0:1:0:0:
265,270,24971,1,8,1:1:0:0:
265,270,25059,1,8,1:1:0:0:
265,270,25148,2,0,P|320:266|433:245,1,160,4|0,0:0|0:0,0:0:0:0:
191,315,25677,2,0,P|112:299|32:292,1,160,2|0,0:2|0:0,0:0:0:0:
100,204,26207,1,8,2:1:0:0:
124,107,26383,1,8,1:1:0:0:
124,107,26471,1,0,1:1:0:0:
124,107,26559,6,0,P|182:142|207:214,1,120,0|0,0:2|0:0,0:0:0:0:
204,187,26912,2,0,P|196:224|183:300,1,80,8|2,2:1|0:2,0:0:0:0:
324,175,27265,2,0,P|339:210|373:278,1,80,0|2,0:2|2:2,0:0:0:0:
414,94,27618,2,0,P|447:113|514:148,1,80,2|0,0:2|0:0,0:0:0:0:
483,133,27883,1,2,0:2:0:0:
483,133,27971,6,0,P|404:148|324:155,1,160
94,209,28501,2,0,P|174:216|253:232,1,160,2|0,0:2|0:0,0:0:0:0:
147,50,29030,2,0,P|155:89|162:128,1,80
208,344,29383,5,0,0:2:0:0:
366,209,29736,1,0,0:2:0:0:
238,44,30089,2,0,P|230:83|223:123,1,80,0|0,0:2|2:0,0:0:0:0:
149,59,30442,1,0,1:0:0:0:
88,322,30795,6,0,P|143:326|256:347,1,160,0|0,0:2|0:0,0:0:0:0:
195,209,31324,2,0,P|116:224|36:231,1,160,2|0,0:2|0:0,0:0:0:0:
89,140,31854,1,8,2:1:0:0:
222,310,32030,1,8,0:0:0:0:
222,310,32118,1,0,0:0:0:0:
222,310,32207,6,0,P|280:275|305:203,1,120,2|0,0:2|0:0,0:0:0:0:
302,229,32559,2,0,P|294:191|281:116,1,80,2|2,0:2|1:2,0:0:0:0:
186,146,32912,2,0,P|169:182|153:219,1,80,0|2,0:0|2:0,0:0:0:0:
33,119,33265,2,0,P|66:99|133:64,1,80,2|0,0:2|0:0,0:0:0:0:
102,79,33530,1,2,0:2:0:0:
102,79,33618,6,0,P|117:157|124:237,1,160
110,341,34148,1,0,0:0:0:0:
241,125,34324,2,0,P|249:164|256:203,1,80,2|0,0:2|0:0,0:0:0:0:
245,307,34677,1,0,0:0:0:0:
417,246,34854,1,2,0:2:0:0:
245,307,35030,6,0,P|186:271|161:199,1,120
164,226,35383,1,0,0:0:0:0:
323,52,35559,2,0,P|307:130|300:210,1,160
420,210,36089,2,0,P|412:171|405:132,1,80
91,173,36442,6,0,P|99:212|107:252,1,80,4|0,0:2|0:0,0:0:0:0:
107,251,36707,1,0,0:0:0:0:
107,251,36795,1,0,0:0:0:0:
302,269,36971,2,0,P|226:253|195:183,1,160
487,193,37501,2,0,P|495:232|502:271,1,80
502,272,37766,1,0,0:0:0:0:
502,271,37854,6,0,P|428:286|370:304,1,120,4|0,0:2|0:0,0:0:0:0:
385,298,38207,1,0,0:0:0:0:
208,200,38383,2,0,P|129:217|46:229,1,160
31,126,38912,1,0,0:0:0:0:
133,106,39089,1,0,0:0:0:0:
250,31,39265,6,0,P|242:70|235:109,1,80,4|0,0:2|0:0,0:0:0:0:
235,109,39530,1,0,0:0:0:0:
235,109,39618,1,0,0:0:0:0:
450,122,39795,2,0,P|434:197|363:229,1,160
250,31,40324,2,0,P|289:22|328:15,1,80
328,14,40589,1,0,0:0:0:0:
328,14,40677,6,0,P|342:88|360:146,1,120,4|0,0:2|0:0,0:0:0:0:
354,130,41030,1,0,0:0:0:0:
180,164,41206,2,0,P|100:175|22:192,1,160
152,75,41735,1,0,0:0:0:0:
138,263,41912,1,0,0:0:0:0:
22,192,42089,6,0,P|13:152|6:113,1,80,4|0,0:2|0:0,0:0:0:0:
7,114,42354,1,0,0:0:0:0:
7,114,42442,1,0,0:0:0:0:
88,275,42618,2,0,P|173:216|167:150,1,160
390,174,43148,2,0,P|350:182|311:189,1,80
311,188,43413,1,0,0:0:0:0:
311,188,43501,6,0,P|296:113|278:55,1,120,4|0,0:2|0:0,0:0:0:0:
283,71,43854,1,0,0:0:0:0:
174,167,44030,2,0,P|189:242|260:274,1,160
460,179,44559,1,0,0:0:0:0:
348,163,44736,1,0,0:0:0:0:
377,270,44912,6,0,P|385:309|392:348,1,80,4|0,0:0|0:0,0:0:0:0:
392,348,45177,1,2,0:2:0:0:
392,348,45265,1,2,0:2:0:0:
266,164,45442,1,0,0:0:0:0:
135,270,45618,2,0,P|126:309|119:348,1,80,2|0,0:2|0:0,0:0:0:0:
245,248,45971,2,0,P|256:286|268:324,1,80,2|0,0:2|0:0,0:0:0:0:
102,173,46324,6,0,P|63:184|25:196,1,80,4|0,0:0|0:0,0:0:0:0:
25,196,46589,1,2,0:2:0:0:
25,196,46677,1,2,0:2:0:0:
99,280,46854,1,0,0:0:0:0:
207,304,47030,1,2,0:2:0:0:
316,279,47207,1,0,0:0:0:0:
402,208,47383,1,2,0:2:0:0:
447,105,47559,1,0,0:0:0:0:
447,105,47736,6,0,P|481:183|496:235,1,120,4|0,0:2|0:0,0:0:0:0:
491,216,48089,1,0,0:0:0:0:
366,208,48265,2,0,P|272:217|255:289,1,160,4|0,0:0|0:0,0:0:0:0:
208,151,48795,1,0,0:0:0:0:
298,84,48971,1,0,0:0:0:0:
298,84,49059,1,0,0:0:0:0:
298,84,49148,6,0,P|241:64|186:39,1,120,4|0,0:2|0:0,0:0:0:0:
186,39,49501,1,0,0:0:0:0:
21,152,49677,2,0,P|115:161|132:233,1,160,4|0,0:0|0:0,0:0:0:0:
136,233,50118,2,0,L|137:284,1,40,2|0,0:2|0:0,0:0:0:0:
229,154,50383,1,0,0:0:0:0:
245,256,50559,6,0,P|323:290|375:305,1,120,4|0,0:2|0:0,0:0:0:0:
356,300,50912,1,0,0:0:0:0:
340,98,51089,2,0,P|349:192|421:209,1,160,4|0,0:0|0:0,0:0:0:0:
465,129,51618,1,0,0:0:0:0:
422,307,51794,1,0,0:0:0:0:
422,307,51882,1,0,0:0:0:0:
422,307,51971,6,0,P|365:326|310:351,1,120,4|0,0:2|0:0,0:0:0:0:
310,350,52324,1,0,0:0:0:0:
182,142,52501,2,0,P|276:151|293:223,1,160,4|0,0:0|0:0,0:0:0:0:
301,223,52941,2,0,L|300:274,1,40,2|0,0:2|0:0,0:0:0:0:
174,316,53206,1,0,0:0:0:0:
70,307,53383,6,0,P|50:250|25:195,1,120,4|0,0:2|0:0,0:0:0:0:
25,195,53736,1,0,0:0:0:0:
80,50,53912,2,0,P|105:127|140:202,1,160,4|0,0:2|0:0,0:0:0:0:
192,288,54442,1,2,0:2:0:0:
217,77,54618,1,0,0:0:0:0:
217,77,54707,1,0,0:0:0:0:
217,77,54795,6,0,P|288:83|301:138,1,120,4|0,0:2|0:0,0:0:0:0:
303,121,55148,1,0,0:0:0:0:
113,201,55324,2,0,P|122:295|194:312,1,160,4|0,0:2|0:0,0:0:0:0:
379,275,55854,1,0,0:0:0:0:
339,69,56030,1,0,0:0:0:0:
181,162,56207,6,0,L|173:202,1,40,4|0,0:2|2:0,0:0:0:0:
330,275,56559,2,0,L|339:315,1,40,4|0,1:2|2:0,0:0:0:0:
339,123,56912,1,0,1:2:0:0:
173,201,57089,1,4,1:2:0:0:
124,47,57265,1,0,3:0:0:0:
327,55,57442,6,0,P|341:71|312:174,1,120,4|0,0:2|2:0,0:0:0:0:
304,184,57795,1,4,1:2:0:0:
100,144,57971,1,4,1:2:0:0:
248,28,58148,1,4,0:2:0:0:
452,131,58324,1,4,1:2:0:0:
452,131,59030,6,0,P|456:171|458:211,1,80,4|0,1:1|2:0,0:0:0:0:
221,193,59383,2,0,P|215:154|214:104,1,80,8|0,1:0|1:0,0:0:0:0:
214,113,59648,1,0,0:0:0:0:
214,113,59736,1,0,0:0:0:0:
37,227,59912,1,2,0:2:0:0:
108,303,60089,1,8,0:0:0:0:
202,261,60265,6,0,P|207:150|215:71,1,160
133,31,60795,2,0,P|95:34|44:38,1,80,8|0,1:0|1:0,0:0:0:0:
54,37,61060,1,0,0:0:0:0:
54,37,61148,1,0,0:0:0:0:
63,140,61324,1,2,0:3:0:0:
335,39,61501,2,0,P|330:99|328:159,1,120,8|0,1:1|2:0,0:0:0:0:
328,159,61854,6,0,P|285:157|239:152,1,80,0|0,1:0|2:0,0:0:0:0:
68,52,62207,1,8,0:0:0:0:
138,128,62383,2,0,P|135:207|128:287,1,160
128,287,62912,1,8,0:0:0:0:
296,219,63089,6,0,P|236:174|260:103,1,160
382,84,63618,1,8,0:0:0:0:
399,186,63795,1,0,0:0:0:0:
399,186,63883,1,8,0:0:0:0:
399,186,63971,1,0,0:0:0:0:
417,288,64148,1,0,0:0:0:0:
181,153,64324,1,8,0:0:0:0:
289,137,64501,1,0,0:0:0:0:
303,239,64677,6,0,P|300:282|296:377,1,120,0|0,1:0|2:0,0:0:0:0:
296,358,65030,1,8,1:0:0:0:
193,339,65207,1,0,1:0:0:0:
81,316,65383,1,0,1:0:0:0:
236,208,65559,1,2,0:2:0:0:
20,112,65736,1,8,0:0:0:0:
141,100,65912,1,0,0:0:0:0:
141,100,66001,1,0,0:0:0:0:
141,100,66089,6,0,P|138:143|134:238,1,120,0|0,1:0|2:0,0:0:0:0:
134,219,66442,1,8,1:0:0:0:
282,186,66618,1,0,0:0:0:0:
248,28,66795,2,0,P|239:73|255:117,1,80,0|2,1:0|2:2,0:0:0:0:
170,300,67148,2,0,P|196:262|238:243,1,80,8|0,1:0|1:0,0:0:0:0:
308,180,67501,6,0,P|370:184|473:186,1,160,0|8,0:0|0:0,0:0:0:0:
204,204,68030,2,0,P|141:199|39:198,1,160
44,197,68559,1,8,0:0:0:0:
156,44,68736,6,0,P|244:70|248:160,1,160
439,175,69265,2,0,P|394:166|350:182,1,80,8|0,1:0|2:0,0:0:0:0:
112,320,69618,2,0,P|149:293|168:251,1,80,0|0,1:0|2:0,0:0:0:0:
260,216,69971,1,8,0:0:0:0:
153,70,70148,1,8,0:0:0:0:
381,58,70324,6,0,P|378:101|374:147,1,80,4|0,1:0|2:0,0:0:0:0:
130,233,70677,2,0,P|124:194|123:144,1,80,8|0,1:0|1:0,0:0:0:0:
123,153,70942,1,8,0:0:0:0:
123,153,71030,1,0,0:0:0:0:
242,79,71206,1,2,0:2:0:0:
34,109,71383,1,8,0:0:0:0:
229,180,71559,6,0,P|235:259|238:339,1,160
335,300,72089,2,0,P|332:262|328:211,1,80,8|0,1:0|1:0,0:0:0:0:
329,221,72354,1,8,0:0:0:0:
329,221,72442,1,0,0:0:0:0:
62,246,72618,1,0,0:0:0:0:
184,56,72795,2,0,P|242:29|303:62,1,120,4|0,1:2|2:1,0:0:0:0:
291,48,73148,6,0,P|288:91|284:137,1,80,0|0,1:0|2:0,0:0:0:0:
489,298,73501,1,8,0:0:0:0:
406,236,73677,2,0,P|408:156|415:76,1,160,0|0,0:0|0:2,0:0:0:0:
416,77,74206,1,8,0:0:0:0:
318,238,74383,6,0,P|246:261|202:200,1,160
173,94,74912,2,0,P|125:92|79:88,1,80,8|0,0:0|2:0,0:0:0:0:
93,89,75177,1,0,2:0:0:0:
93,89,75265,1,0,0:0:0:0:
108,194,75442,1,0,0:0:0:0:
119,297,75618,2,0,P|122:340|126:386,1,80,8|0,1:0|2:0,0:0:0:0:
331,178,75971,6,0,P|286:117|215:140,1,160,0|8,0:0|0:0,0:0:0:0:
37,166,76501,2,0,P|81:226|152:203,1,160
206,70,77030,1,8,0:0:0:0:
310,67,77207,1,0,0:0:0:0:
310,67,77296,1,8,0:0:0:0:
310,67,77383,6,0,P|375:65|440:59,1,120
429,60,77736,1,8,0:0:0:0:
380,153,77912,2,0,P|375:216|374:318,1,160
286,194,78442,2,0,P|249:221|230:263,1,80,8|0,1:0|1:0,0:0:0:0:
46,131,78795,6,0,P|126:132|206:138,1,160,0|8,0:0|0:0,0:0:0:0:
195,241,79324,2,0,P|115:236|36:235,1,160
280,179,79853,1,8,0:0:0:0:
319,275,80030,1,0,0:0:0:0:
381,191,80207,5,8,1:0:0:0:
280,179,80383,2,0,P|281:99|286:19,1,160
188,48,80912,2,0,P|185:87|185:127,1,80,8|0,0:1|0:2,0:0:0:0:
385,161,81265,1,0,1:0:0:0:
272,48,84442,6,0,P|274:120|268:200,1,120,0|0,0:2|0:0,0:0:0:0:
271,168,84794,1,0,0:0:0:0:
448,154,84971,2,0,P|376:182|361:258,1,160,2|0,0:2|0:0,0:0:0:0:
182,270,85500,2,0,P|181:230|182:190,1,80
43,101,85853,6,0,P|115:103|195:97,1,120,0|0,0:2|0:0,0:0:0:0:
162,100,86206,1,0,0:0:0:0:
314,222,86383,2,0,P|239:240|181:189,1,160,2|0,0:2|0:0,0:0:0:0:
193,85,86912,1,0,0:0:0:0:
296,93,87089,1,0,0:0:0:0:
396,66,87265,6,0,P|394:138|400:218,1,120,0|0,0:2|0:0,0:0:0:0:
396,185,87618,1,0,0:0:0:0:
264,317,87795,2,0,P|315:260|296:185,1,160,2|0,0:2|0:0,0:0:0:0:
81,185,88324,1,0,0:0:0:0:
81,185,88500,1,0,0:0:0:0:
191,80,88853,6,0,L|103:91,1,80,4|0,0:2|2:0,0:0:0:0:
191,304,89206,2,0,L|103:293,1,80,4|0,0:2|2:0,0:0:0:0:
268,106,89559,1,4,0:2:0:0:
301,238,89736,1,4,0:2:0:0:
81,185,89912,1,4,0:2:0:0:
81,185,90089,6,0,P|153:187|233:181,1,120,0|0,0:2|0:0,0:0:0:0:
200,184,90441,1,0,0:0:0:0:
411,214,90618,2,0,P|337:195|279:246,1,160,2|0,0:2|0:0,0:0:0:0:
107,271,91147,2,0,P|147:271|187:272,1,80,0|0,0:0|1:0,0:0:0:0:
360,283,91500,6,0,P|362:211|356:131,1,120,0|0,0:2|0:0,0:0:0:0:
359,163,91854,1,0,0:0:0:0:
106,270,92030,2,0,P|87:196|139:139,1,160,2|0,0:2|0:0,0:0:0:0:
222,76,92559,2,0,L|222:115|222:155,1,80,0|0,0:0|1:0,0:0:0:0:
349,235,92912,6,0,P|277:233|197:239,1,120,0|0,0:2|0:0,0:0:0:0:
229,235,93264,1,0,0:0:0:0:
412,180,93442,2,0,P|430:255|379:313,1,160,2|0,0:2|0:0,0:0:0:0:
274,303,93971,1,0,0:0:0:0:
170,298,94147,1,0,0:0:0:0:
66,309,94324,6,0,L|16:298,3,40,4|0|0|0,0:3|0:0|0:0|0:0,0:0:0:0:
170,298,94677,2,0,L|131:244,3,40,4|0|0|0,0:3|0:0|0:0|0:0,0:0:0:0:
274,303,95030,2,0,L|260:243,3,40,4|0|0|0,0:3|0:0|0:0|0:0,0:0:0:0:
267,316,95383,5,0,0:0:0:0:
444,297,95559,1,0,0:0:0:0:
378,132,95736,6,0,P|362:235|358:279,1,120,4|0,0:2|0:0,0:0:0:0:
360,250,96089,1,0,0:0:0:0:
235,241,96265,2,0,P|234:163|292:112,1,160,2|0,3:2|0:0,0:0:0:0:
123,170,96794,1,0,0:0:0:0:
86,60,96971,1,0,0:0:0:0:
123,170,97147,6,0,P|139:273|143:317,1,120
140,288,97500,1,0,0:0:0:0:
243,303,97677,1,2,3:2:0:0:
346,308,97854,2,0,P|404:256|403:178,1,160
291,43,98383,1,0,0:0:0:0:
178,128,98559,6,0,P|237:135|297:146,1,120
296,145,98912,1,0,0:0:0:0:
155,215,99089,2,0,P|96:163|97:85,1,160,2|0,3:2|0:0,0:0:0:0:
273,73,99618,2,0,P|297:116|294:155,1,80
24,210,99971,6,0,P|0:253|3:292,1,80,2|0,0:2|2:0,0:0:0:0:
179,288,100324,2,0,P|176:248|155:215,1,80,2|0,0:2|2:0,0:0:0:0:
111,120,100677,1,0,0:2:0:0:
272,226,100853,1,8,0:3:0:0:
455,92,101030,1,4,3:3:0:0:
455,92,101383,6,0,P|352:108|308:112,1,120
336,109,101736,1,0,0:0:0:0:
278,243,101912,2,0,P|356:244|407:186,1,160,2|0,3:2|0:0,0:0:0:0:
393,16,102441,1,0,0:0:0:0:
228,68,102618,1,0,0:0:0:0:
302,139,102794,6,0,P|318:242|322:286,1,120
319,257,103147,1,0,0:0:0:0:
224,301,103324,1,2,3:2:0:0:
126,335,103501,2,0,P|68:282|70:205,1,160
175,211,104030,1,0,0:0:0:0:
278,222,104206,6,0,P|294:119|298:75,1,120
295,103,104559,1,0,0:0:0:0:
367,288,104736,1,0,0:0:0:0:
203,181,104912,2,0,P|142:171|116:169,1,80,0|0,0:0|2:0,0:0:0:0:
124,169,105177,1,2,3:2:0:0:
123,169,105265,2,0,P|131:130|135:90,1,80
295,103,105618,6,0,P|355:96|414:86,1,120
414,86,105971,1,0,0:0:0:0:
323,264,106147,1,2,0:2:0:0:
323,264,106500,5,8,0:1:0:0:
176,298,106677,1,8,0:1:0:0:
101,186,106853,1,8,1:1:0:0:
101,186,106941,1,8,1:1:0:0:
101,186,107030,6,0,P|105:131|126:18,1,160,4|0,0:0|0:0,0:0:0:0:
208,117,107559,2,0,P|224:196|163:250,1,160,2|0,0:2|0:0,0:0:0:0:
103,336,108089,1,0,0:0:0:0:
112,100,108266,1,0,0:0:0:0:
112,100,108354,1,0,0:0:0:0:
112,100,108442,6,0,P|147:42|219:17,1,120,0|0,0:2|0:0,0:0:0:0:
192,20,108795,2,0,P|229:28|305:41,1,80,8|2,0:0|0:2,0:0:0:0:
463,121,109148,2,0,P|424:128|385:137,1,80,0|2,0:0|2:2,0:0:0:0:
178,164,109501,2,0,P|217:171|256:179,1,80,2|0,0:2|0:2,0:0:0:0:
256,179,109765,1,2,0:2:0:0:
256,179,109854,6,0,P|272:258|211:312,1,160,2|0,0:2|0:0,0:0:0:0:
20,187,110383,2,0,P|100:180|179:164,1,160,2|0,0:2|0:0,0:0:0:0:
352,59,110912,2,0,P|344:98|337:137,1,80
142,263,111265,5,0,0:2:0:0:
327,306,111618,1,0,0:2:0:0:
222,38,111971,2,0,P|214:77|207:117,1,80,0|0,0:2|2:0,0:0:0:0:
316,90,112324,1,0,1:0:0:0:
82,16,112677,6,0,P|89:96|105:175,1,160,0|0,0:2|0:0,0:0:0:0:
43,383,113207,2,0,P|106:338|104:262,1,160,2|0,0:2|0:0,0:0:0:0:
25,222,113736,1,8,2:1:0:0:
210,240,113912,1,8,0:0:0:0:
210,240,114000,1,0,0:0:0:0:
210,240,114089,6,0,P|245:298|317:323,1,120,2|0,0:2|0:0,0:0:0:0:
290,321,114441,2,0,P|328:313|403:300,1,80,2|2,0:2|1:2,0:0:0:0:
293,183,114795,2,0,P|323:159|385:114,1,80,0|2,0:2|2:2,0:0:0:0:
207,108,115148,2,0,P|224:73|260:6,1,80,2|0,0:2|1:2,0:0:0:0:
243,36,115412,1,2,0:2:0:0:
243,36,115501,6,0,P|165:51|85:58,1,160
55,241,116030,1,0,0:0:0:0:
120,160,116207,2,0,P|158:152|199:148,1,80,2|0,0:2|0:0,0:0:0:0:
283,209,116559,1,0,0:0:0:0:
269,73,116736,1,2,0:2:0:0:
283,209,116912,6,0,P|247:268|175:293,1,120
202,290,117265,1,0,0:0:0:0:
379,225,117442,2,0,P|450:251|468:326,1,160,0|0,0:2|0:0,0:0:0:0:
298,287,117971,2,0,P|290:247|282:208,1,80
228,24,118324,6,0,P|220:63|212:103,1,80,4|0,0:2|0:0,0:0:0:0:
212,102,118589,1,0,0:0:0:0:
212,102,118677,1,0,0:0:0:0:
122,49,118854,2,0,P|51:80|36:156,1,160
102,232,119383,2,0,P|141:224|180:217,1,80
180,217,119648,1,0,0:0:0:0:
180,216,119736,6,0,P|195:290|213:348,1,120,4|0,0:2|0:0,0:0:0:0:
207,332,120089,1,0,0:0:0:0:
35,154,120265,2,0,P|114:142|192:125,1,160
370,162,120794,1,0,0:0:0:0:
292,93,120971,1,0,0:0:0:0:
312,242,121148,6,0,P|319:281|327:320,1,80,4|0,0:2|0:0,0:0:0:0:
328,320,121412,1,0,0:0:0:0:
328,320,121500,1,0,0:0:0:0:
238,206,121677,2,0,P|167:237|151:313,1,160
125,172,122206,2,0,P|116:133|109:94,1,80
108,94,122471,1,0,0:0:0:0:
108,94,122559,6,0,P|182:80|240:62,1,120,4|0,0:2|0:0,0:0:0:0:
224,67,122912,1,0,0:0:0:0:
360,70,123089,2,0,P|344:146|274:178,1,160
139,158,123617,1,0,0:0:0:0:
93,286,123794,1,0,0:0:0:0:
228,306,123971,6,0,P|268:297|307:290,1,80,4|0,0:2|0:0,0:0:0:0:
306,291,124236,1,0,0:0:0:0:
306,291,124324,1,0,0:0:0:0:
491,205,124501,2,0,P|406:264|412:330,1,160
309,213,125030,2,0,P|317:173|324:134,1,80
323,134,125295,1,0,0:0:0:0:
323,134,125383,6,0,P|248:119|190:101,1,120,4|0,0:2|0:0,0:0:0:0:
206,106,125736,1,0,0:0:0:0:
19,77,125912,2,0,P|94:92|126:162,1,160
102,264,126441,1,0,0:0:0:0:
161,12,126618,1,0,0:0:0:0:
302,232,126795,5,2,0:2:0:0:
321,234,126883,1,0,0:0:0:0:
341,236,126971,1,2,0:2:0:0:
361,239,127059,1,2,0:2:0:0:
382,241,127148,2,0,P|422:232|461:225,1,80,0|0,0:2|0:0,0:0:0:0:
460,226,127501,1,2,1:2:0:0:
376,334,127677,1,0,0:0:0:0:
271,273,127853,1,2,1:2:0:0:
355,165,128029,1,0,0:0:0:0:
210,152,128207,5,2,0:2:0:0:
191,150,128295,1,0,0:0:0:0:
171,148,128383,1,2,0:2:0:0:
151,145,128471,1,2,0:2:0:0:
130,143,128560,2,0,P|90:152|51:159,1,80,0|0,0:2|0:0,0:0:0:0:
52,158,128913,1,2,1:2:0:0:
136,50,129089,1,0,0:0:0:0:
241,111,129265,1,2,1:2:0:0:
157,219,129441,1,0,0:0:0:0:
157,219,129618,6,0,P|123:297|108:349,1,120,4|0,0:2|0:0,0:0:0:0:
113,330,129971,1,0,0:0:0:0:
305,321,130148,2,0,P|296:227|224:210,1,160,4|0,0:0|0:0,0:0:0:0:
143,237,130677,1,0,0:0:0:0:
72,137,130854,1,0,0:0:0:0:
72,137,130941,1,0,0:0:0:0:
72,137,131030,6,0,P|53:193|28:248,1,120,4|0,0:2|0:0,0:0:0:0:
28,248,131383,1,0,0:0:0:0:
150,176,131559,2,0,P|244:185|261:257,1,160,4|0,0:0|0:0,0:0:0:0:
265,257,132000,2,0,L|266:308,1,40,2|0,0:2|0:0,0:0:0:0:
296,100,132265,1,0,0:0:0:0:
372,273,132442,6,0,P|450:307|502:322,1,120,4|0,0:2|0:0,0:0:0:0:
483,317,132794,1,0,0:0:0:0:
480,129,132971,2,0,P|404:124|365:189,1,160,4|0,0:0|0:0,0:0:0:0:
296,311,133500,1,0,0:0:0:0:
264,174,133677,1,0,0:0:0:0:
264,174,133765,1,0,0:0:0:0:
264,174,133854,6,0,P|245:117|220:62,1,120,4|0,0:2|0:0,0:0:0:0:
219,62,134207,1,0,0:0:0:0:
201,245,134383,2,0,P|107:236|90:164,1,160,4|0,0:0|0:0,0:0:0:0:
82,164,134823,2,0,L|83:113,1,40,2|0,0:2|0:0,0:0:0:0:
239,90,135088,1,0,0:0:0:0:
395,56,135265,6,0,P|415:113|440:168,1,120,4|0,0:2|0:0,0:0:0:0:
439,167,135618,1,0,0:0:0:0:
239,90,135795,2,0,P|145:99|128:171,1,160,4|0,0:2|0:0,0:0:0:0:
34,88,136324,1,2,0:2:0:0:
279,237,136500,1,0,0:0:0:0:
279,237,136589,1,0,0:0:0:0:
279,237,136677,6,0,P|273:308|218:321,1,120,4|0,0:2|0:0,0:0:0:0:
235,323,137030,1,0,0:0:0:0:
478,81,137206,2,0,P|384:90|367:162,1,160,4|0,0:2|0:0,0:0:0:0:
184,51,137736,1,0,0:0:0:0:
221,206,137912,1,0,0:0:0:0:
379,232,138089,6,0,L|419:240,1,40,4|0,0:2|2:0,0:0:0:0:
103,245,138441,2,0,L|63:253,1,40,4|0,1:2|2:0,0:0:0:0:
64,254,138795,1,0,1:2:0:0:
95,97,138971,1,4,0:2:0:0:
255,94,139148,1,0,3:2:0:0:
224,251,139324,6,0,P|210:235|239:132,1,120,4|0,0:2|2:0,0:0:0:0:
247,122,139677,1,4,1:2:0:0:
388,88,139853,1,4,0:2:0:0:
450,297,140030,1,4,1:2:0:0:
309,269,140206,1,4,0:2:0:0:
309,269,140912,6,0,P|315:230|316:180,1,80,4|0,1:0|2:0,0:0:0:0:
125,42,141265,2,0,P|123:81|114:124,1,80,8|0,1:0|1:0,0:0:0:0:
114,121,141530,1,0,0:0:0:0:
114,121,141618,1,0,0:0:0:0:
219,142,141794,1,2,0:2:0:0:
171,234,141971,1,8,0:0:0:0:
70,212,142148,6,0,P|76:288|143:325,1,160,0|0,0:2|0:0,0:0:0:0:
326,116,142677,2,0,P|288:113|237:109,1,80,8|0,1:0|1:0,0:0:0:0:
247,110,142942,1,0,0:0:0:0:
247,110,143030,1,0,0:0:0:0:
144,244,143207,1,2,0:3:0:0:
344,221,143383,2,0,P|404:216|464:214,1,120,8|0,1:1|2:0,0:0:0:0:
463,214,143736,6,0,P|461:171|456:125,1,80,0|0,1:0|2:0,0:0:0:0:
447,22,144089,1,8,0:0:0:0:
265,25,144265,2,0,P|337:52|354:126,1,160,0|0,0:2|0:0,0:0:0:0:
323,226,144794,1,8,0:0:0:0:
281,321,144971,6,0,P|202:324|122:331,1,160
138,228,145500,1,8,0:0:0:0:
99,131,145677,1,0,0:0:0:0:
99,131,145765,1,8,0:0:0:0:
99,131,145853,1,0,0:0:0:0:
203,137,146030,1,0,0:0:0:0:
26,214,146206,1,8,0:0:0:0:
151,260,146383,1,0,0:0:0:0:
209,145,146559,6,0,P|212:102|216:7,1,120,0|0,1:0|2:0,0:0:0:0:
215,25,146912,1,8,1:0:0:0:
431,68,147089,1,0,1:0:0:0:
438,168,147265,1,0,1:0:0:0:
334,164,147441,1,2,0:2:0:0:
335,59,147618,1,8,0:0:0:0:
438,168,147794,1,0,0:0:0:0:
438,168,147883,1,0,0:0:0:0:
438,168,147971,6,0,P|441:211|445:306,1,120,0|0,1:0|2:0,0:0:0:0:
444,287,148324,1,8,1:0:0:0:
340,254,148500,1,0,0:0:0:0:
305,173,148677,2,0,P|296:134|306:96,1,80,0|2,1:0|2:2,0:0:0:0:
189,340,149030,2,0,P|209:306|243:286,1,80,8|0,1:0|1:0,0:0:0:0:
464,178,149383,6,0,P|384:173|305:172,1,160,0|8,0:0|0:0,0:0:0:0:
206,211,149912,2,0,P|126:210|47:204,1,160
46,203,150441,1,8,0:0:0:0:
276,263,150618,6,0,P|250:351|160:355,1,160
99,317,151147,2,0,P|90:272|106:228,1,80,8|0,1:0|2:0,0:0:0:0:
206,210,151501,2,0,P|215:172|206:133,1,80,0|0,1:0|2:0,0:0:0:0:
102,135,151854,1,8,0:0:0:0:
233,31,152030,1,8,0:0:0:0:
137,246,152206,6,0,P|133:286|131:326,1,80,4|0,1:0|2:0,0:0:0:0:
382,151,152559,2,0,P|388:190|387:240,1,80,8|0,1:0|1:0,0:0:0:0:
387,230,152824,1,8,0:0:0:0:
387,230,152912,1,0,0:0:0:0:
270,305,153088,1,2,0:2:0:0:
437,336,153265,1,8,0:0:0:0:
306,175,153442,6,0,P|332:87|422:83,1,160
216,150,153971,2,0,P|178:153|127:157,1,80,8|0,1:0|1:0,0:0:0:0:
137,156,154236,1,8,0:0:0:0:
137,156,154324,1,0,0:0:0:0:
117,70,154500,1,0,0:0:0:0:
132,273,154677,2,0,P|74:300|13:267,1,120,4|0,1:2|2:1,0:0:0:0:
25,281,155030,6,0,P|28:238|32:192,1,80,0|0,1:0|2:0,0:0:0:0:
13,114,155383,1,8,0:0:0:0:
211,157,155559,2,0,P|209:237|202:317,1,160,0|0,0:0|0:2,0:0:0:0:
117,292,156088,1,8,0:0:0:0:
297,166,156265,6,0,P|357:210|333:281,1,160
90,291,156794,2,0,P|138:293|184:297,1,80,8|0,0:0|2:0,0:0:0:0:
169,295,157059,1,0,2:0:0:0:
169,295,157147,1,0,0:0:0:0:
256,307,157324,1,0,0:0:0:0:
242,220,157500,2,0,P|239:177|235:131,1,80,8|0,1:0|2:0,0:0:0:0:
372,166,157854,6,0,P|394:237|333:281,1,160,0|8,0:0|0:0,0:0:0:0:
120,103,158383,2,0,P|190:79|235:139,1,160
212,224,158912,1,8,0:0:0:0:
178,305,159089,1,0,0:0:0:0:
178,305,159178,1,8,0:0:0:0:
178,305,159265,6,0,P|243:307|308:313,1,120
297,312,159618,1,8,0:0:0:0:
235,139,159795,2,0,P|155:139|75:145,1,160
261,217,160324,2,0,P|298:190|317:148,1,80,8|0,1:0|1:0,0:0:0:0:
399,37,160677,6,0,P|393:117|393:197,1,160,0|8,0:0|0:0,0:0:0:0:
298,341,161206,2,0,P|303:261|305:182,1,160
140,145,161735,1,8,0:0:0:0:
306,93,161912,1,0,0:0:0:0:
140,145,162089,5,8,1:0:0:0:
306,93,162265,2,0,P|251:44|172:82,1,160
91,151,162794,2,0,P|92:111|88:72,1,80,8|0,0:1|0:2,0:0:0:0:
305,181,163148,1,0,1:0:0:0:
34,174,166324,6,0,L|43:240,1,60.0000022888184,2|0,0:0|0:0,0:0:0:0:
111,253,166677,1,0,0:0:0:0:
180,273,166854,1,2,0:0:0:0:
294,237,167030,5,0,0:0:0:0:
206,157,167207,1,2,0:0:0:0:
180,273,167383,1,0,0:0:0:0:
294,237,167559,1,0,0:0:0:0:
206,157,167736,5,2,0:0:0:0:
294,237,167912,1,0,0:0:0:0:
206,157,168089,1,2,0:0:0:0:
294,237,168265,1,0,0:0:0:0:
206,157,168442,6,0,L|215:91,1,60.0000022888184,2|0,0:0|0:0,0:0:0:0:
286,67,168795,1,0,0:0:0:0:
333,174,168972,1,2,0:0:0:0:
480,140,169148,1,0,1:0:0:0:
480,140,169501,6,0,P|395:117|331:181,1,180.000006866455,4|2,0:0|0:0,0:0:0:0:
277,119,170207,1,8,2:1:0:0:
204,146,170383,1,0,3:1:0:0:
277,119,170559,6,0,L|295:247,1,120.000004577637,4|2,2:0|2:0,0:0:0:0:
309,314,171089,2,0,L|181:332,1,120.000004577637,2|0,2:3|0:0,0:0:0:0:
144,261,171618,2,0,L|204:253,1,60.0000022888184,8|0,3:1|3:3,0:0:0:0:
73,212,171971,6,0,P|59:269|84:322,1,120.000004577637,4|2,0:0|0:0,0:0:0:0:
275,303,172501,2,0,P|288:245|263:192,1,120.000004577637,4|2,0:0|0:0,0:0:0:0:
136,180,173030,1,2,0:3:0:0:
144,261,173207,6,0,L|272:279,1,120.000004577637,2|0,1:3|0:0,0:0:0:0:
340,288,173736,1,0,0:0:0:0:
416,299,173912,2,0,L|503:311,2,60.0000022888184,2|0|0,1:3|0:0|0:0,0:0:0:0:
334,210,174442,1,0,3:1:0:0:
407,183,174618,1,0,2:1:0:0:
277,119,174796,1,8,2:1:0:0:
204,146,174972,1,0,3:1:0:0:
277,118,175148,6,0,L|302:299,1,180.000006866455,4|2,2:0|2:0,0:0:0:0:
139,238,175854,2,0,L|130:178,1,60.0000022888184,8|0,3:1|3:3,0:0:0:0:
203,301,176207,6,0,P|150:326|93:313,1,120.000004577637,2|2,0:2|0:0,0:0:0:0:
302,297,176736,2,0,P|359:283|412:308,1,120.000004577637,2|2,3:0|0:0,0:0:0:0:
412,308,177265,1,8,0:1:0:0:
250,239,177442,1,2,3:0:0:0:
332,98,177618,6,0,P|345:155|321:209,1,120.000004577637,4|2,0:0|0:0,0:0:0:0:
175,277,178148,1,0,3:0:0:0:
175,277,178236,1,0,3:0:0:0:
175,277,178324,2,0,P|161:219|186:166,1,120.000004577637,4|2,0:0|0:0,0:0:0:0:
244,114,178854,1,0,3:0:0:0:
244,114,178942,1,0,3:0:0:0:
244,114,179030,6,0,L|116:132,1,120.000004577637,6|0,1:2|0:0,0:0:0:0:
5,223,179559,1,0,3:0:0:0:
5,223,179647,1,0,3:0:0:0:
5,222,179736,2,0,L|124:206,1,120.000004577637,4|0,1:2|0:0,0:0:0:0:
331,178,180265,1,0,0:0:0:0:
320,253,180442,6,0,L|201:269,1,120.000004577637,0|0,1:2|0:0,0:0:0:0:
201,191,180971,1,0,0:0:0:0:
327,135,181148,2,0,P|282:176|281:185,1,60.0000022888184,2|0,0:0|0:0,0:0:0:0:
79,208,181501,2,0,P|137:226|145:222,1,60.0000022888184,2|0,0:0|0:0,0:0:0:0:
327,135,181854,1,8,0:1:0:0:
327,135,183265,6,0,P|286:150|194:150,1,120.000004577637,2|0,0:0|0:0,0:0:0:0:
77,260,183795,2,0,P|118:245|210:245,1,120.000004577637,2|2,0:0|0:0,0:0:0:0:
336,288,184324,2,0,P|343:308|343:354,1,60.0000022888184
344,346,184589,1,2,0:0:0:0:
344,346,184677,6,0,P|344:317|353:288,1,60.0000022888184,0|2,0:0|0:0,0:0:0:0:
353,287,184942,1,2,0:0:0:0:
353,287,185030,1,0,0:0:0:0:
448,180,185207,1,0,0:0:0:0:
254,239,185383,2,0,P|246:218|246:172,1,60.0000022888184,2|0,0:0|0:0,0:0:0:0:
128,92,185736,2,0,P|135:112|135:158,1,60.0000022888184,2|0,0:0|0:0,0:0:0:0:
52,192,186089,5,0,0:0:0:0:
224,176,186265,1,2,0:0:0:0:
200,272,186442,1,0,0:0:0:0:
200,272,186530,1,2,0:0:0:0:
200,272,186618,1,0,0:0:0:0:
160,84,186795,1,2,0:0:0:0:
336,167,186971,1,2,0:0:0:0:
224,176,187148,1,0,0:0:0:0:
272,75,187324,1,2,0:0:0:0:
384,84,187501,1,0,0:0:0:0:
286,231,187677,1,2,2:0:0:0:
286,231,188030,5,0,0:0:0:0:
224,176,188207,2,0,P|216:155|216:109,1,60.0000022888184,2|2,0:0|0:0,0:0:0:0:
384,84,188560,2,0,P|391:104|391:150,1,60.0000022888184,0|2,0:0|0:0,0:0:0:0:
224,176,188912,6,0,P|194:175|165:166,1,60.0000022888184,0|2,0:0|0:0,0:0:0:0:
128,90,189265,1,0,0:0:0:0:
66,272,189442,1,0,0:0:0:0:
66,272,189530,1,2,0:0:0:0:
66,272,189618,2,0,P|38:281|8:281,2,60.0000022888184,2|0|0,0:0|0:0|0:0,0:0:0:0:
152,184,190148,5,2,0:0:0:0:
360,184,190324,1,2,0:0:0:0:
360,320,190501,1,0,0:0:0:0:
196,264,190677,1,0,0:0:0:0:
210,128,190854,1,2,0:0:0:0:
417,150,191030,5,2,0:0:0:0:
402,285,191207,1,0,0:0:0:0:
245,212,191383,1,0,0:0:0:0:
273,79,191560,1,2,0:0:0:0:
477,122,191736,5,2,0:0:0:0:
477,122,191824,1,2,0:0:0:0:
477,122,191912,2,0,P|448:131|418:131,2,60.0000022888184,2|2|0,0:0|0:0|0:0,0:0:0:0:
273,79,192442,2,0,P|254:135|254:195,1,120.000004577637,2|2,0:0|0:0,0:0:0:0:
160,220,192971,1,0,0:0:0:0:
110,73,193148,6,0,P|119:102|120:132,1,60.0000022888184,2|0,0:0|0:0,0:0:0:0:
44,300,193501,1,2,0:0:0:0:
44,300,193589,1,2,0:0:0:0:
44,300,193677,2,0,P|72:290|102:290,1,60.0000022888184,2|0,0:0|0:0,0:0:0:0:
196,320,194030,2,0,P|252:338|312:338,1,120.000004577637,2|2,0:0|0:0,0:0:0:0:
468,300,194559,6,0,P|439:290|409:290,1,60.0000022888184,2|0,0:0|0:0,0:0:0:0:
236,252,194912,2,0,P|264:261|294:261,1,60.0000022888184,2|0,0:0|0:0,0:0:0:0:
444,184,195265,1,0,0:0:0:0:
444,184,195442,2,0,P|387:165|327:165,2,120.000004577637,2|2|0,0:0|0:0|0:0,0:0:0:0:
420,92,196324,5,0,0:0:0:0:
372,248,196501,2,0,P|312:247|255:229,1,120.000004577637,2|2,0:0|0:0,0:0:0:0:
216,64,197030,1,0,0:0:0:0:
56,144,197207,1,2,0:0:0:0:
68,228,197383,6,0,P|128:229|185:247,1,120.000004577637,0|2,0:0|0:0,0:0:0:0:
152,337,197912,1,0,0:0:0:0:
29,131,198089,2,0,P|29:102|38:73,1,60.0000022888184,2|0,0:0|0:0,0:0:0:0:
262,174,198442,1,0,0:0:0:0:
262,174,198530,1,2,0:0:0:0:
262,174,198618,2,0,P|270:202|270:232,1,60.0000022888184,2|0,0:0|0:0,0:0:0:0:
69,206,198971,1,0,0:0:0:0:
69,206,200207,6,0,L|156:198,1,80,2|2,0:3|0:0,0:0:0:0:
191,119,200737,2,0,L|111:126,1,80
134,221,201266,2,0,L|164:195,1,40,2|0,0:0|0:0,0:0:0:0:
219,137,201618,2,0,L|306:145,1,80
341,224,202148,2,0,L|261:216,1,80,2|2,0:0|0:0,0:0:0:0:
284,122,202677,2,0,L|314:147,1,40
392,272,203030,6,0,P|371:236|376:197,1,80
450,140,203559,2,0,P|470:175|466:215,1,80,2|0,0:0|0:0,0:0:0:0:
379,257,204089,2,0,P|365:273|359:298,1,40,2|0,0:0|0:0,0:0:0:0:
274,265,204442,2,0,P|277:226|258:192,1,80
183,250,204971,2,0,P|180:289|200:324,1,80,2|0,0:0|0:0,0:0:0:0:
270,176,205501,2,0,P|255:164|236:157,1,40,2|0,0:0|0:0,0:0:0:0:
173,119,205854,6,0,P|148:120|78:132,1,80
64,207,206383,2,0,P|110:202|156:193,1,80,2|0,0:0|0:0,0:0:0:0:
181,114,206912,2,0,P|161:110|141:112,1,40,2|0,0:0|0:0,0:0:0:0:
232,175,207265,2,0,P|256:173|326:161,1,80
340,88,207795,2,0,P|292:91|246:100,1,80,2|0,0:0|0:0,0:0:0:0:
221,187,208324,2,0,P|242:183|268:191,1,40,2|0,0:0|0:0,0:0:0:0:
324,257,208677,6,0,P|274:311|232:301,1,105.599999677734
145,239,209207,2,0,P|213:189|267:211,1,132.800001925049,2|0,0:0|0:0,0:0:0:0:
451,79,209912,6,0,P|405:88|289:105,1,160,4|0,0:2|0:0,0:0:0:0:
429,163,210442,1,0,0:0:0:0:
293,104,210618,1,0,0:0:0:0:
429,163,210795,2,0,P|449:201|455:242,2,80,0|0|0,0:2|3:0|2:0,0:0:0:0:
134,187,211324,1,0,3:0:0:0:
212,120,211501,6,0,P|234:116|283:114,1,60,2|0,2:0|2:0,0:0:0:0:
298,109,211854,6,0,P|251:104|158:78,1,120,4|0,0:0|2:0,0:0:0:0:
181,87,212207,1,0,0:0:0:0:
324,30,212383,1,0,0:0:0:0:
352,179,212559,1,8,0:0:0:0:
156,175,212736,6,0,P|77:171|31:240,1,160
39,335,213266,2,0,P|77:332|128:328,1,80,8|0,1:0|1:0,0:0:0:0:
118,329,213531,1,0,0:0:0:0:
118,329,213619,1,0,0:0:0:0:
336,326,213794,1,2,0:3:0:0:
228,331,213971,2,0,P|233:271|235:211,1,120,8|0,1:1|2:0,0:0:0:0:
235,211,214324,6,0,P|278:213|324:218,1,80,0|0,1:0|2:0,0:0:0:0:
476,177,214678,1,8,0:0:0:0:
401,254,214854,2,0,P|394:174|391:95,1,160
391,95,215383,1,8,0:0:0:0:
263,154,215559,6,0,P|259:233|328:279,1,160
386,198,216089,1,8,0:0:0:0:
161,171,216266,1,0,0:0:0:0:
161,171,216354,1,8,0:0:0:0:
161,171,216442,1,0,0:0:0:0:
156,275,216619,1,0,0:0:0:0:
258,258,216795,1,8,0:0:0:0:
263,154,216972,1,0,0:0:0:0:
161,171,217148,6,0,P|158:214|154:309,1,120,0|0,1:0|2:0,0:0:0:0:
154,290,217501,1,8,1:0:0:0:
53,263,217678,1,0,1:0:0:0:
252,187,217854,1,0,1:0:0:0:
72,105,218030,1,2,0:2:0:0:
238,50,218207,1,8,0:0:0:0:
174,131,218383,1,0,0:0:0:0:
174,131,218472,1,0,0:0:0:0:
174,131,218560,6,0,P|177:174|181:269,1,120,0|0,1:0|2:0,0:0:0:0:
181,250,218913,1,8,1:0:0:0:
274,294,219089,1,0,0:0:0:0:
84,249,219266,2,0,P|75:204|91:160,1,80,0|2,1:0|2:2,0:0:0:0:
312,136,219618,2,0,P|321:181|305:225,1,80,8|0,1:0|1:2,0:0:0:0:
237,287,219972,6,0,P|175:291|72:293,1,160,0|8,0:0|0:0,0:0:0:0:
166,126,220501,2,0,P|127:192|51:192,1,160
51,192,221030,1,8,0:0:0:0:
148,303,221207,6,0,P|210:299|313:297,1,160
166,126,221736,2,0,P|203:137|232:164,1,80,8|0,1:0|2:0,0:0:0:0:
308,297,222089,2,0,P|305:254|301:208,1,80,0|0,1:0|2:0,0:0:0:0:
394,88,222442,1,8,0:0:0:0:
200,42,222619,1,8,0:0:0:0:
155,223,222795,6,0,P|149:262|148:312,1,80,4|0,1:0|2:0,0:0:0:0:
290,113,223148,2,0,P|296:74|297:24,1,80,8|0,1:0|1:0,0:0:0:0:
297,33,223413,1,8,0:0:0:0:
297,33,223501,1,0,0:0:0:0:
195,9,223677,1,2,0:2:0:0:
394,88,223854,1,8,0:0:0:0:
183,139,224030,6,0,P|177:218|251:265,1,160
337,236,224560,2,0,P|340:198|344:147,1,80,8|0,1:0|1:0,0:0:0:0:
343,157,224825,1,8,0:0:0:0:
343,157,224913,1,0,0:0:0:0:
450,246,225089,1,0,0:0:0:0:
191,246,225266,2,0,P|164:188|197:127,1,120,4|0,1:2|2:1,0:0:0:0:
183,139,225619,6,0,P|226:142|272:146,1,80,0|0,1:0|2:0,0:0:0:0:
295,244,225972,1,8,0:0:0:0:
191,246,226148,2,0,P|111:248|31:255,1,160,0|0,0:0|0:2,0:0:0:0:
67,157,226677,1,8,0:0:0:0:
132,355,226854,6,0,P|211:361|258:287,1,160
176,63,227383,2,0,P|178:111|182:157,1,80,8|0,0:0|2:0,0:0:0:0:
180,142,227648,1,0,2:0:0:0:
180,142,227736,1,0,0:0:0:0:
76,154,227913,1,0,0:0:0:0:
69,257,228089,2,0,P|66:300|62:346,1,80,8|0,1:0|2:0,0:0:0:0:
228,229,228442,6,0,P|287:277|280:353,1,160,0|8,0:0|0:0,0:0:0:0:
379,189,228971,2,0,P|381:269|388:349,1,160,0|0,0:0|0:2,0:0:0:0:
471,284,229501,1,8,0:0:0:0:
281,219,229678,1,0,0:0:0:0:
281,219,229765,1,8,0:0:0:0:
281,219,229854,6,0,P|216:221|151:227,1,120
161,226,230207,1,8,0:0:0:0:
152,79,230383,2,0,P|228:71|276:131,1,160
89,319,230913,2,0,P|62:282|20:263,1,80,8|0,1:0|1:0,0:0:0:0:
145,238,231266,6,0,P|151:158|152:79,1,160,0|8,0:0|0:0,0:0:0:0:
272,157,231795,2,0,P|279:233|219:281,1,160
465,202,232324,1,8,0:0:0:0:
361,211,232501,1,0,0:0:0:0:
372,314,232678,5,8,1:0:0:0:
476,305,232854,2,0,P|475:225|470:145,1,160
254,83,233383,2,0,P|257:122|257:162,1,80,8|0,0:1|0:2,0:0:0:0:
42,239,233736,1,0,1:0:0:0:
42,239,234089,6,0,L|29:158,2,60.0000022888184,2|0|0,0:0|0:0|0:0,0:0:0:0:
184,280,234618,2,0,P|132:255|125:198,1,120.000004577637,2|0,0:0|0:0,0:0:0:0:
153,124,235148,2,0,L|165:43,1,60.0000022888184,2|0,0:0|0:0,0:0:0:0:
387,102,235501,2,0,L|374:182,1,60.0000022888184,2|0,0:0|0:0,0:0:0:0:
223,173,235854,2,0,P|247:121|304:114,1,120.000004577637,2|0,0:0|0:0,0:0:0:0:
304,114,236912,6,0,P|302:186|308:266,1,120,2|0,2:2|0:0,0:0:0:0:
304,233,237264,1,0,0:0:0:0:
388,259,237442,2,0,P|416:187|491:171,1,160,2|0,0:2|0:0,0:0:0:0:
484,83,237971,2,0,P|444:82|404:83,1,80,2|0,0:0|0:0,0:0:0:0:
224,167,238324,6,0,P|152:169|72:163,1,120,0|0,0:2|0:0,0:0:0:0:
104,167,238676,1,0,0:0:0:0:
86,80,238854,2,0,P|143:29|218:47,1,160,2|0,0:2|0:0,0:0:0:0:
307,56,239383,2,0,P|306:96|307:136,1,80,2|0,0:0|0:0,0:0:0:0:
324,221,239736,6,0,P|326:293|320:373,1,120,0|0,0:2|0:0,0:0:0:0:
323,340,240088,1,0,0:0:0:0:
228,224,240265,2,0,P|177:281|196:356,1,160,2|0,0:2|0:0,0:0:0:0:
70,270,240794,1,2,0:0:0:0:
70,270,240970,1,0,0:0:0:0:
54,68,241324,6,0,L|142:79,1,80,4|0,0:2|2:0,0:0:0:0:
458,68,241677,2,0,L|370:79,1,80,4|0,0:2|2:0,0:0:0:0:
229,199,242029,1,4,0:2:0:0:
314,176,242206,1,4,0:2:0:0:
293,91,242382,1,4,0:2:0:0:
208,114,242559,6,0,P|206:186|212:266,1,120,0|0,0:2|0:0,0:0:0:0:
208,233,242911,1,0,0:0:0:0:
334,242,243089,2,0,P|352:167|301:109,1,160,2|0,0:2|0:0,0:0:0:0:
116,124,243618,2,0,P|76:124|36:123,1,80,2|0,0:0|2:0,0:0:0:0:
205,250,243971,6,0,P|203:178|209:98,1,120,0|0,0:2|0:0,0:0:0:0:
206,130,244324,1,0,0:0:0:0:
344,199,244501,2,0,P|293:256|312:331,1,160,2|0,0:2|0:0,0:0:0:0:
399,321,245030,2,0,P|438:319|478:321,1,80,2|0,0:0|2:0,0:0:0:0:
458,234,245383,6,0,P|460:162|454:82,1,120,0|0,0:2|0:0,0:0:0:0:
457,114,245736,1,0,0:0:0:0:
209,279,245912,2,0,P|191:204|242:146,1,160,2|0,0:2|0:0,0:0:0:0:
328,128,246441,1,2,0:0:0:0:
342,230,246617,1,0,0:0:0:0:
95,186,246794,5,2,2:2:0:0:
109,82,246971,1,0,0:0:0:0:
95,186,247148,1,2,0:0:0:0:
196,206,247324,1,0,2:2:0:0:
210,310,247501,1,0,0:0:0:0:
196,206,247678,1,2,0:0:0:0:
248,116,247854,1,2,0:0:0:0:
343,75,248030,1,2,0:0:0:0:
446,87,248207,6,0,P|448:159|442:239,1,120,2|0,2:2|0:0,0:0:0:0:
445,206,248559,1,0,0:0:0:0:
347,237,248736,2,0,P|275:208|259:133,1,160,2|0,0:2|0:0,0:0:0:0:
364,47,249265,2,0,P|324:48|285:48,1,80,2|0,0:0|0:0,0:0:0:0:
163,186,249618,6,0,P|91:188|11:182,1,120,0|0,0:2|0:0,0:0:0:0:
43,186,249970,1,0,0:0:0:0:
193,109,250148,2,0,P|244:166|226:241,1,160,2|0,0:2|0:0,0:0:0:0:
69,285,250677,2,0,P|109:286|149:286,1,80,2|0,0:0|0:0,0:0:0:0:
312,108,251030,6,0,P|252:105|192:108,1,120,0|0,0:2|0:0,0:0:0:0:
193,109,251382,1,0,0:0:0:0:
308,205,251559,2,0,P|250:256|176:237,1,160,2|0,0:2|0:0,0:0:0:0:
121,167,252088,1,2,0:0:0:0:
121,167,252264,1,0,0:0:0:0:
345,339,252618,6,0,L|424:348,1,80,4|0,0:2|2:0,0:0:0:0:
167,339,252971,2,0,L|87:348,1,80,4|0,0:2|2:0,0:0:0:0:
395,126,253323,1,4,0:2:0:0:
480,149,253500,1,4,0:2:0:0:
459,234,253676,1,4,0:2:0:0:
374,211,253853,6,0,P|372:139|378:59,1,120,0|0,0:2|0:0,0:0:0:0:
374,92,254207,1,0,0:0:0:0:
153,245,254383,2,0,P|211:194|286:213,1,160,2|0,0:2|0:0,0:0:0:0:
334,286,254912,2,0,P|334:326|333:366,1,80,2|0,0:0|2:0,0:0:0:0:
153,365,255265,6,0,P|155:293|149:213,1,120,0|0,0:2|0:0,0:0:0:0:
152,245,255618,1,0,0:0:0:0:
10,124,255795,2,0,P|67:176|142:157,1,160,2|0,0:2|0:0,0:0:0:0:
296,132,256324,2,0,P|294:93|296:53,1,80,2|0,0:0|2:0,0:0:0:0:
209,73,256677,6,0,P|137:71|57:77,1,120,0|0,0:2|0:0,0:0:0:0:
89,74,257030,1,0,0:0:0:0:
232,195,257207,2,0,P|307:177|365:228,1,160,2|0,0:2|0:0,0:0:0:0:
383,314,257735,1,2,0:0:0:0:
281,328,257911,1,0,0:0:0:0:
325,81,258088,5,2,2:2:0:0:
429,95,258265,1,0,0:0:0:0:
325,81,258442,5,2,0:0:0:0:
305,182,258618,1,0,2:2:0:0:
201,196,258795,5,0,0:0:0:0:
305,182,258972,1,2,0:0:0:0:
164,86,259148,5,2,0:0:0:0:
348,60,259324,1,2,0:0:0:0:
