osu file format v14

[General]
AudioFilename: jh.mp3
AudioLeadIn: 0
PreviewTime: 59030
Countdown: 0
SampleSet: Soft
StackLeniency: 0.7
Mode: 0
LetterboxInBreaks: 0
WidescreenStoryboard: 0

[Editor]
Bookmarks: 13854,25148,36442,47736,59030,81618,84442,95736,107030,118324,129618,140912,163501,169148,183265,200207,211501,236912,259324
DistanceSpacing: 0.6
BeatDivisor: 4
GridSize: 4
TimelineZoom: 1.5

[Metadata]
Title:Sharekoube
TitleUnicode:髑髏
Artist:Buta-Otome
ArtistUnicode:豚乙女
Creator:Damnae
Version:Elvis' Insane
Source:
Tags:コンプ comp ランコ ranko skull ボウリング 豚乙女 歌うアコースティック evilelvis ryuu kite fergas
BeatmapID:684921
BeatmapSetID:304940

[Difficulty]
HPDrainRate:6
CircleSize:4
OverallDifficulty:7.5
ApproachRate:9
SliderMultiplier:1.6
SliderTickRate:1

[Events]
//Background and Video events
0,0,"113230.png",0,0
//Break Periods
2,81618,83842
2,163501,165724
//Storyboard Layer 0 (Background)
//Storyboard Layer 1 (Fail)
//Storyboard Layer 2 (Pass)
//Storyboard Layer 3 (Foreground)
//Storyboard Sound Samples

[TimingPoints]
2560,352.941176470588,4,2,2,70,1,0
6971,-76.9230769230769,4,2,2,70,0,0
8207,-100,4,2,2,70,0,0
12442,-200,4,2,2,70,0,0
13501,-76.9230769230769,4,2,2,70,0,0
14207,-100,4,2,2,70,0,0
18089,-76.9230769230769,4,2,2,70,0,0
19854,-100,4,2,2,70,0,0
36442,-100,4,2,2,60,0,0
38736,-100,4,2,2,80,0,0
39265,-100,4,2,2,60,0,0
41559,-100,4,2,2,80,0,0
41824,-100,4,2,2,60,0,0
45795,-100,4,2,2,80,0,0
46059,-100,4,2,2,60,0,0
47207,-100,4,2,2,80,0,0
47471,-100,4,2,2,60,0,0
47736,-100,4,2,2,70,0,0
59030,-100,4,2,2,70,0,1
69971,-66.6666666666667,4,2,2,70,0,0
70324,-100,4,2,2,70,0,1
81265,-100,4,2,2,70,0,0
88854,-76.9230769230769,4,2,2,70,0,0
90089,-100,4,2,2,70,0,0
95736,-76.9230769230769,4,2,2,70,0,0
96089,-100,4,2,2,70,0,0
99971,-76.9230769230769,4,2,2,70,0,0
101383,-100,4,2,2,70,0,0
118324,-133.333333333333,4,2,2,70,0,0
135265,-117.647058823529,4,2,2,70,0,0
135795,-100,4,2,2,70,0,0
136501,-117.647058823529,4,2,2,70,0,0
137207,-100,4,2,2,70,0,0
140912,-76.9230769230769,4,2,2,70,0,1
141265,-90.9090909090909,4,2,2,70,0,1
151854,-62.5,4,2,2,70,0,0
152207,-90.9090909090909,4,2,2,70,0,1
163148,-90.9090909090909,4,2,2,70,0,0
166324,-90.9090909090909,4,2,2,40,0,0
169501,-71.4285714285714,4,2,2,70,0,0
169854,-90.9090909090909,4,2,2,70,0,0
174795,-166.666666666667,4,2,2,70,0,0
175148,-71.4285714285714,4,2,2,70,0,0
175501,-90.9090909090909,4,2,2,70,0,0
183265,-100,4,2,2,50,0,0
200207,-200,4,2,2,30,0,0
209207,-133.333333333333,4,2,2,30,0,0
209912,-100,4,2,2,50,0,0
211148,-66.6666666666667,4,2,2,70,0,0
211501,-200,4,2,2,30,0,0
211854,-90.9090909090909,4,2,2,70,0,1
222442,-66.6666666666667,4,2,2,70,0,0
222795,-90.9090909090909,4,2,2,70,0,1
233736,-90.9090909090909,4,2,2,70,0,0
234089,-90.9090909090909,4,2,2,50,0,0
235854,-100,4,2,2,70,0,0
241324,-76.9230769230769,4,2,2,70,0,0
242559,-100,4,2,2,70,0,0
246971,-76.9230769230769,4,2,2,70,0,0
248207,-100,4,2,2,70,0,0
252618,-76.9230769230769,4,2,2,70,0,0
253854,-100,4,2,2,70,0,0
258265,-76.9230769230769,4,2,2,70,0,1
259324,-76.9230769230769,4,2,2,70,0,0

[Colours]
Combo1 : 255,94,55
Combo2 : 173,255,95
Combo3 : 17,254,176
Combo4 : 255,88,100

[HitObjects]
125,222,2560,6,0,P|197:226|265:218,1,120,8|0,0:3|0:0,0:0:0:0:
256,244,2912,1,0,0:0:0:0:
62,307,3089,2,0,P|26:255|57:146,1,160,8|0,0:3|0:0,0:0:0:0:
66,143,3530,1,0,0:0:0:0:
94,127,3618,2,0,P|97:95|76:35,1,80
328,65,3971,6,0,P|281:29|191:25,1,120,8|0,0:3|0:0,0:0:0:0:
197,42,4324,1,0,0:0:0:0:
309,176,4501,2,0,P|377:180|459:122,1,160,8|2,0:3|0:0,0:0:0:0:
467,50,5030,1,2,0:0:0:0:
467,50,5207,1,2,0:3:0:0:
239,131,5383,6,0,P|213:173|210:260,1,120,8|0,0:3|0:0,0:0:0:0:
216,273,5736,1,0,0:0:0:0:
361,368,5912,2,0,P|365:304|300:229,1,160,8|0,0:3|0:0,0:0:0:0:
307,232,6354,1,0,0:0:0:0:
307,232,6442,1,0,0:0:0:0:
52,66,6618,1,2,0:3:0:0:
52,66,6971,6,0,L|174:60,1,103.999995239258,4|0,0:0|0:0,0:0:0:0:
454,135,7324,2,0,L|332:141,1,103.999995239258,4|0,0:0|0:0,0:0:0:0:
166,140,7677,5,8,1:0:0:0:
331,58,7854,1,8,1:0:0:0:
166,140,8030,1,6,0:0:0:0:
264,332,8207,6,0,P|337:338|396:291,1,120,8|0,0:3|0:0,0:0:0:0:
397,293,8559,1,0,0:0:0:0:
261,206,8736,2,0,P|199:225|151:322,1,160,8|0,0:3|0:0,0:0:0:0:
153,331,9177,1,0,0:0:0:0:
158,358,9265,2,0,P|114:357|70:362,1,80
21,144,9618,6,0,P|74:144|157:133,1,120,8|0,0:3|0:0,0:0:0:0:
149,159,9971,1,0,0:0:0:0:
360,280,10148,2,0,P|372:223|341:103,1,160,8|2,0:3|0:0,0:0:0:0:
215,23,10677,2,0,P|206:73|219:120,1,80,2|2,0:0|0:3,0:0:0:0:
484,45,11030,6,0,P|404:49|351:40,1,120,8|0,0:3|0:0,0:0:0:0:
330,31,11383,1,0,0:0:0:0:
473,145,11559,2,0,P|469:214|478:315,1,160,8|0,0:3|0:0,0:0:0:0:
362,363,12089,2,0,P|365:317|368:275,1,80
277,134,12442,6,0,B|119:145|208:49|45:66,1,240,4|0,0:0|0:0,0:0:0:0:
277,134,13854,6,0,L|272:296,1,155.999992858887,0|2,1:2|0:0,0:0:0:0:
255,311,14207,1,8,0:0:0:0:
172,361,14383,1,8,0:0:0:0:
109,290,14559,2,0,L|29:278,1,80,0|2,0:0|0:0,0:0:0:0:
29,278,14824,1,2,0:0:0:0:
29,278,14912,1,8,0:0:0:0:
114,197,15089,1,2,0:0:0:0:
14,140,15265,6,0,P|7:95|25:22,1,120,0|2,1:0|0:0,0:0:0:0:
54,28,15618,2,0,P|103:36|134:38,1,80,8|8,0:0|0:0,0:0:0:0:
211,51,15971,1,2,0:3:0:0:
211,51,16148,1,8,0:1:0:0:
196,126,16324,1,2,0:3:0:0:
196,126,16677,6,0,P|191:185|192:245,1,120,0|2,1:0|0:0,0:0:0:0:
174,270,17030,1,8,0:0:0:0:
285,294,17207,1,8,0:0:0:0:
90,331,17383,2,0,P|87:281|86:237,1,80,0|2,0:0|0:0,0:0:0:0:
86,251,17648,1,2,0:0:0:0:
86,251,17736,1,8,0:0:0:0:
187,370,17912,1,2,0:0:0:0:
339,164,18089,6,0,P|334:98|326:37,1,103.999995239258,4|0,1:0|0:0,0:0:0:0:
169,140,18442,2,0,P|174:74|182:13,1,103.999995239258,4|0,1:2|0:0,0:0:0:0:
408,237,18795,1,4,1:0:0:0:
493,209,18971,1,8,0:0:0:0:
493,209,19148,1,8,0:0:0:0:
493,209,19501,6,0,L|326:178,1,155.999992858887,0|2,1:0|0:0,0:0:0:0:
321,153,19854,1,8,0:0:0:0:
242,212,20030,1,8,0:0:0:0:
301,280,20207,2,0,P|306:329|303:368,1,80,0|2,0:0|0:0,0:0:0:0:
304,359,20471,1,2,0:0:0:0:
304,359,20559,1,8,0:0:0:0:
160,267,20736,1,2,0:0:0:0:
160,267,20912,6,0,P|158:210|171:141,1,120,0|2,1:0|0:0,0:0:0:0:
172,111,21265,2,0,P|131:116|81:112,1,80,8|8,0:0|0:0,0:0:0:0:
8,156,21618,1,2,0:3:0:0:
83,213,21795,1,8,0:1:0:0:
83,213,21971,1,2,0:3:0:0:
243,192,22148,5,0,0:0:0:0:
243,192,22236,1,0,0:0:0:0:
243,192,22324,2,0,P|230:111|225:55,1,120,0|2,1:0|0:0,0:0:0:0:
217,40,22677,2,0,P|260:37|307:31,1,80,8|8,0:0|0:0,0:0:0:0:
358,113,23030,1,0,1:0:0:0:
426,38,23207,1,2,0:0:0:0:
426,38,23295,1,2,0:0:0:0:
426,38,23383,2,0,P|464:44|510:46,1,80,8|8,0:0|0:0,0:0:0:0:
436,117,23736,6,0,P|388:140|357:204,1,120,4|2,0:2|0:0,0:0:0:0:
353,228,24089,1,8,0:0:0:0:
256,217,24265,2,0,P|303:237|351:348,1,160,12|8,0:0|1:0,0:0:0:0:
351,329,24795,1,2,0:3:0:0:
259,95,24971,1,8,1:0:0:0:
259,95,25059,1,0,1:0:0:0:
259,95,25148,6,0,P|206:80|117:84,1,120,8|2,1:0|0:0,0:0:0:0:
110,87,25501,1,10,0:0:0:0:
16,177,25677,2,0,P|65:194|176:180,1,160,12|8,0:0|1:0,0:0:0:0:
177,209,26118,1,2,0:0:0:0:
184,236,26207,1,8,0:0:0:0:
277,300,26383,1,8,1:0:0:0:
205,378,26559,5,8,1:0:0:0:
112,325,26736,1,2,0:0:0:0:
112,325,26824,1,0,0:0:0:0:
112,325,26912,2,0,P|100:272|101:242,1,80,8|8,0:0|0:0,0:0:0:0:
250,73,27265,2,0,P|276:121|285:214,1,120,2|2,0:0|0:0,0:0:0:0:
306,209,27618,2,0,P|263:209|221:216,1,80,8|2,0:0|0:0,0:0:0:0:
224,242,27883,1,2,0:0:0:0:
225,269,27971,5,8,1:0:0:0:
391,330,28148,1,2,0:0:0:0:
465,190,28324,2,0,P|470:144|474:106,1,80,8|8,0:0|0:0,0:0:0:0:
345,19,28677,2,0,P|350:63|352:110,1,80,0|8,0:0|1:0,0:0:0:0:
351,98,28942,1,2,0:0:0:0:
351,98,29030,1,8,0:0:0:0:
366,192,29207,1,8,1:0:0:0:
258,369,29383,5,4,1:0:0:0:
258,369,29736,1,4,1:2:0:0:
258,369,30089,1,2,3:0:0:0:
261,289,30265,1,8,0:0:0:0:
268,209,30442,1,8,0:0:0:0:
268,209,30795,6,0,P|262:164|265:82,1,120,8|2,1:0|0:0,0:0:0:0:
269,55,31148,1,8,0:0:0:0:
174,26,31324,2,0,P|87:57|2:38,1,160,12|8,0:0|1:0,0:0:0:0:
21,46,31765,1,2,0:0:0:0:
21,46,31854,1,8,0:0:0:0:
124,144,32030,5,8,1:0:0:0:
36,205,32207,2,0,P|35:246|41:291,1,80,0|2,1:0|0:0,0:0:0:0:
39,284,32471,1,2,0:0:0:0:
39,284,32559,1,8,0:0:0:0:
116,362,32736,1,8,0:0:0:0:
198,296,32912,2,0,P|203:233|192:162,1,120,2|2,0:0|0:0,0:0:0:0:
191,146,33265,2,0,P|239:149|273:146,1,80,8|2,0:0|0:0,0:0:0:0:
270,146,33530,1,0,0:0:0:0:
270,146,33618,5,8,1:0:0:0:
357,107,33795,1,2,0:0:0:0:
307,29,33971,1,8,0:0:0:0:
473,228,34148,5,10,0:0:0:0:
473,228,34236,1,2,0:0:0:0:
473,228,34324,1,8,1:0:0:0:
386,188,34501,1,2,0:0:0:0:
434,108,34677,1,8,0:0:0:0:
510,152,34854,1,2,0:0:0:0:
394,268,35030,2,0,P|354:276|262:262,1,120,8|0,1:0|0:0,0:0:0:0:
255,235,35383,2,0,P|257:281|262:322,1,80,2|8,1:3|1:0,0:0:0:0:
290,94,35736,1,0,0:0:0:0:
179,197,35912,1,8,1:0:0:0:
324,174,36089,1,2,3:0:0:0:
182,108,36265,1,8,1:0:0:0:
1,261,36442,6,0,P|50:255|141:268,1,120,8|0,1:0|0:0,0:0:0:0:
150,279,36795,1,8,1:0:0:0:
248,363,36971,2,0,B|226:275|284:315|250:183,1,160,8|8,1:0|1:0,0:0:0:0:
255,206,37412,1,0,0:0:0:0:
255,206,37501,1,8,1:0:0:0:
344,225,37677,1,2,0:0:0:0:
497,134,37854,6,0,P|447:146|357:127,1,120,8|0,1:0|0:0,0:0:0:0:
350,114,38207,1,8,1:0:0:0:
405,342,38383,2,0,P|433:291|524:251,1,160,8|8,1:0|0:0,0:0:0:0:
344,225,38912,1,12,0:0:0:0:
344,225,39089,1,2,0:0:0:0:
175,360,39265,6,0,P|127:355|54:291,1,120,8|0,1:0|0:0,0:0:0:0:
48,282,39618,1,8,1:0:0:0:
169,134,39795,2,0,P|102:134|32:199,1,160,8|8,1:0|1:0,0:0:0:0:
146,244,40324,1,8,1:0:0:0:
256,130,40501,1,2,0:0:0:0:
256,130,40589,1,2,0:0:0:0:
256,130,40677,6,0,P|261:73|261:-3,1,120,8|0,1:0|0:0,0:0:0:0:
235,20,41030,1,8,1:0:0:0:
331,161,41207,2,0,P|334:207|341:260,1,80,8|0,1:0|0:0,0:0:0:0:
253,347,41559,1,8,0:0:0:0:
253,347,41648,1,0,0:0:0:0:
253,347,41736,2,0,P|250:301|243:248,1,80,12|8,0:0|1:0,0:0:0:0:
31,212,42089,6,0,P|28:169|44:84,1,120,8|0,1:0|0:0,0:0:0:0:
67,63,42442,1,8,1:0:0:0:
194,167,42618,2,0,P|202:222|196:332,1,160,8|8,1:0|1:0,0:0:0:0:
178,347,43059,1,0,0:0:0:0:
151,357,43148,2,0,P|103:351|66:350,1,80,8|2,1:0|0:0,0:0:0:0:
296,230,43501,6,0,P|295:177|307:91,1,120,8|0,1:0|0:0,0:0:0:0:
313,74,43854,1,8,1:0:0:0:
493,196,44030,2,0,P|494:144|477:37,1,160,8|8,1:0|1:0,0:0:0:0:
398,19,44559,1,8,1:0:0:0:
211,188,44736,1,2,0:0:0:0:
211,188,44824,1,2,0:0:0:0:
211,188,44912,6,0,P|216:230|221:293,1,80,4|0,1:2|0:0,0:0:0:0:
248,109,45265,2,0,P|280:92|323:67,1,80,0|8,1:0|1:1,0:0:0:0:
163,109,45618,2,0,P|130:91|86:66,1,80,0|2,0:0|0:3,0:0:0:0:
28,34,45971,1,2,0:3:0:0:
293,186,46148,1,0,0:0:0:0:
293,186,46236,1,0,0:0:0:0:
293,186,46324,6,0,P|337:191|401:180,1,80,4|0,1:2|0:0,0:0:0:0:
498,233,46677,1,0,1:0:0:0:
450,310,46854,2,0,P|459:268|441:144,1,160,8|2,1:0|0:3,0:0:0:0:
421,67,47383,1,2,0:3:0:0:
421,67,47559,1,2,0:0:0:0:
268,268,47736,6,0,P|272:311|276:371,1,80,12|0,1:3|0:3,0:0:0:0:
348,247,48089,1,8,0:0:0:0:
222,180,48265,2,0,L|225:140|228:100,1,80,10|2,0:0|0:0,0:0:0:0:
324,148,48618,1,8,0:3:0:0:
168,271,48795,2,0,P|164:321|162:358,1,80,10|10,0:0|0:3,0:0:0:0:
162,350,49059,1,0,0:0:0:0:
162,350,49148,1,10,0:3:0:0:
62,211,49324,5,2,0:0:0:0:
62,211,49412,1,0,0:0:0:0:
62,211,49501,2,0,P|56:158|54:122,1,80,8|8,0:0|0:0,0:0:0:0:
71,293,49854,1,2,0:0:0:0:
145,156,50030,1,8,1:0:0:0:
145,156,50118,1,0,0:0:0:0:
145,156,50207,2,0,P|141:97|139:67,1,80,8|2,1:0|0:0,0:0:0:0:
254,278,50559,6,0,P|251:317|251:357,1,80,12|0,1:3|0:3,0:0:0:0:
359,273,50912,1,8,0:0:0:0:
459,185,51089,2,0,P|461:224|461:264,1,80,8|2,0:0|0:0,0:0:0:0:
362,174,51442,1,8,0:3:0:0:
264,75,51618,2,0,P|261:114|261:154,1,80,10|8,0:0|0:3,0:0:0:0:
261,154,51883,1,0,0:0:0:0:
261,154,51971,1,10,0:3:0:0:
167,31,52148,5,2,0:0:0:0:
167,31,52236,1,0,0:0:0:0:
167,31,52324,2,0,P|166:80|168:117,1,80,8|8,0:0|0:0,0:0:0:0:
188,197,52677,1,2,0:0:0:0:
220,352,52854,1,8,1:0:0:0:
220,352,52942,1,0,0:0:0:0:
220,352,53030,2,0,P|221:303|219:266,1,80,8|0,1:0|0:0,0:0:0:0:
52,215,53383,6,0,P|48:163|58:47,1,160,4|2,1:3|0:0,0:0:0:0:
316,135,53912,2,0,P|324:214|320:294,1,160,4|0,0:0|0:0,0:0:0:0:
306,373,54442,1,8,1:0:0:0:
208,165,54618,5,0,0:0:0:0:
208,165,54707,1,0,0:0:0:0:
208,165,54795,2,0,P|214:117|217:80,1,80,4|0,0:3|0:0,0:0:0:0:
182,9,55148,1,0,0:0:0:0:
93,16,55324,2,0,P|83:79|78:181,1,160,4|0,0:0|0:0,0:0:0:0:
314,125,55854,2,0,P|310:77|302:38,1,80,8|0,1:0|0:0,0:0:0:0:
159,242,56207,6,0,P|152:273|151:294,1,40,4|0,0:0|2:0,0:0:0:0:
363,288,56559,2,0,P|370:319|371:340,1,40,4|0,0:0|2:0,0:0:0:0:
195,150,56912,1,0,1:0:0:0:
346,101,57089,1,4,1:2:0:0:
346,101,57442,1,4,1:2:0:0:
346,101,57795,5,0,1:0:0:0:
69,182,57971,1,4,0:0:0:0:
434,222,58148,1,0,1:0:0:0:
256,316,58324,1,4,1:2:0:0:
256,316,59030,6,0,P|259:260|237:138,1,160,4|8,1:0|1:0,0:0:0:0:
210,69,59559,1,2,0:3:0:0:
210,69,59648,1,2,0:3:0:0:
210,69,59736,2,0,P|252:68|294:57,1,80,0|4,0:0|0:3,0:0:0:0:
350,131,60089,1,8,1:0:0:0:
414,195,60265,6,0,P|402:133|411:36,1,160,4|0,0:3|0:0,0:0:0:0:
488,23,60795,1,8,1:0:0:0:
339,220,60971,1,2,0:3:0:0:
339,220,61059,1,2,0:3:0:0:
339,220,61148,2,0,P|323:258|323:302,1,80,4|0,0:3|0:0,0:0:0:0:
488,367,61501,2,0,P|486:327|470:290,1,80,8|0,1:0|0:0,0:0:0:0:
256,178,61854,6,0,P|189:186|113:171,1,120,4|0,0:3|0:0,0:0:0:0:
121,195,62207,1,8,1:0:0:0:
15,229,62383,2,0,P|70:222|162:302,1,160,4|0,0:0|0:0,0:0:0:0:
394,305,62912,5,8,1:0:0:0:
288,289,63089,2,0,P|195:298|149:351,1,160,4|2,0:0|0:3,0:0:0:0:
15,104,63618,1,8,1:0:0:0:
116,139,63795,1,2,0:3:0:0:
116,139,63883,1,2,0:3:0:0:
116,139,63971,2,0,P|135:169|152:226,1,80,4|0,0:3|0:0,0:0:0:0:
157,296,64324,1,8,1:0:0:0:
157,296,64501,1,0,0:0:0:0:
27,183,64677,6,0,P|25:129|87:31,1,160,4|8,0:3|1:0,0:0:0:0:
151,31,65207,1,2,0:3:0:0:
303,193,65383,2,0,P|269:189|221:188,1,80
279,105,65736,2,0,P|313:109|361:110,1,80,8|0,1:0|0:0,0:0:0:0:
386,103,66001,1,0,0:0:0:0:
412,93,66089,6,0,P|441:146|427:236,1,120,4|0,0:3|0:0,0:0:0:0:
420,224,66442,1,8,1:0:0:0:
420,224,66618,1,2,0:3:0:0:
201,92,66795,2,0,P|203:57|205:1,1,80
258,221,67148,2,0,P|259:266|261:300,1,80,8|0,1:0|0:0,0:0:0:0:
42,177,67501,6,0,L|176:168,1,120,4|0,1:0|0:0,0:0:0:0:
174,189,67854,1,8,1:0:0:0:
467,212,68030,2,0,L|333:203,1,120,4|0,0:3|0:0,0:0:0:0:
335,224,68383,1,8,1:0:0:0:
163,293,68559,1,2,0:3:0:0:
256,358,68736,6,0,B|236:276|283:298|249:193,1,160,4|2,1:0|0:3,0:0:0:0:
251,200,69177,1,2,0:3:0:0:
251,200,69265,1,8,1:0:0:0:
278,107,69442,1,0,0:0:0:0:
163,138,69618,1,4,0:3:0:0:
374,179,69795,1,2,0:3:0:0:
168,20,69971,6,0,P|149:95|56:144,1,180.000006866455,4|0,0:0|0:0,0:0:0:0:
31,139,70324,6,0,P|44:199|46:240,1,80,4|2,1:0|0:0,0:0:0:0:
189,254,70677,1,8,1:0:0:0:
88,354,70854,1,2,0:3:0:0:
88,354,70942,1,2,0:3:0:0:
88,354,71030,2,0,P|92:314|102:275,1,80,0|2,0:0|0:0,0:0:0:0:
203,358,71383,1,8,1:0:0:0:
19,232,71559,6,0,P|11:159|3:51,1,160,4|2,0:3|0:0,0:0:0:0:
90,19,72089,1,8,1:0:0:0:
236,102,72265,1,2,0:3:0:0:
236,102,72354,1,2,0:3:0:0:
236,102,72442,2,0,P|234:151|235:191,1,80,0|2,0:0|0:0,0:0:0:0:
138,123,72795,1,8,1:0:0:0:
182,27,72971,1,0,0:0:0:0:
343,258,73148,6,0,P|283:266|223:266,1,120,4|0,0:3|0:0,0:0:0:0:
221,298,73501,1,8,1:0:0:0:
430,346,73677,2,0,P|429:279|439:172,1,160,4|2,0:3|0:0,0:0:0:0:
448,100,74207,1,8,1:0:0:0:
321,23,74383,6,0,P|324:81|328:189,1,160,4|2,0:3|0:0,0:0:0:0:
448,100,74912,1,8,1:0:0:0:
238,89,75089,1,2,0:3:0:0:
238,89,75177,1,2,0:3:0:0:
238,89,75265,2,0,P|191:98|153:103,1,80,2|2,0:3|0:0,0:0:0:0:
29,17,75618,2,0,P|68:22|107:30,1,80,8|0,1:0|0:0,0:0:0:0:
179,236,75971,6,0,P|106:188|21:197,1,160,4|0,1:3|0:0,0:0:0:0:
330,208,76501,2,0,P|403:160|488:169,1,160,4|2,0:0|0:0,0:0:0:0:
259,335,77030,2,0,P|256:286|259:248,1,80,8|0,1:0|0:0,0:0:0:0:
254,227,77295,1,0,0:0:0:0:
254,199,77383,5,4,1:3:0:0:
286,109,77559,1,2,0:0:0:0:
222,46,77736,1,0,0:0:0:0:
185,126,77912,2,0,L|372:140,1,160,4|2,0:0|0:0,0:0:0:0:
483,197,78442,1,8,1:0:0:0:
330,231,78618,1,0,0:0:0:0:
496,303,78795,5,4,0:0:0:0:
419,261,78971,1,2,0:0:0:0:
378,339,79148,1,8,1:0:0:0:
425,271,79324,1,8,1:0:0:0:
498,147,79501,5,0,0:0:0:0:
393,82,79677,1,2,0:0:0:0:
318,173,79854,1,8,1:0:0:0:
398,91,80030,1,0,0:3:0:0:
429,251,80207,5,8,1:0:0:0:
306,93,80383,1,2,0:3:0:0:
170,198,80559,1,8,1:0:0:0:
310,99,80736,1,8,1:0:0:0:
270,298,80912,6,0,P|218:300|183:302,1,80,4|2,0:0|0:3,0:0:0:0:
106,308,81265,1,8,0:1:0:0:
106,308,84442,6,0,P|106:249|92:162,1,120,8|0,0:3|0:0,0:0:0:0:
110,161,84795,1,0,0:0:0:0:
22,104,84971,2,0,P|99:121|178:112,1,160,8|0,0:3|0:0,0:0:0:0:
178,112,85412,1,0,0:0:0:0:
178,112,85501,1,0,0:0:0:0:
232,37,85677,1,0,0:0:0:0:
293,255,85854,6,0,P|285:184|299:112,1,120,8|0,0:3|0:0,0:0:0:0:
299,105,86207,1,0,0:0:0:0:
225,324,86383,2,0,P|206:264|104:218,1,160,8|2,0:3|0:0,0:0:0:0:
49,226,86912,1,2,0:0:0:0:
12,295,87089,1,2,0:3:0:0:
218,97,87265,6,0,P|157:128|88:125,1,120,8|0,0:3|0:0,0:0:0:0:
71,124,87618,1,0,0:0:0:0:
243,185,87795,2,0,P|303:187|425:195,1,160,8|0,0:3|0:0,0:0:0:0:
402,193,88236,1,0,0:0:0:0:
402,193,88324,1,0,0:0:0:0:
186,297,88501,1,2,0:0:0:0:
186,297,88854,6,0,L|79:300,1,103.999995239258,4|0,0:0|0:0,0:0:0:0:
330,118,89207,2,0,L|455:125,1,103.999995239258,4|0,0:0|0:0,0:0:0:0:
387,300,89559,5,8,1:0:0:0:
131,174,89736,1,8,1:0:0:0:
387,300,89912,1,6,0:0:0:0:
290,227,90089,6,0,P|303:168|280:83,1,120,8|0,0:3|0:0,0:0:0:0:
283,81,90442,1,0,0:0:0:0:
97,14,90618,2,0,P|68:55|89:168,1,160,8|0,0:3|0:0,0:0:0:0:
96,182,91059,1,0,0:0:0:0:
112,205,91148,2,0,P|156:209|198:202,1,80
222,269,91501,6,0,P|232:211|207:118,1,120,8|0,0:3|0:0,0:0:0:0:
206,116,91854,1,0,0:0:0:0:
2,142,92030,2,0,P|-7:240|8:311,1,160,8|2,0:3|0:0,0:0:0:0:
106,353,92559,1,2,0:0:0:0:
106,353,92736,1,2,0:3:0:0:
279,75,92912,6,0,P|213:96|137:96,1,120,8|0,0:3|0:0,0:0:0:0:
134,97,93265,1,0,0:0:0:0:
335,140,93442,2,0,P|387:133|490:185,1,160,8|2,0:3|0:0,0:0:0:0:
482,176,93883,1,0,0:0:0:0:
482,176,93971,1,2,0:0:0:0:
500,262,94148,1,2,0:0:0:0:
255,56,94324,6,0,L|262:12,3,40,2|0|0|0,0:0|0:0|0:0|0:0,0:0:0:0:
168,153,94677,2,0,L|132:181,3,40,8|0|0|0,1:0|0:0|0:0|0:0,0:0:0:0:
328,187,95030,2,0,L|350:226,3,40,2|0|8|0,0:0|0:0|1:0|0:0,0:0:0:0:
253,132,95383,1,8,1:0:0:0:
253,132,95559,1,4,0:0:0:0:
252,366,95736,6,0,L|245:208,1,155.999992858887,0|2,1:0|0:0,0:0:0:0:
217,200,96089,1,8,0:0:0:0:
329,295,96265,1,8,0:0:0:0:
159,361,96442,2,0,P|163:320|164:278,1,80
164,281,96707,1,2,0:0:0:0:
164,281,96795,1,8,0:0:0:0:
252,366,96971,1,2,0:0:0:0:
334,186,97148,6,0,P|390:196|472:186,1,120,0|2,1:0|0:0,0:0:0:0:
479,169,97501,2,0,P|476:221|479:260,1,80,8|8,0:0|0:0,0:0:0:0:
286,97,97854,1,2,0:3:0:0:
368,69,98030,1,8,0:1:0:0:
447,41,98207,1,2,0:3:0:0:
243,179,98383,5,0,0:0:0:0:
243,179,98471,1,0,0:0:0:0:
243,179,98559,2,0,L|112:160,1,120,0|2,1:0|0:0,0:0:0:0:
89,154,98912,1,8,0:0:0:0:
12,202,99089,1,8,0:0:0:0:
70,272,99265,2,0,P|103:264|151:256,1,80
148,256,99530,1,2,0:0:0:0:
148,256,99618,1,8,0:0:0:0:
228,308,99795,1,2,0:0:0:0:
127,41,99971,6,0,L|11:66,1,103.999995239258,4|0,1:0|0:0,0:0:0:0:
368,259,100324,2,0,L|484:234,1,103.999995239258,4|0,1:2|0:0,0:0:0:0:
234,182,100677,1,4,1:0:0:0:
277,266,100854,1,8,0:0:0:0:
277,266,101030,1,8,0:0:0:0:
277,266,101383,6,0,P|277:203|288:124,1,120,0|2,1:0|0:0,0:0:0:0:
290,111,101736,1,8,0:0:0:0:
257,27,101912,1,8,0:0:0:0:
170,60,102089,2,0,P|170:105|168:147,1,80
168,139,102354,1,2,0:0:0:0:
168,139,102442,1,8,0:0:0:0:
361,249,102618,1,2,0:0:0:0:
476,49,102795,6,0,P|412:44|344:46,1,120,0|2,1:0|0:0,0:0:0:0:
331,64,103148,1,8,0:0:0:0:
328,146,103324,1,8,0:0:0:0:
429,249,103501,1,2,0:3:0:0:
497,217,103677,1,8,0:1:0:0:
479,144,103854,1,2,0:3:0:0:
405,175,104030,1,2,0:0:0:0:
345,342,104207,6,0,P|390:337|481:348,1,120,0|2,1:0|0:0,0:0:0:0:
482,315,104559,1,8,0:0:0:0:
299,270,104736,1,8,0:0:0:0:
299,270,104824,1,0,0:0:0:0:
299,270,104912,2,0,P|242:275|214:276,1,80,0|0,1:0|0:0,0:0:0:0:
191,277,105177,1,2,0:0:0:0:
163,275,105265,1,8,0:0:0:0:
88,346,105442,1,10,0:0:0:0:
20,258,105618,6,0,P|17:206|6:117,1,120,8|0,1:0|0:0,0:0:0:0:
16,106,105971,1,8,1:0:0:0:
106,26,106148,2,0,P|100:102|101:198,1,160,8|8,1:0|1:0,0:0:0:0:
102,209,106589,1,0,0:0:0:0:
107,232,106677,2,0,P|157:238|193:243,1,80,2|8,3:0|1:0,0:0:0:0:
402,57,107030,6,0,P|352:51|316:46,1,80,4|2,1:0|0:0,0:0:0:0:
217,27,107383,1,8,0:0:0:0:
384,144,107559,1,10,0:0:0:0:
384,144,107648,1,0,0:0:0:0:
384,144,107736,2,0,P|426:133|468:127,1,80,2|8,0:3|1:0,0:0:0:0:
502,53,108089,1,8,0:0:0:0:
224,162,108265,5,8,1:0:0:0:
224,162,108354,1,0,0:0:0:0:
224,162,108442,2,0,P|225:213|224:252,1,80,4|2,0:3|0:0,0:0:0:0:
227,333,108795,1,8,0:0:0:0:
321,190,108971,1,10,0:0:0:0:
321,190,109060,1,0,0:0:0:0:
321,190,109148,2,0,P|320:139|325:67,1,120,2|2,0:3|0:0,0:0:0:0:
326,35,109501,2,0,P|276:35|236:30,1,80,8|2,0:0|0:0,0:0:0:0:
377,270,109854,6,0,P|427:270|467:275,1,80,4|2,0:3|0:0,0:0:0:0:
456,273,110118,1,2,0:0:0:0:
456,273,110207,1,8,0:0:0:0:
321,190,110383,2,0,P|279:200|161:184,1,160,8|0,0:0|0:0,0:0:0:0:
164,185,110824,1,2,0:0:0:0:
164,185,110912,1,8,0:0:0:0:
72,224,111089,1,2,0:0:0:0:
277,361,111265,6,0,P|272:330|271:302,1,40,4|0,1:0|2:0,0:0:0:0:
25,97,111618,2,0,P|30:128|31:156,1,40,4|0,1:2|2:0,0:0:0:0:
301,40,111971,1,2,0:3:0:0:
227,20,112148,1,10,0:0:0:0:
227,20,112324,1,10,0:0:0:0:
472,363,112677,6,0,P|478:295|483:262,1,80,4|2,0:3|0:0,0:0:0:0:
474,204,113030,1,8,0:0:0:0:
353,116,113207,1,8,0:0:0:0:
353,116,113295,1,0,0:0:0:0:
353,116,113383,2,0,P|357:155|360:195,1,80,2|2,0:3|0:0,0:0:0:0:
387,278,113736,1,8,0:0:0:0:
441,139,113912,1,2,0:0:0:0:
441,139,114001,1,0,0:0:0:0:
441,139,114089,6,0,P|443:72|438:13,1,120,4|2,0:3|0:0,0:0:0:0:
416,14,114442,1,8,0:0:0:0:
282,269,114618,1,8,0:0:0:0:
282,269,114707,1,0,0:0:0:0:
282,269,114795,2,0,P|295:342|298:372,1,80,2|2,0:3|0:0,0:0:0:0:
361,204,115148,1,8,0:0:0:0:
258,183,115324,1,2,0:0:0:0:
258,183,115412,1,0,0:0:0:0:
258,183,115501,6,0,P|252:104|258:59,1,120,4|0,1:3|0:0,0:0:0:0:
256,37,115854,2,0,P|211:37|173:36,1,80,8|8,0:0|0:0,0:0:0:0:
86,31,116207,1,4,1:3:0:0:
14,131,116383,1,2,0:0:0:0:
14,131,116471,1,2,0:0:0:0:
14,131,116559,2,0,P|53:130|93:130,1,80,8|8,0:0|0:0,0:0:0:0:
215,278,116912,6,0,P|175:239|98:230,1,120,4|2,1:3|0:3,0:0:0:0:
80,234,117265,1,8,0:0:0:0:
310,87,117442,2,0,P|268:131|196:147,1,120,4|0,0:0|0:0,0:0:0:0:
176,147,117795,1,8,1:0:0:0:
84,144,117971,1,2,3:0:0:0:
18,79,118148,1,8,1:0:0:0:
282,207,118324,6,0,P|323:209|391:218,1,90.0000034332277,12|0,0:3|0:0,0:0:0:0:
382,237,118677,1,2,0:0:0:0:
437,177,118854,2,0,P|427:233|423:308,1,120.000004577637,8|0,0:3|0:0,0:0:0:0:
421,369,119383,1,2,0:0:0:0:
370,138,119559,5,0,0:0:0:0:
370,138,119648,1,0,0:0:0:0:
370,138,119736,2,0,P|366:96|361:55,1,60.0000022888184,8|0,0:3|0:0,0:0:0:0:
323,15,120089,1,2,0:0:0:0:
273,168,120265,2,0,P|279:135|286:106,1,60.0000022888184,8|2,0:3|0:3,0:0:0:0:
277,86,120530,1,2,0:3:0:0:
185,28,120707,1,2,0:3:0:0:
194,53,120795,1,2,0:0:0:0:
161,138,120971,1,0,0:0:0:0:
101,61,121148,6,0,P|69:66|14:95,1,90.0000034332277,12|0,0:3|0:0,0:0:0:0:
9,120,121501,1,2,0:0:0:0:
13,219,121677,2,0,P|52:228|150:214,1,120.000004577637,8|0,0:3|0:0,0:0:0:0:
216,188,122207,5,2,0:0:0:0:
256,107,122383,1,0,0:0:0:0:
256,107,122471,1,0,0:0:0:0:
256,107,122559,6,0,P|254:72|250:35,1,60.0000022888184,8|0,0:3|0:0,0:0:0:0:
312,197,122912,1,2,0:0:0:0:
394,133,123089,2,0,P|396:98|400:61,1,60.0000022888184,8|0,0:3|0:0,0:0:0:0:
477,205,123442,1,8,0:0:0:0:
394,256,123618,1,12,0:0:0:0:
485,300,123795,1,8,1:0:0:0:
477,205,123971,6,0,P|474:160|477:123,1,60.0000022888184,12|8,0:3|1:0,0:0:0:0:
389,335,124324,1,8,0:3:0:0:
297,132,124501,2,0,P|299:178|302:210,1,60.0000022888184,8|8,1:0|0:3,0:0:0:0:
219,346,124854,2,0,P|217:326|214:313,2,30.0000011444092,2|2|0,0:3|0:3|0:0,0:0:0:0:
165,214,125207,5,2,0:0:0:0:
165,214,125295,1,0,0:0:0:0:
165,214,125383,2,0,P|166:178|170:140,1,60.0000022888184,12|8,0:3|1:0,0:0:0:0:
116,315,125736,1,8,0:3:0:0:
42,127,125912,2,0,P|46:166|47:200,1,60.0000022888184,8|8,1:0|0:3,0:0:0:0:
39,271,126265,1,8,1:0:0:0:
39,271,126354,1,0,0:0:0:0:
39,271,126442,1,8,0:3:0:0:
28,351,126618,1,8,1:0:0:0:
109,90,126795,6,0,P|109:62|114:10,1,60.0000022888184,12|8,0:3|1:0,0:0:0:0:
111,30,127059,1,0,0:0:0:0:
111,30,127148,1,8,0:3:0:0:
190,131,127324,1,8,1:0:0:0:
98,189,127501,1,8,0:3:0:0:
23,101,127677,1,8,1:0:0:0:
23,101,127765,1,0,0:0:0:0:
23,101,127854,1,8,0:3:0:0:
117,34,128030,1,8,1:0:0:0:
216,215,128207,5,12,0:3:0:0:
193,222,128295,1,2,0:0:0:0:
174,236,128383,1,8,1:0:0:0:
159,255,128471,1,2,0:0:0:0:
153,278,128559,2,0,P|150:320|156:347,1,60.0000022888184,8|8,0:3|1:0,0:0:0:0:
296,246,128912,2,0,P|299:204|293:177,1,60.0000022888184,8|8,0:3|0:0,0:0:0:0:
215,99,129265,1,8,0:0:0:0:
253,345,129442,1,2,0:0:0:0:
276,50,129618,6,0,P|319:61|392:68,1,90.0000034332277,4|2,0:3|0:0,0:0:0:0:
393,65,129971,1,8,1:0:0:0:
503,138,130148,2,0,P|458:143|381:173,1,120.000004577637,8|0,1:0|0:0,0:0:0:0:
388,169,130589,1,0,0:0:0:0:
388,169,130677,1,8,1:0:0:0:
337,240,130854,1,0,0:0:0:0:
452,30,131030,6,0,P|483:42|514:48,1,60.0000022888184,8|0,0:3|0:0,0:0:0:0:
289,168,131383,1,8,1:0:0:0:
223,107,131559,2,0,P|185:95|96:93,1,120.000004577637,8|8,1:0|1:0,0:0:0:0:
105,91,132001,1,0,0:0:0:0:
105,91,132089,1,8,0:3:0:0:
45,137,132265,1,8,1:0:0:0:
276,33,132442,6,0,P|314:31|386:51,1,90.0000034332277,12|0,3:0|0:0,0:0:0:0:
392,55,132795,1,8,1:0:0:0:
496,146,132971,2,0,P|454:149|397:184,1,90.0000034332277,8|0,1:0|0:0,0:0:0:0:
394,189,133324,1,0,0:0:0:0:
326,265,133501,2,0,P|322:300|322:333,1,60.0000022888184,8|0,1:0|0:0,0:0:0:0:
238,119,133854,6,0,P|245:171|250:217,1,90.0000034332277,8|0,0:3|0:0,0:0:0:0:
246,234,134207,1,8,1:0:0:0:
294,32,134383,2,0,P|242:39|160:34,1,120.000004577637,8|8,1:0|1:0,0:0:0:0:
174,36,134824,1,0,0:0:0:0:
174,36,134912,1,8,0:3:0:0:
50,97,135089,5,8,1:0:0:0:
50,97,135177,1,0,0:0:0:0:
50,97,135265,2,0,P|57:138|67:257,1,136.000002593994,12|0,0:3|0:0,0:0:0:0:
226,371,135795,2,0,P|229:311|247:208,1,160,4|0,0:0|0:0,0:0:0:0:
257,115,136324,1,4,0:3:0:0:
366,357,136501,5,0,0:0:0:0:
366,357,136589,1,0,0:0:0:0:
366,357,136677,2,0,P|364:315|345:217,1,136.000002593994,4|0,0:0|0:0,0:0:0:0:
470,33,137207,2,0,P|455:99|450:204,1,160,4|0,0:3|0:0,0:0:0:0:
450,280,137736,1,4,0:0:0:0:
450,280,137912,1,0,0:0:0:0:
262,22,138089,6,0,L|210:33,1,40,4|0,0:0|2:0,0:0:0:0:
42,202,138442,2,0,L|94:191,1,40,4|0,0:0|2:0,0:0:0:0:
508,339,138795,5,4,0:0:0:0:
270,204,138971,1,0,1:0:0:0:
255,280,139324,5,0,1:0:0:0:
255,280,139677,1,0,1:0:0:0:
487,195,139854,1,4,0:2:0:0:
248,121,140030,1,0,1:0:0:0:
42,202,140207,1,4,1:2:0:0:
42,202,140912,6,0,L|215:192,1,155.999992858887,4|0,1:0|0:0,0:0:0:0:
212,168,141265,2,0,P|214:221|217:261,1,88.000002685547,8|2,1:0|0:3,0:0:0:0:
216,255,141530,1,2,0:3:0:0:
216,255,141618,1,2,0:3:0:0:
303,108,141795,1,0,0:0:0:0:
143,52,141971,1,8,1:0:0:0:
412,51,142148,6,0,P|359:76|221:22,1,176.000005371094,4|2,0:0|0:3,0:0:0:0:
415,147,142677,1,8,1:0:0:0:
494,181,142854,1,2,0:3:0:0:
494,181,142942,1,2,0:3:0:0:
494,181,143030,2,0,P|501:213|502:273,1,88.000002685547,4|2,0:3|0:3,0:0:0:0:
493,288,143295,1,2,0:3:0:0:
475,301,143383,1,4,1:2:0:0:
396,320,143559,1,0,0:0:0:0:
209,261,143736,6,0,P|200:213|228:118,1,132.00000402832,4|0,0:3|0:0,0:0:0:0:
243,103,144089,1,8,1:0:0:0:
395,190,144265,2,0,P|406:245|391:333,1,132.00000402832,4|0,0:3|0:0,0:0:0:0:
372,344,144618,1,2,0:3:0:0:
304,227,144795,1,8,1:0:0:0:
317,78,144971,6,0,B|423:90|386:37|494:48,1,176.000005371094,4|2,0:3|0:3,0:0:0:0:
231,157,145501,2,0,P|224:108|211:64,1,88.000002685547,8|2,1:0|0:3,0:0:0:0:
272,12,145854,1,0,0:0:0:0:
304,227,146030,1,2,0:3:0:0:
304,227,146118,1,2,0:3:0:0:
304,227,146207,2,0,P|292:269|286:312,1,88.000002685547,8|0,1:0|0:0,0:0:0:0:
510,247,146559,6,0,P|458:185|387:163,1,132.00000402832,4|0,0:3|0:0,0:0:0:0:
381,157,146912,1,8,1:0:0:0:
193,276,147089,1,2,0:3:0:0:
316,351,147265,1,0,0:0:0:0:
421,260,147442,1,2,0:3:0:0:
421,260,147530,1,2,0:3:0:0:
421,260,147618,1,8,1:0:0:0:
283,191,147795,1,0,0:0:0:0:
126,353,147971,6,0,P|178:355|225:366,1,88.000002685547,4|0,0:3|0:0,0:0:0:0:
213,362,148236,1,0,0:0:0:0:
213,362,148324,1,8,1:0:0:0:
129,199,148501,1,2,0:3:0:0:
90,272,148677,1,0,0:0:0:0:
247,256,148854,1,2,0:3:0:0:
247,256,148942,1,2,0:3:0:0:
247,256,149030,2,0,P|251:205|253:161,1,88.000002685547,8|0,1:0|0:0,0:0:0:0:
148,76,149383,6,0,P|88:75|-2:70,1,132.00000402832,4|0,1:0|0:0,0:0:0:0:
14,108,149736,1,8,1:0:0:0:
263,42,149912,2,0,P|323:41|413:36,1,132.00000402832,4|0,1:2|0:0,0:0:0:0:
397,74,150265,1,8,1:0:0:0:
165,162,150442,1,0,0:0:0:0:
476,223,150618,6,0,P|400:179|313:183,1,176.000005371094,4|0,1:0|0:0,0:0:0:0:
313,183,151059,1,0,0:0:0:0:
313,183,151148,1,8,1:0:0:0:
358,282,151324,1,8,1:0:0:0:
337,87,151501,1,4,0:3:0:0:
181,182,151677,1,8,1:0:0:0:
71,342,151854,6,0,P|141:354|213:256,1,192,4|0,1:2|0:0,0:0:0:0:
175,258,152207,6,0,L|88:254,1,88.000002685547,4|2,1:0|0:0,0:0:0:0:
267,356,152559,1,8,1:0:0:0:
358,357,152736,1,2,0:3:0:0:
358,357,152824,1,2,0:3:0:0:
358,357,152912,2,0,L|453:349,1,88.000002685547,2|2,0:3|0:0,0:0:0:0:
499,289,153265,1,8,1:0:0:0:
236,195,153442,6,0,P|292:266|394:267,1,176.000005371094,4|2,0:3|0:0,0:0:0:0:
470,257,153971,1,8,1:0:0:0:
204,331,154148,1,2,0:3:0:0:
204,331,154236,1,2,0:3:0:0:
204,331,154324,2,0,L|111:318,1,88.000002685547,2|2,0:3|0:0,0:0:0:0:
17,300,154677,1,8,1:0:0:0:
156,242,154854,1,0,0:0:0:0:
103,106,155030,6,0,P|90:157|14:206,1,132.00000402832,4|0,0:3|0:0,0:0:0:0:
41,228,155383,1,8,1:0:0:0:
291,228,155559,2,0,P|216:162|214:76,1,176.000005371094,4|0,0:3|0:0,0:0:0:0:
211,17,156089,1,8,1:0:0:0:
464,27,156265,6,0,P|482:83|418:174,1,176.000005371094,4|2,0:3|0:0,0:0:0:0:
334,147,156795,1,8,1:0:0:0:
346,62,156971,1,2,0:3:0:0:
346,62,157059,1,2,0:3:0:0:
346,62,157148,1,4,0:3:0:0:
496,214,157324,5,2,0:0:0:0:
468,306,157501,1,8,1:0:0:0:
372,303,157677,1,0,0:0:0:0:
394,205,157854,2,0,P|432:203|492:81,1,176.000005371094,4|0,1:3|0:0,0:0:0:0:
228,41,158383,2,0,P|250:122|330:149,1,176.000005371094,4|0,0:3|0:0,0:0:0:0:
400,102,158912,1,8,1:0:0:0:
146,27,159089,5,0,0:0:0:0:
146,27,159177,1,0,0:0:0:0:
146,27,159265,2,0,P|92:36|35:33,1,88.000002685547,4|0,1:3|0:0,0:0:0:0:
17,98,159618,1,0,0:0:0:0:
83,160,159795,2,0,P|90:226|88:335,1,176.000005371094,4|0,0:3|0:0,0:0:0:0:
1,320,160324,1,8,1:0:0:0:
166,226,160501,1,0,0:0:0:0:
313,301,160677,5,4,1:2:0:0:
222,325,160854,1,0,0:0:0:0:
284,226,161030,1,8,1:0:0:0:
408,275,161207,1,8,1:0:0:0:
334,379,161383,1,0,0:0:0:0:
222,325,161559,1,0,0:0:0:0:
436,352,161736,5,8,1:0:0:0:
508,293,161912,1,0,0:0:0:0:
484,218,162089,1,8,1:0:0:0:
422,185,162265,1,2,0:3:0:0:
368,198,162442,1,8,1:0:0:0:
344,237,162618,1,8,1:0:0:0:
425,275,162795,5,4,1:2:0:0:
483,106,162971,1,2,0:3:0:0:
425,275,163148,1,8,0:1:0:0:
117,119,166324,5,2,0:0:0:0:
150,129,166501,1,0,0:0:0:0:
169,158,166677,1,2,0:3:0:0:
161,192,166854,1,8,0:1:0:0:
127,220,167030,5,2,0:3:0:0:
83,211,167207,1,0,0:0:0:0:
56,175,167383,1,2,0:3:0:0:
64,131,167559,1,0,0:0:0:0:
103,95,167736,5,2,0:3:0:0:
154,105,167912,1,0,0:0:0:0:
189,144,168089,1,2,0:3:0:0:
187,196,168265,1,8,0:1:0:0:
142,238,168442,5,2,0:3:0:0:
80,234,168618,1,0,0:3:0:0:
36,189,168795,1,2,0:3:0:0:
42,127,168971,1,0,0:1:0:0:
150,54,169148,5,0,0:0:0:0:
166,37,169501,6,0,L|368:29,1,167.999994873047,4|0,1:3|0:0,0:0:0:0:
370,17,169854,6,0,P|371:55|375:116,1,88.000002685547,2|0,0:3|0:0,0:0:0:0:
251,228,170207,1,8,1:0:0:0:
289,113,170383,1,0,0:0:0:0:
370,258,170559,6,0,P|369:313|368:350,1,88.000002685547,4|0,0:3|0:0,0:0:0:0:
220,150,170912,2,0,P|156:160|73:148,1,132.00000402832,8|0,1:0|0:0,0:0:0:0:
61,133,171265,1,2,0:0:0:0:
7,226,171442,1,2,0:3:0:0:
194,258,171618,5,8,1:0:0:0:
142,75,171795,1,8,1:0:0:0:
81,243,171971,6,0,P|95:317|105:389,1,132.00000402832,4|0,0:3|0:0,0:0:0:0:
139,369,172324,1,8,1:0:0:0:
280,269,172501,1,2,0:0:0:0:
223,375,172677,1,2,0:3:0:0:
233,150,172854,1,2,0:3:0:0:
430,289,173030,1,8,1:0:0:0:
280,269,173207,6,0,P|286:180|291:89,1,176.000005371094,4|2,0:3|0:0,0:0:0:0:
248,23,173736,2,0,P|193:21|143:16,1,88.000002685547,8|8,1:0|1:0,0:0:0:0:
160,18,174001,1,2,0:3:0:0:
160,18,174089,1,2,0:3:0:0:
53,83,174265,1,2,0:0:0:0:
170,155,174442,1,8,1:0:0:0:
170,155,174618,1,2,0:3:0:0:
422,42,174795,6,0,L|369:33,1,47.9999985351563,2|8,0:3|0:1,0:0:0:0:
494,73,175148,6,0,P|421:80|369:164,1,167.999994873047,4|0,1:3|0:0,0:0:0:0:
371,184,175501,2,0,L|468:202,1,88.000002685547,2|2,0:3|0:3,0:0:0:0:
242,169,175854,1,8,1:0:0:0:
437,278,176030,1,0,0:0:0:0:
296,104,176207,6,0,L|300:17,1,88.000002685547,4|2,0:3|0:3,0:0:0:0:
165,127,176559,2,0,L|176:295,1,132.00000402832,8|0,1:0|0:0,0:0:0:0:
158,282,176912,2,0,L|255:293,1,88.000002685547,2|2,0:0|0:3,0:0:0:0:
54,269,177265,1,8,1:0:0:0:
337,369,177442,1,8,1:0:0:0:
21,368,177618,6,0,P|15:299|-2:177,1,176.000005371094,8|4,1:3|0:3,0:0:0:0:
298,281,178148,1,2,0:3:0:0:
298,281,178236,1,2,0:3:0:0:
298,281,178324,2,0,P|304:212|321:90,1,176.000005371094,8|4,1:3|0:3,0:0:0:0:
101,240,178854,1,2,0:3:0:0:
101,240,178942,1,2,0:3:0:0:
101,240,179030,2,0,P|95:171|78:49,1,176.000005371094,8|4,1:3|0:3,0:0:0:0:
206,218,179559,1,2,0:3:0:0:
206,218,179647,1,2,0:3:0:0:
206,218,179736,2,0,P|212:149|229:27,1,176.000005371094,8|4,0:3|0:3,0:0:0:0:
140,23,180265,5,2,0:3:0:0:
140,23,180354,1,2,0:3:0:0:
140,23,180442,2,0,P|88:18|48:12,1,88.000002685547,4|2,0:3|0:0,0:0:0:0:
304,70,180795,1,8,1:0:0:0:
25,153,180971,2,0,P|67:140|164:130,1,132.00000402832,8|0,1:0|0:0,0:0:0:0:
196,126,181324,1,0,0:0:0:0:
12,68,181501,5,8,1:0:0:0:
12,68,181677,1,0,0:0:0:0:
387,42,181854,5,4,0:0:0:0:
387,42,183265,6,0,P|333:101|345:190,1,160,4|2,0:3|0:3,0:0:0:0:
497,250,183795,2,0,P|500:172|447:115,1,160,10|2,0:3|0:3,0:0:0:0:
254,64,184324,2,0,L|172:75,1,80,2|8,0:3|0:3,0:0:0:0:
174,74,184589,1,0,0:0:0:0:
174,74,184677,5,4,0:0:0:0:
39,144,184854,1,2,0:3:0:0:
39,144,184942,1,0,0:0:0:0:
39,144,185030,1,8,0:3:0:0:
117,20,185207,1,8,0:3:0:0:
112,178,185383,2,0,L|119:316,1,120,8|0,1:0|0:0,0:0:0:0:
117,335,185736,1,8,0:0:0:0:
23,247,185912,1,10,0:0:0:0:
219,142,186089,6,0,L|215:233,1,80,2|8,0:0|0:3,0:0:0:0:
251,220,186354,1,0,0:0:0:0:
284,231,186442,1,10,0:3:0:0:
306,258,186530,1,0,0:0:0:0:
315,292,186618,1,8,0:3:0:0:
240,369,186795,1,4,0:0:0:0:
165,288,186971,1,8,1:0:0:0:
18,161,187148,5,8,0:3:0:0:
97,85,187325,1,8,1:0:0:0:
174,166,187501,1,4,0:3:0:0:
96,242,187677,1,8,0:3:0:0:
96,242,187765,1,0,0:0:0:0:
96,242,187854,2,0,P|98:201|99:156,1,80,8|8,1:0|1:0,0:0:0:0:
256,29,188207,1,4,0:3:0:0:
256,107,188383,1,8,0:3:0:0:
256,107,188471,1,0,0:0:0:0:
256,107,188559,2,0,P|252:150|250:197,1,80,8|6,1:0|1:3,0:0:0:0:
398,336,188912,6,0,L|504:349,2,80,0|8|0,0:0|3:0|1:0,0:0:0:0:
265,291,189442,1,4,0:3:0:0:
265,291,189530,1,0,0:0:0:0:
265,291,189618,2,0,L|185:312,1,80,8|2,1:0|1:3,0:0:0:0:
108,334,189971,1,8,0:0:0:0:
23,353,190148,1,8,0:0:0:0:
204,205,190324,5,8,0:3:0:0:
294,170,190500,1,2,0:3:0:0:
285,78,190677,1,8,1:0:0:0:
187,57,190853,1,8,1:0:0:0:
138,136,191030,1,2,0:3:0:0:
204,205,191207,1,10,0:3:0:0:
204,205,191295,1,0,0:0:0:0:
204,205,191383,2,0,P|213:167|220:127,1,80,8|0,1:0|0:0,0:0:0:0:
29,41,191736,5,4,0:3:0:0:
29,41,191824,1,2,0:3:0:0:
29,41,191912,2,0,P|36:87|45:119,1,80,0|4,0:0|0:3,0:0:0:0:
51,142,192177,1,2,0:0:0:0:
58,164,192265,1,2,0:3:0:0:
12,250,192442,2,0,P|63:252|152:269,1,120,4|0,3:0|0:0,0:0:0:0:
159,241,192795,2,0,P|158:293|160:331,1,80,8|8,1:0|1:0,0:0:0:0:
343,289,193148,5,4,0:3:0:0:
208,178,193324,1,0,0:0:0:0:
280,352,193501,1,8,1:0:0:0:
280,352,193589,1,0,0:0:0:0:
280,352,193677,2,0,B|388:370|337:312|452:330,1,160,8|8,1:0|0:3,0:0:0:0:
485,261,194207,1,8,1:0:0:0:
485,261,194383,1,2,0:3:0:0:
377,22,194559,6,0,P|382:67|387:162,1,120,8|0,0:3|0:0,0:0:0:0:
372,172,194912,2,0,P|414:171|463:173,1,80,8|8,0:0|0:0,0:0:0:0:
498,115,195265,1,8,0:3:0:0:
300,214,195442,2,0,P|252:213|150:217,1,120,8|0,1:0|0:0,0:0:0:0:
154,179,195795,6,0,P|161:233|157:286,1,80,4|0,0:0|0:0,0:0:0:0:
9,195,196148,2,0,P|9:153|99:77,2,160,4|4|2,0:3|0:3|0:3,0:0:0:0:
9,195,196942,1,2,0:3:0:0:
9,195,197030,1,8,0:0:0:0:
83,254,197207,1,8,0:0:0:0:
285,141,197383,6,0,P|285:83|236:23,1,120,8|0,3:0|0:0,0:0:0:0:
228,25,197736,1,8,1:0:0:0:
228,25,197912,1,8,1:0:0:0:
141,140,198089,1,0,0:0:0:0:
264,233,198265,1,8,0:3:0:0:
363,113,198442,1,8,1:0:0:0:
363,113,198530,1,0,0:0:0:0:
363,113,198618,6,0,P|428:112|505:195,1,160,4|0,0:3|0:0,0:0:0:0:
497,171,200207,6,0,P|503:216|506:262,1,80,8|2,0:3|0:0,0:0:0:0:
414,344,200736,2,0,P|408:299|405:253,1,80,2|0,0:0|0:0,0:0:0:0:
390,183,201265,2,0,P|365:187|339:191,1,40,8|0,0:3|0:3,0:0:0:0:
269,203,201618,6,0,P|264:161|262:116,1,80,8|2,0:3|0:0,0:0:0:0:
261,49,202148,1,0,0:0:0:0:
261,49,202324,2,0,P|224:49|175:52,1,80,0|0,0:0|0:0,0:0:0:0:
107,49,202854,1,0,0:0:0:0:
27,32,203030,6,0,P|25:55|29:116,1,80,8|2,0:3|0:0,0:0:0:0:
133,217,203559,2,0,P|135:194|131:133,1,80,2|0,0:0|0:0,0:0:0:0:
25,215,204089,2,0,P|25:241|26:266,1,40,8|0,0:3|0:3,0:0:0:0:
94,371,204442,6,0,P|99:338|100:285,1,80,10|2,0:3|0:0,0:0:0:0:
179,297,204971,2,0,P|219:299|265:303,1,80
341,310,205501,2,0,P|343:279|344:262,1,40,8|0,0:3|0:0,0:0:0:0:
409,373,205854,6,0,P|410:354|432:291,1,80,8|2,0:3|0:0,0:0:0:0:
486,239,206383,1,2,0:0:0:0:
506,155,206559,2,0,P|505:129|487:75,1,80,0|8,0:0|0:3,0:0:0:0:
488,77,207089,1,0,0:0:0:0:
425,27,207265,6,0,P|377:32|331:33,1,80,8|2,0:3|0:0,0:0:0:0:
274,75,207795,2,0,P|222:70|179:66,1,80,2|0,0:0|0:0,0:0:0:0:
116,84,208324,2,0,P|109:51|107:30,1,40,8|0,0:3|0:0,0:0:0:0:
42,132,208677,6,0,L|32:229,1,80,10|0,0:3|0:0,0:0:0:0:
124,329,209207,2,0,L|107:196,1,120.000004577637,2|0,0:3|0:0,0:0:0:0:
463,349,209912,6,0,P|394:351|329:280,1,160,4|0,0:3|1:0,0:0:0:0:
332,290,210354,1,0,1:0:0:0:
332,290,210442,1,4,1:3:0:0:
282,185,210618,1,0,1:0:0:0:
388,129,210795,2,0,P|434:145|470:151,1,80,8|8,0:0|0:0,0:0:0:0:
230,314,211148,6,0,L|44:288,1,180.000006866455,4|0,1:2|0:0,0:0:0:0:
51,289,211501,6,0,L|59:216,1,60
58,158,211854,6,0,L|45:47,1,88.000002685547,4|2,1:0|0:3,0:0:0:0:
47,70,212118,1,2,0:3:0:0:
47,70,212207,1,4,0:3:0:0:
241,144,212383,1,0,0:0:0:0:
117,25,212559,1,8,1:0:0:0:
196,220,212736,6,0,P|245:237|365:220,1,176.000005371094,4|0,0:3|0:0,0:0:0:0:
486,273,213265,1,8,1:0:0:0:
402,348,213442,1,2,0:3:0:0:
402,348,213530,1,2,0:3:0:0:
402,348,213618,2,0,P|353:340|312:349,1,88.000002685547,4|0,0:3|0:0,0:0:0:0:
290,355,213883,1,0,0:0:0:0:
264,362,213971,1,8,1:0:0:0:
395,266,214148,1,0,0:0:0:0:
447,181,214324,6,0,P|440:79|431:27,1,132.00000402832,4|0,0:3|0:0,0:0:0:0:
414,20,214677,1,8,1:0:0:0:
205,62,214854,2,0,P|196:127|194:238,1,176.000005371094,4|0,0:3|0:0,0:0:0:0:
192,316,215383,1,8,1:0:0:0:
366,140,215559,6,0,P|316:139|262:133,1,88.000002685547,4|0,0:3|0:0,0:0:0:0:
395,266,215912,1,2,0:3:0:0:
395,266,216001,1,2,0:3:0:0:
395,266,216089,2,0,P|445:267|499:273,1,88.000002685547,8|0,1:0|0:0,0:0:0:0:
290,258,216442,1,2,0:0:0:0:
425,363,216618,1,2,0:3:0:0:
448,182,216795,1,8,1:0:0:0:
315,373,216971,1,0,0:0:0:0:
367,173,217148,6,0,P|344:125|272:87,1,132.00000402832,4|0,0:3|0:0,0:0:0:0:
249,56,217501,2,0,P|250:103|247:152,1,88.000002685547,8|2,1:0|0:3,0:0:0:0:
244,237,217854,1,2,0:3:0:0:
462,102,218030,1,0,0:0:0:0:
462,102,218118,1,0,0:0:0:0:
462,102,218207,2,0,P|459:58|461:15,1,88.000002685547,8|0,1:0|0:0,0:0:0:0:
171,206,218559,6,0,P|194:158|266:120,1,132.00000402832,4|0,0:3|0:0,0:0:0:0:
289,89,218912,2,0,P|288:136|291:185,1,88.000002685547,8|2,1:0|0:3,0:0:0:0:
365,261,219265,1,2,0:3:0:0:
303,354,219442,1,0,0:0:0:0:
303,354,219530,1,0,0:0:0:0:
303,354,219618,1,8,1:0:0:0:
220,273,219795,1,2,0:3:0:0:
380,354,219971,6,0,L|515:347,1,132.00000402832,4|0,1:0|0:0,0:0:0:0:
500,324,220324,1,8,1:0:0:0:
176,218,220501,2,0,L|41:211,1,132.00000402832,4|0,1:0|0:0,0:0:0:0:
56,188,220854,1,8,1:0:0:0:
369,119,221030,1,8,1:0:0:0:
253,33,221207,6,0,P|257:87|264:220,1,176.000005371094,4|2,1:3|0:3,0:0:0:0:
260,230,221648,1,2,0:3:0:0:
260,256,221736,2,0,P|310:262|350:268,1,88.000002685547,8|8,1:0|1:0,0:0:0:0:
438,289,222089,1,4,1:2:0:0:
438,289,222265,1,0,0:0:0:0:
212,345,222442,6,0,P|131:357|53:284,1,180.000006866455,4|0,0:3|0:0,0:0:0:0:
52,260,222795,6,0,P|48:218|43:157,1,88.000002685547,4|2,1:0|0:0,0:0:0:0:
237,93,223148,1,8,1:0:0:0:
102,47,223324,1,2,0:3:0:0:
102,47,223412,1,2,0:3:0:0:
102,47,223501,1,2,0:3:0:0:
201,165,223677,1,2,0:0:0:0:
170,12,223854,1,8,1:0:0:0:
125,198,224030,6,0,P|172:188|279:266,1,176.000005371094,4|2,0:3|0:0,0:0:0:0:
423,142,224559,1,8,1:0:0:0:
345,93,224736,1,2,0:3:0:0:
345,93,224824,1,2,0:3:0:0:
345,93,224912,2,0,P|314:139|312:171,1,88.000002685547,2|2,0:3|0:0,0:0:0:0:
473,315,225265,2,0,P|484:272|472:230,1,88.000002685547,8|0,1:0|0:0,0:0:0:0:
224,284,225618,6,0,P|286:286|374:299,1,132.00000402832,4|0,0:3|0:0,0:0:0:0:
384,312,225971,1,8,1:0:0:0:
172,353,226148,2,0,P|100:344|37:345,1,132.00000402832,4|0,0:3|0:0,0:0:0:0:
5,359,226501,1,0,0:0:0:0:
273,355,226677,1,8,1:0:0:0:
23,270,226854,6,0,P|19:167|16:88,1,176.000005371094,4|2,0:3|0:0,0:0:0:0:
95,44,227383,1,8,1:0:0:0:
174,102,227559,1,2,0:3:0:0:
174,102,227648,1,2,0:3:0:0:
174,102,227736,1,2,0:3:0:0:
266,89,227912,5,2,0:0:0:0:
190,182,228089,1,8,1:0:0:0:
87,131,228265,1,0,0:0:0:0:
332,49,228442,6,0,B|434:66|401:10|504:30,1,176.000005371094,4|0,0:3|0:0,0:0:0:0:
291,278,228971,2,0,P|259:241|285:120,1,176.000005371094,4|0,0:0|0:0,0:0:0:0:
494,158,229501,1,8,1:0:0:0:
398,271,229677,5,0,0:0:0:0:
398,271,229765,1,0,0:0:0:0:
398,271,229854,2,0,P|393:320|393:360,1,88.000002685547,4|0,1:2|0:0,0:0:0:0:
322,192,230207,1,0,0:0:0:0:
422,76,230383,2,0,P|327:88|232:73,1,176.000005371094,4|0,0:3|0:0,0:0:0:0:
161,27,230912,2,0,L|54:40,1,88.000002685547,8|0,1:0|0:0,0:0:0:0:
8,126,231265,5,4,0:2:0:0:
194,173,231442,1,2,0:0:0:0:
249,85,231618,5,8,1:0:0:0:
74,193,231795,1,8,1:0:0:0:
113,107,231971,5,0,0:0:0:0:
291,207,232148,1,0,0:0:0:0:
165,253,232324,5,8,1:0:0:0:
330,106,232501,1,2,0:0:0:0:
236,80,232677,5,8,1:0:0:0:
426,257,232854,1,2,0:3:0:0:
327,283,233030,5,8,1:0:0:0:
470,90,233207,1,8,1:0:0:0:
511,167,233383,5,4,0:2:0:0:
266,117,233559,1,2,0:3:0:0:
266,117,233736,1,8,0:1:0:0:
266,117,234089,5,4,0:0:0:0:
191,142,234265,1,0,0:0:0:0:
195,221,234442,1,0,0:0:0:0:
267,253,234618,1,0,0:0:0:0:
267,253,234971,5,4,0:0:0:0:
212,195,235148,1,2,0:0:0:0:
133,202,235324,1,0,0:0:0:0:
85,265,235501,1,4,0:0:0:0:
85,265,235677,1,2,0:0:0:0:
85,340,235854,2,0,L|61:158,1,160,4|4,0:3|0:0,0:0:0:0:
423,33,236912,6,0,P|324:46|287:43,1,120,8|0,0:3|0:0,0:0:0:0:
272,35,237265,1,0,0:0:0:0:
206,184,237442,2,0,P|255:135|364:135,1,160,8|0,0:3|0:0,0:0:0:0:
352,148,237883,1,0,0:0:0:0:
360,170,237971,2,0,P|362:206|362:258,1,80
463,358,238324,6,0,P|459:299|471:215,1,120,8|0,0:3|0:0,0:0:0:0:
470,202,238677,1,0,0:0:0:0:
334,351,238854,2,0,P|273:355|170:369,1,160,8|2,0:3|0:0,0:0:0:0:
8,264,239383,1,2,0:0:0:0:
175,368,239559,1,2,0:3:0:0:
242,184,239736,6,0,P|186:204|106:188,1,120,8|0,0:3|0:0,0:0:0:0:
91,181,240089,1,0,0:0:0:0:
19,57,240265,2,0,P|64:36|173:79,1,160,8|0,0:3|0:3,0:0:0:0:
164,68,240707,1,0,0:3:0:0:
164,68,240795,1,0,0:0:0:0:
312,35,240971,1,2,0:3:0:0:
312,35,241324,6,0,L|422:46,1,103.999995239258,4|0,0:0|0:0,0:0:0:0:
136,171,241677,2,0,L|26:182,1,103.999995239258,4|0,0:0|0:0,0:0:0:0:
168,30,242030,5,8,1:0:0:0:
284,206,242207,1,8,1:0:0:0:
168,30,242383,1,4,0:0:0:0:
202,226,242559,6,0,P|204:291|224:376,1,120,8|0,0:3|0:0,0:0:0:0:
244,364,242912,1,0,0:0:0:0:
445,258,243089,2,0,P|446:187|413:88,1,160,8|0,0:3|0:0,0:0:0:0:
426,78,243530,1,0,0:0:0:0:
433,55,243618,2,0,P|389:51|350:46,1,80
196,115,243971,6,0,P|242:106|315:140,1,120,8|0,0:3|0:0,0:0:0:0:
322,162,244324,1,0,0:0:0:0:
189,32,244501,2,0,P|137:38|65:119,1,160,8|2,0:3|0:0,0:0:0:0:
217,222,245030,1,2,0:0:0:0:
0,148,245207,1,2,0:3:0:0:
31,221,245383,6,0,P|37:290|40:352,1,120,8|0,0:3|0:0,0:0:0:0:
37,365,245736,1,0,0:0:0:0:
153,206,245912,2,0,P|203:206|325:195,1,160,8|0,0:3|0:0,0:0:0:0:
312,196,246354,1,0,0:0:0:0:
312,196,246442,1,0,0:0:0:0:
508,282,246618,1,2,0:3:0:0:
508,282,246971,6,0,L|406:308,1,103.999995239258,4|0,0:0|0:0,0:0:0:0:
123,71,247324,2,0,L|225:45,1,103.999995239258,4|0,0:0|0:0,0:0:0:0:
425,130,247677,5,8,1:0:0:0:
198,266,247854,1,8,1:0:0:0:
425,130,248030,1,4,0:0:0:0:
242,355,248207,6,0,P|179:343|104:335,1,120,8|0,0:3|0:0,0:0:0:0:
96,333,248559,1,8,0:3:0:0:
19,245,248736,2,0,P|66:244|136:151,1,160,8|8,1:0|0:3,0:0:0:0:
135,163,249177,1,0,0:3:0:0:
135,163,249265,1,8,1:0:0:0:
122,84,249442,1,0,0:1:0:0:
324,274,249618,6,0,P|268:282|197:226,1,120,8|0,0:3|0:0,0:0:0:0:
192,231,249971,1,8,0:3:0:0:
32,355,250148,2,0,P|78:364|183:301,1,160,8|2,1:0|1:2,0:0:0:0:
252,165,250677,1,8,0:3:0:0:
252,165,250854,1,2,1:3:0:0:
248,55,251030,6,0,P|206:33|122:55,1,120,8|0,0:3|0:0,0:0:0:0:
112,62,251383,1,8,0:3:0:0:
293,248,251559,2,0,P|351:266|456:233,1,160,8|8,1:0|0:3,0:0:0:0:
462,224,252001,1,0,0:0:0:0:
474,203,252089,1,0,1:0:0:0:
498,57,252265,1,2,0:3:0:0:
498,57,252618,6,0,L|388:75,1,103.999995239258,4|8,1:2|0:3,0:0:0:0:
90,47,252971,2,0,L|200:29,1,103.999995239258,4|8,1:2|0:3,0:0:0:0:
366,147,253324,5,8,1:0:0:0:
166,204,253501,1,8,1:0:0:0:
366,147,253677,1,4,0:0:0:0:
251,234,253854,6,0,L|260:364,1,120,8|0,0:3|0:0,0:0:0:0:
228,373,254207,1,8,0:3:0:0:
193,136,254383,2,0,P|145:151|23:120,1,160,8|8,1:0|0:3,0:0:0:0:
39,130,254824,1,0,0:0:0:0:
39,130,254912,1,8,1:0:0:0:
153,257,255089,1,0,0:0:0:0:
280,140,255265,6,0,P|284:90|267:12,1,120,8|0,0:3|0:0,0:0:0:0:
246,18,255618,1,8,0:3:0:0:
504,232,255795,2,0,P|445:221|385:136,1,160,8|2,1:0|1:2,0:0:0:0:
234,271,256324,1,2,0:0:0:0:
419,308,256501,1,2,1:3:0:0:
292,228,256677,6,0,L|150:251,1,120,8|0,0:3|0:0,0:0:0:0:
152,220,257030,1,8,0:3:0:0:
26,162,257207,2,0,P|4:214|38:332,1,160,8|8,1:0|0:3,0:0:0:0:
23,312,257648,1,0,0:0:0:0:
23,312,257736,1,8,1:0:0:0:
216,148,257912,1,2,0:3:0:0:
216,148,258265,6,0,L|228:24,1,103.999995239258,4|8,1:2|0:3,0:0:0:0:
390,255,258618,2,0,L|378:379,1,103.999995239258,4|8,1:2|0:3,0:0:0:0:
141,231,258971,5,4,1:2:0:0:
414,164,259148,1,8,1:0:0:0:
141,231,259324,1,2,0:0:0:0:
