osu file format v14

[General]
AudioFilename: audio.mp3
AudioLeadIn: 0
PreviewTime: 52173
Countdown: 1
SampleSet: Normal
StackLeniency: 0.7
Mode: 1
LetterboxInBreaks: 0
WidescreenStoryboard: 0

[Editor]
DistanceSpacing: 0.6
BeatDivisor: 4
GridSize: 32
TimelineZoom: 1.6

[Metadata]
Title:Sharekoube
TitleUnicode:Sharekoube
Artist:Buta-Otome
ArtistUnicode:Buta-Otome
Creator:-[ ix Ishida xi ]-
Version:-[ ix Taiko xi ]-
Source:
Tags:
BeatmapID:1280039
BeatmapSetID:605861

[Difficulty]
HPDrainRate:5
CircleSize:5
OverallDifficulty:5
ApproachRate:5
SliderMultiplier:1.4
SliderTickRate:1

[Events]
//Background and Video events
0,0,"Konachan.com - 221801 blonde_hair butterfly creamsea fan flowers headdress japanese_clothes kimono long_hair necklace original skull watermark.jpg",0,0
//Break Periods
//Storyboard Layer 0 (Background)
//Storyboard Layer 1 (Fail)
//Storyboard Layer 2 (Pass)
//Storyboard Layer 3 (Foreground)
//Storyboard Sound Samples

[TimingPoints]
282,324.324324324324,4,1,0,70,1,0
9363,-25,4,1,0,70,0,0
9444,-26.3157894736842,4,1,0,70,0,0
9525,-27.7777777777778,4,1,0,70,0,0
9606,-29.4117647058824,4,1,0,70,0,0
9687,-31.25,4,1,0,70,0,0
9768,-33.3333333333333,4,1,0,70,0,0
9849,-35.7142857142857,4,1,0,70,0,0
9930,-38.4615384615385,4,1,0,70,0,0
10011,-41.6666666666667,4,1,0,70,0,0
10092,-45.4545454545455,4,1,0,70,0,0
10173,-50,4,1,0,70,0,0
10254,-55.5555555555556,4,1,0,70,0,0
10336,-62.5,4,1,0,70,0,0
10498,-71.4285714285714,4,1,0,70,0,0
10660,-83.3333333333333,4,1,0,70,0,0
10741,-100,4,1,0,70,0,0
15525,-25,4,1,0,5,0,0
15606,-100,4,1,0,70,0,0
25822,-25,4,1,0,5,0,0
25984,-100,4,1,0,70,0,0
31417,-125,4,1,0,70,0,0
34011,-100,4,1,0,70,0,0
36606,-83.3333333333333,4,1,0,70,0,0
39200,-71.4285714285714,4,1,0,70,0,0
41795,-100,4,1,0,70,0,0
44227,-83.3333333333333,4,1,0,70,0,0
46984,-71.4285714285714,4,1,0,70,0,0
49579,-25,4,1,0,70,0,0
49619,-100,4,1,0,35,0,0
49903,-25,4,1,0,70,0,0
49944,-100,4,1,0,35,0,0
50227,-25,4,1,0,70,0,0
50430,-100,4,1,0,35,0,0
50714,-25,4,1,0,70,0,0
50754,-100,4,1,0,35,0,0
51038,-25,4,1,0,70,0,0
51565,-100,4,1,0,5,0,0
52092,-83.3333333333333,4,1,0,70,0,1
70336,-76.9230769230769,4,1,0,70,0,1
70822,-71.4285714285714,4,1,0,70,0,1
71309,-66.6666666666667,4,1,0,70,0,1
71795,-62.5,4,1,0,70,0,1
72281,-58.8235294117647,4,1,0,70,0,1
72930,-125,4,1,0,70,0,0
75525,-50,4,1,0,70,0,1
75565,-100,4,1,0,70,0,0
84606,-25,4,1,0,70,0,0
84687,-26.3157894736842,4,1,0,70,0,0
84768,-27.7777777777778,4,1,0,70,0,0
84849,-29.4117647058824,4,1,0,70,0,0
84930,-31.25,4,1,0,70,0,0
85011,-33.3333333333333,4,1,0,70,0,0
85092,-35.7142857142857,4,1,0,70,0,0
85173,-38.4615384615385,4,1,0,70,0,0
85254,-41.6666666666667,4,1,0,70,0,0
85335,-45.4545454545455,4,1,0,70,0,0
85416,-50,4,1,0,70,0,0
85497,-55.5555555555556,4,1,0,70,0,0
85579,-62.5,4,1,0,70,0,0
85741,-71.4285714285714,4,1,0,70,0,0
85903,-83.3333333333333,4,1,0,70,0,0
85984,-100,4,1,0,70,0,0
90727,-25,4,1,0,5,0,0
90808,-100,4,1,0,70,0,0
101106,-25,4,1,0,5,0,0
101187,-100,4,1,0,70,0,0
106660,-100,4,1,0,70,0,0
106700,-125,4,1,0,70,0,0
109254,-100,4,1,0,70,0,0
111849,-83.3333333333333,4,1,0,70,0,0
114443,-100,4,1,0,70,0,0
117038,-83.3333333333333,4,1,0,70,0,0
119470,-71.4285714285714,4,1,0,70,0,0
122227,-62.5,4,1,0,70,0,0
124822,-25,4,1,0,70,0,0
124862,-100,4,1,0,35,0,0
125146,-25,4,1,0,70,0,0
125187,-100,4,1,0,35,0,0
125470,-25,4,1,0,70,0,0
125673,-100,4,1,0,35,0,0
125957,-25,4,1,0,70,0,0
125997,-100,4,1,0,35,0,0
126281,-25,4,1,0,70,0,0
126808,-66.6666666666667,4,1,0,5,0,0
127417,-83.3333333333333,4,1,0,70,0,1
145579,-76.9230769230769,4,1,0,70,0,1
146065,-71.4285714285714,4,1,0,70,0,1
146552,-66.6666666666667,4,1,0,70,0,1
147038,-62.5,4,1,0,70,0,1
147524,-58.8235294117647,4,1,0,70,0,1
148173,-125,4,1,0,70,0,0
150768,-200,4,1,0,70,0,0
152065,324.324324324324,4,1,0,70,1,8
152065,-200,4,1,0,70,0,8
153362,324.324324324324,4,1,0,70,1,8
153686,-50,4,1,0,70,0,9
154010,-66.6666666666667,4,1,0,70,0,9
158551,-25,4,1,0,70,0,9
158591,-66.6666666666667,4,1,0,70,0,9
166334,-50,4,1,0,70,0,9
166375,-100,4,1,0,70,0,8
181943,-200,4,1,0,30,0,8
190780,-100,4,1,0,70,0,8
192605,-50,4,1,0,70,0,9
192645,-66.6666666666667,4,1,0,70,0,9
213037,-125,4,1,0,50,0,8
215632,-100,4,1,0,50,0,8
235091,-100,4,1,0,70,0,0
235172,-25,4,1,0,70,0,0
235253,-100,4,1,0,70,0,0
235334,-25,4,1,0,70,0,0
235416,-100,4,1,0,70,0,0
235497,-25,4,1,0,70,0,0
235578,-100,4,1,0,70,0,0
235659,-25,4,1,0,70,0,0
235740,-100,4,1,0,70,0,0
235821,-25,4,1,0,70,0,0
235902,-100,4,1,0,70,0,0
235983,-25,4,1,0,70,0,0
236064,-100,4,1,0,70,0,0
236145,-25,4,1,0,70,0,0
236226,-25,4,1,0,70,0,0

[HitObjects]
320,96,282,5,12,0:0:0:0:
320,96,444,1,0,0:0:0:0:
320,96,525,1,0,0:0:0:0:
320,96,606,1,8,0:0:0:0:
320,96,768,1,0,0:0:0:0:
320,96,849,1,0,0:0:0:0:
320,96,930,1,0,0:0:0:0:
320,96,1093,1,0,0:0:0:0:
320,96,1255,1,8,0:0:0:0:
320,96,1417,1,0,0:0:0:0:
320,96,1579,1,12,0:0:0:0:
320,96,1741,1,0,0:0:0:0:
320,96,1822,1,0,0:0:0:0:
320,96,1903,1,8,0:0:0:0:
320,96,2065,1,0,0:0:0:0:
320,96,2146,1,0,0:0:0:0:
320,96,2227,1,0,0:0:0:0:
320,96,2390,1,0,0:0:0:0:
320,96,2552,1,8,0:0:0:0:
320,96,2714,1,0,0:0:0:0:
320,96,2876,1,12,0:0:0:0:
320,96,3038,1,0,0:0:0:0:
320,96,3119,1,0,0:0:0:0:
320,96,3200,1,8,0:0:0:0:
320,96,3362,1,0,0:0:0:0:
320,96,3443,1,0,0:0:0:0:
320,96,3524,1,0,0:0:0:0:
320,96,3687,1,0,0:0:0:0:
320,96,3849,1,8,0:0:0:0:
320,96,4011,1,0,0:0:0:0:
192,64,4174,1,0,0:0:0:0:
224,64,4336,1,8,0:0:0:0:
224,96,4498,1,0,0:0:0:0:
224,96,4579,1,0,0:0:0:0:
224,96,4660,1,8,0:0:0:0:
224,96,4822,1,0,0:0:0:0:
224,96,4984,1,8,0:0:0:0:
256,96,5147,1,8,0:0:0:0:
256,96,5309,1,8,0:0:0:0:
320,96,5471,1,12,0:0:0:0:
320,96,5633,1,0,0:0:0:0:
320,96,5714,1,0,0:0:0:0:
320,96,5795,1,8,0:0:0:0:
320,96,5957,1,0,0:0:0:0:
320,96,6038,1,0,0:0:0:0:
320,96,6119,1,0,0:0:0:0:
320,96,6282,1,0,0:0:0:0:
320,96,6444,1,8,0:0:0:0:
320,96,6606,1,0,0:0:0:0:
320,96,6768,1,12,0:0:0:0:
320,96,6930,1,0,0:0:0:0:
320,96,7011,1,0,0:0:0:0:
320,96,7092,1,8,0:0:0:0:
320,96,7254,1,0,0:0:0:0:
320,96,7335,1,0,0:0:0:0:
320,96,7416,1,0,0:0:0:0:
320,96,7579,1,0,0:0:0:0:
320,96,7741,1,8,0:0:0:0:
320,96,7903,1,0,0:0:0:0:
320,96,8066,1,12,0:0:0:0:
320,96,8228,1,0,0:0:0:0:
320,96,8309,1,0,0:0:0:0:
320,96,8390,1,8,0:0:0:0:
320,96,8552,1,0,0:0:0:0:
320,96,8633,1,0,0:0:0:0:
320,96,8714,1,0,0:0:0:0:
320,96,8877,1,0,0:0:0:0:
320,96,9039,1,8,0:0:0:0:
128,192,9119,1,8,0:0:0:0:
320,96,9201,1,0,0:0:0:0:
160,128,9363,1,8,0:0:0:0:
160,128,9444,1,8,0:0:0:0:
160,128,9525,1,8,0:0:0:0:
160,128,9606,1,8,0:0:0:0:
160,128,9687,1,8,0:0:0:0:
160,128,9768,1,8,0:0:0:0:
160,128,9849,1,8,0:0:0:0:
160,128,9930,1,8,0:0:0:0:
160,128,10011,1,8,0:0:0:0:
160,128,10093,1,8,0:0:0:0:
160,128,10174,1,8,0:0:0:0:
160,128,10255,1,8,0:0:0:0:
160,128,10336,1,8,0:0:0:0:
224,64,10498,1,8,0:0:0:0:
256,160,10660,1,4,0:0:0:0:
192,128,10903,1,0,0:0:0:0:
192,128,10984,1,8,0:0:0:0:
192,128,11146,1,0,0:0:0:0:
192,128,11471,1,0,0:0:0:0:
192,128,11633,1,8,0:0:0:0:
192,128,11795,1,0,0:0:0:0:
192,128,11876,1,0,0:0:0:0:
192,128,11957,1,4,0:0:0:0:
160,96,12200,1,0,0:0:0:0:
160,96,12282,1,8,0:0:0:0:
224,96,12444,1,0,0:0:0:0:
224,96,12525,1,0,0:0:0:0:
224,96,12606,1,0,0:0:0:0:
224,96,12768,1,0,0:0:0:0:
224,96,12849,1,0,0:0:0:0:
224,96,12930,1,8,0:0:0:0:
224,96,13092,1,0,0:0:0:0:
224,96,13254,1,4,0:0:0:0:
320,96,13498,1,0,0:0:0:0:
320,96,13579,1,8,0:0:0:0:
320,96,13741,1,0,0:0:0:0:
320,96,14065,1,0,0:0:0:0:
320,96,14227,1,8,0:0:0:0:
256,96,14390,1,0,0:0:0:0:
128,96,14471,1,0,0:0:0:0:
256,96,14552,1,12,0:0:0:0:
256,128,14876,1,4,0:0:0:0:
256,128,15200,1,12,0:0:0:0:
192,128,15525,1,8,0:0:0:0:
224,96,15849,1,4,0:0:0:0:
224,96,16092,1,0,0:0:0:0:
224,96,16173,1,8,0:0:0:0:
224,96,16336,1,0,0:0:0:0:
224,96,16660,1,0,0:0:0:0:
224,96,16822,1,8,0:0:0:0:
224,96,16984,1,0,0:0:0:0:
224,96,17065,1,0,0:0:0:0:
224,96,17146,1,4,0:0:0:0:
224,96,17390,1,0,0:0:0:0:
224,96,17471,1,8,0:0:0:0:
224,96,17633,1,0,0:0:0:0:
224,32,17714,1,0,0:0:0:0:
224,96,17795,1,0,0:0:0:0:
224,96,17957,1,0,0:0:0:0:
256,96,18038,1,0,0:0:0:0:
224,96,18119,1,8,0:0:0:0:
224,96,18282,1,0,0:0:0:0:
256,96,18444,1,4,0:0:0:0:
224,160,18606,1,0,0:0:0:0:
224,160,18687,1,0,0:0:0:0:
224,160,18768,1,8,0:0:0:0:
224,160,18930,1,0,0:0:0:0:
256,96,19092,1,4,0:0:0:0:
256,96,19254,1,0,0:0:0:0:
256,96,19417,1,8,0:0:0:0:
256,96,19498,1,8,0:0:0:0:
256,96,19579,1,0,0:0:0:0:
352,128,19741,1,4,0:0:0:0:
352,128,19903,1,8,0:0:0:0:
352,128,20065,1,8,0:0:0:0:
160,160,20227,1,0,0:0:0:0:
160,128,20309,1,8,0:0:0:0:
160,128,20390,1,0,0:0:0:0:
160,128,20471,1,8,0:0:0:0:
160,128,20552,1,0,0:0:0:0:
160,128,20633,1,0,0:0:0:0:
160,128,20714,1,8,0:0:0:0:
160,128,20795,1,8,0:0:0:0:
160,128,20876,1,0,0:0:0:0:
160,128,20957,1,0,0:0:0:0:
160,128,21038,1,4,0:0:0:0:
192,128,21281,1,0,0:0:0:0:
192,128,21362,1,8,0:0:0:0:
192,128,21524,1,0,0:0:0:0:
192,128,21849,1,0,0:0:0:0:
192,128,22011,1,8,0:0:0:0:
192,128,22173,1,0,0:0:0:0:
192,128,22254,1,0,0:0:0:0:
192,128,22335,1,4,0:0:0:0:
160,96,22578,1,0,0:0:0:0:
160,96,22660,1,8,0:0:0:0:
224,96,22822,1,0,0:0:0:0:
224,96,22903,1,0,0:0:0:0:
224,96,22984,1,0,0:0:0:0:
224,96,23146,1,0,0:0:0:0:
224,96,23227,1,0,0:0:0:0:
224,96,23308,1,8,0:0:0:0:
224,96,23470,1,0,0:0:0:0:
224,96,23632,1,4,0:0:0:0:
320,96,23876,1,0,0:0:0:0:
320,96,23957,1,8,0:0:0:0:
320,96,24119,1,0,0:0:0:0:
320,96,24443,1,0,0:0:0:0:
320,96,24605,1,8,0:0:0:0:
256,96,24768,1,0,0:0:0:0:
128,96,24849,1,0,0:0:0:0:
256,96,24930,1,12,0:0:0:0:
256,128,25254,1,4,0:0:0:0:
256,128,25578,1,12,0:0:0:0:
192,128,25903,1,8,0:0:0:0:
224,96,26227,1,4,0:0:0:0:
224,96,26470,1,0,0:0:0:0:
224,96,26551,1,8,0:0:0:0:
224,96,26714,1,0,0:0:0:0:
224,96,27038,1,0,0:0:0:0:
224,96,27200,1,8,0:0:0:0:
224,96,27362,1,0,0:0:0:0:
224,96,27443,1,0,0:0:0:0:
224,96,27524,1,4,0:0:0:0:
224,96,27768,1,0,0:0:0:0:
224,96,27849,1,8,0:0:0:0:
224,96,28011,1,0,0:0:0:0:
224,32,28092,1,0,0:0:0:0:
224,96,28173,1,0,0:0:0:0:
224,96,28335,1,0,0:0:0:0:
256,96,28416,1,0,0:0:0:0:
224,96,28497,1,8,0:0:0:0:
224,96,28660,1,0,0:0:0:0:
256,96,28822,1,4,0:0:0:0:
224,160,28984,1,0,0:0:0:0:
224,160,29065,1,0,0:0:0:0:
224,160,29146,1,8,0:0:0:0:
224,160,29308,1,8,0:0:0:0:
256,96,29470,1,4,0:0:0:0:
256,96,29632,1,0,0:0:0:0:
256,96,29795,1,8,0:0:0:0:
256,96,29876,1,8,0:0:0:0:
256,96,29957,1,0,0:0:0:0:
352,128,30119,1,4,0:0:0:0:
192,128,30281,1,8,0:0:0:0:
192,128,30444,1,8,0:0:0:0:
288,192,30606,1,0,0:0:0:0:
288,192,30687,1,8,0:0:0:0:
288,192,30768,1,0,0:0:0:0:
288,192,30849,1,8,0:0:0:0:
288,192,30930,1,0,0:0:0:0:
288,192,31092,1,0,0:0:0:0:
288,192,31173,1,0,0:0:0:0:
288,192,31254,1,0,0:0:0:0:
256,160,31417,1,4,0:0:0:0:
160,96,31660,1,0,0:0:0:0:
160,96,31741,1,8,0:0:0:0:
160,96,31903,1,0,0:0:0:0:
192,128,32227,1,0,0:0:0:0:
192,128,32390,1,8,0:0:0:0:
192,128,32552,1,0,0:0:0:0:
192,128,32633,1,0,0:0:0:0:
192,128,32714,1,4,0:0:0:0:
192,128,32957,1,0,0:0:0:0:
192,128,33038,1,8,0:0:0:0:
192,128,33200,1,0,0:0:0:0:
160,192,33525,1,0,0:0:0:0:
224,160,33687,1,12,0:0:0:0:
192,96,33849,1,0,0:0:0:0:
192,96,34011,1,4,0:0:0:0:
288,160,34254,1,0,0:0:0:0:
288,160,34336,1,8,0:0:0:0:
288,160,34498,1,0,0:0:0:0:
288,192,34822,1,0,0:0:0:0:
288,192,34984,1,8,0:0:0:0:
288,192,35146,1,0,0:0:0:0:
288,192,35227,1,0,0:0:0:0:
288,192,35309,1,4,0:0:0:0:
192,96,35552,1,0,0:0:0:0:
192,96,35633,1,8,0:0:0:0:
192,96,35795,1,0,0:0:0:0:
288,224,35957,1,8,0:0:0:0:
192,96,36119,1,8,0:0:0:0:
192,96,36281,1,0,0:0:0:0:
192,96,36363,1,0,0:0:0:0:
192,96,36444,1,0,0:0:0:0:
192,96,36606,1,12,0:0:0:0:
192,96,36768,1,0,0:0:0:0:
192,96,36849,1,0,0:0:0:0:
192,96,36930,1,8,0:0:0:0:
192,96,37092,1,0,0:0:0:0:
192,128,37417,1,0,0:0:0:0:
192,128,37579,1,8,0:0:0:0:
192,128,37741,1,0,0:0:0:0:
192,128,37903,1,12,0:0:0:0:
192,128,38065,1,0,0:0:0:0:
192,128,38146,1,0,0:0:0:0:
192,128,38227,1,8,0:0:0:0:
224,128,38390,1,0,0:0:0:0:
224,128,38714,1,0,0:0:0:0:
192,96,38876,1,8,0:0:0:0:
192,96,39038,1,0,0:0:0:0:
192,96,39200,1,4,0:0:0:0:
224,96,39363,1,0,0:0:0:0:
224,96,39444,1,0,0:0:0:0:
224,96,39525,1,8,0:0:0:0:
224,96,39687,1,8,0:0:0:0:
224,96,39849,1,0,0:0:0:0:
224,96,39930,1,0,0:0:0:0:
224,96,40011,1,0,0:0:0:0:
224,96,40173,1,8,0:0:0:0:
256,128,40336,1,0,0:0:0:0:
256,128,40417,1,0,0:0:0:0:
256,128,40498,1,4,0:0:0:0:
160,128,40660,1,0,0:0:0:0:
160,128,40741,1,0,0:0:0:0:
160,128,40822,1,8,0:0:0:0:
160,128,40984,1,0,0:0:0:0:
160,96,41146,1,8,0:0:0:0:
160,96,41309,1,8,0:0:0:0:
288,128,41471,1,0,0:0:0:0:
288,128,41552,1,0,0:0:0:0:
288,128,41633,1,0,0:0:0:0:
256,128,41795,1,8,0:0:0:0:
352,160,41849,1,0,0:0:0:0:
352,160,41903,1,0,0:0:0:0:
256,128,41957,1,8,0:0:0:0:
256,128,42038,1,8,0:0:0:0:
256,160,42119,1,0,0:0:0:0:
256,128,42200,1,0,0:0:0:0:
256,160,42281,1,8,0:0:0:0:
256,160,42363,1,8,0:0:0:0:
256,128,42444,1,0,0:0:0:0:
224,192,42498,1,8,0:0:0:0:
224,192,42552,1,8,0:0:0:0:
224,192,42606,1,0,0:0:0:0:
320,96,42687,1,0,0:0:0:0:
256,96,42768,1,8,0:0:0:0:
256,96,42849,1,8,0:0:0:0:
256,96,42930,1,0,0:0:0:0:
256,96,43011,1,0,0:0:0:0:
288,96,43092,1,8,0:0:0:0:
320,128,43146,1,0,0:0:0:0:
320,128,43200,1,0,0:0:0:0:
320,128,43254,1,8,0:0:0:0:
352,128,43336,1,8,0:0:0:0:
352,128,43417,1,0,0:0:0:0:
352,128,43498,1,0,0:0:0:0:
352,128,43579,1,8,0:0:0:0:
352,128,43660,1,8,0:0:0:0:
384,128,43741,1,0,0:0:0:0:
384,128,43795,1,0,0:0:0:0:
384,128,43849,1,0,0:0:0:0:
384,128,43903,1,8,0:0:0:0:
96,128,43984,1,0,0:0:0:0:
320,128,44065,1,12,0:0:0:0:
320,160,44227,1,0,0:0:0:0:
320,160,44309,1,0,0:0:0:0:
256,128,44390,1,8,0:0:0:0:
352,160,44444,1,0,0:0:0:0:
352,160,44498,1,0,0:0:0:0:
256,128,44552,1,8,0:0:0:0:
256,128,44633,1,8,0:0:0:0:
256,160,44714,1,0,0:0:0:0:
256,128,44795,1,0,0:0:0:0:
256,160,44876,1,8,0:0:0:0:
256,160,44958,1,8,0:0:0:0:
256,128,45039,1,0,0:0:0:0:
224,192,45093,1,8,0:0:0:0:
224,192,45147,1,8,0:0:0:0:
224,192,45201,1,0,0:0:0:0:
320,96,45282,1,0,0:0:0:0:
256,96,45363,1,8,0:0:0:0:
256,96,45444,1,8,0:0:0:0:
256,96,45525,1,0,0:0:0:0:
256,96,45606,1,0,0:0:0:0:
288,96,45687,1,8,0:0:0:0:
320,128,45741,1,0,0:0:0:0:
320,128,45795,1,0,0:0:0:0:
320,128,45849,1,8,0:0:0:0:
352,128,45931,1,8,0:0:0:0:
352,128,46012,1,0,0:0:0:0:
352,128,46093,1,0,0:0:0:0:
352,128,46174,1,8,0:0:0:0:
352,128,46255,1,8,0:0:0:0:
384,128,46336,1,0,0:0:0:0:
384,128,46390,1,0,0:0:0:0:
384,128,46444,1,0,0:0:0:0:
384,128,46498,1,8,0:0:0:0:
384,96,46579,1,8,0:0:0:0:
320,128,46660,1,0,0:0:0:0:
320,128,46741,1,0,0:0:0:0:
320,160,46822,1,0,0:0:0:0:
320,160,46904,1,0,0:0:0:0:
320,192,46984,1,12,0:0:0:0:
288,64,47146,1,0,0:0:0:0:
288,96,47227,1,0,0:0:0:0:
288,96,47309,1,0,0:0:0:0:
288,64,47471,1,12,0:0:0:0:
288,64,47633,1,0,0:0:0:0:
288,64,47714,1,0,0:0:0:0:
288,64,47795,1,0,0:0:0:0:
288,64,47957,1,12,0:0:0:0:
288,64,48119,1,0,0:0:0:0:
288,64,48200,1,0,0:0:0:0:
288,64,48281,1,0,0:0:0:0:
288,96,48444,1,4,0:0:0:0:
288,96,48606,1,0,0:0:0:0:
288,96,48687,1,0,0:0:0:0:
288,96,48768,1,0,0:0:0:0:
224,64,48930,1,12,0:0:0:0:
256,96,49092,1,0,0:0:0:0:
256,128,49173,1,0,0:0:0:0:
288,128,49254,1,8,0:0:0:0:
288,128,49336,1,8,0:0:0:0:
288,128,49417,1,0,0:0:0:0:
288,96,49579,1,12,0:0:0:0:
192,192,49741,1,0,0:0:0:0:
288,96,49903,1,12,0:0:0:0:
288,96,50065,1,0,0:0:0:0:
224,192,50146,1,0,0:0:0:0:
288,96,50227,1,12,0:0:0:0:
288,96,50390,1,12,0:0:0:0:
288,96,50552,1,0,0:0:0:0:
288,96,50633,1,0,0:0:0:0:
288,96,50714,1,12,0:0:0:0:
288,96,50876,1,0,0:0:0:0:
288,96,51038,1,12,0:0:0:0:
288,96,51200,1,12,0:0:0:0:
288,96,51363,1,12,0:0:0:0:
192,64,51525,1,12,0:0:0:0:
256,192,52173,1,4,0:0:0:0:
256,160,52498,1,8,0:0:0:0:
256,160,52660,1,0,0:0:0:0:
256,160,52741,1,0,0:0:0:0:
256,160,52822,1,0,0:0:0:0:
256,160,52903,1,0,0:0:0:0:
256,160,52984,1,0,0:0:0:0:
256,160,53065,1,0,0:0:0:0:
256,160,53146,1,8,0:0:0:0:
288,128,53309,1,0,0:0:0:0:
288,128,53633,1,0,0:0:0:0:
288,128,53795,1,8,0:0:0:0:
288,128,53957,1,0,0:0:0:0:
288,128,54038,1,0,0:0:0:0:
288,128,54119,1,0,0:0:0:0:
288,160,54282,1,0,0:0:0:0:
288,160,54363,1,0,0:0:0:0:
288,160,54444,1,8,0:0:0:0:
192,64,54606,1,0,0:0:0:0:
288,64,54768,1,4,0:0:0:0:
192,32,55092,1,8,0:0:0:0:
320,32,55254,1,0,0:0:0:0:
320,32,55336,1,0,0:0:0:0:
224,96,55417,1,0,0:0:0:0:
224,32,55579,1,4,0:0:0:0:
224,64,55741,1,8,0:0:0:0:
224,96,55903,1,4,0:0:0:0:
192,128,56227,1,4,0:0:0:0:
192,128,56390,1,8,0:0:0:0:
288,128,56552,1,0,0:0:0:0:
288,128,56633,1,0,0:0:0:0:
288,128,56714,1,0,0:0:0:0:
288,128,56795,1,8,0:0:0:0:
288,128,56876,1,0,0:0:0:0:
288,128,56957,1,0,0:0:0:0:
224,32,57038,1,8,0:0:0:0:
224,32,57119,1,8,0:0:0:0:
224,32,57200,1,0,0:0:0:0:
224,32,57282,1,0,0:0:0:0:
288,128,57363,1,8,0:0:0:0:
288,128,57444,1,0,0:0:0:0:
256,96,57525,1,0,0:0:0:0:
256,96,57606,1,0,0:0:0:0:
256,96,57687,1,8,0:0:0:0:
288,128,57849,1,0,0:0:0:0:
288,128,57930,1,0,0:0:0:0:
288,128,58011,1,0,0:0:0:0:
288,128,58092,1,8,0:0:0:0:
288,128,58173,1,0,0:0:0:0:
288,128,58254,1,0,0:0:0:0:
224,32,58335,1,8,0:0:0:0:
224,32,58416,1,8,0:0:0:0:
224,32,58497,1,0,0:0:0:0:
224,32,58579,1,0,0:0:0:0:
288,128,58660,1,8,0:0:0:0:
256,96,58741,1,8,0:0:0:0:
256,96,58822,1,0,0:0:0:0:
256,96,58903,1,0,0:0:0:0:
256,96,58984,1,8,0:0:0:0:
288,96,59146,1,0,0:0:0:0:
288,96,59227,1,0,0:0:0:0:
288,96,59309,1,0,0:0:0:0:
288,96,59390,1,8,0:0:0:0:
288,96,59471,1,0,0:0:0:0:
288,96,59552,1,0,0:0:0:0:
288,96,59633,1,8,0:0:0:0:
288,96,59714,1,8,0:0:0:0:
288,96,59795,1,0,0:0:0:0:
288,96,59957,1,12,0:0:0:0:
288,96,60119,1,8,0:0:0:0:
288,96,60200,1,8,0:0:0:0:
288,96,60282,1,0,0:0:0:0:
288,96,60444,1,12,0:0:0:0:
288,96,60606,1,8,0:0:0:0:
288,96,60687,1,8,0:0:0:0:
288,96,60768,1,0,0:0:0:0:
256,96,60930,1,0,0:0:0:0:
192,128,61092,1,4,0:0:0:0:
192,160,61254,1,0,0:0:0:0:
192,160,61417,1,12,0:0:0:0:
192,160,61579,1,0,0:0:0:0:
192,160,61660,1,0,0:0:0:0:
192,160,61741,1,8,0:0:0:0:
224,96,61903,1,12,0:0:0:0:
224,96,61984,1,8,0:0:0:0:
224,96,62065,1,0,0:0:0:0:
224,96,62146,1,0,0:0:0:0:
224,160,62227,1,0,0:0:0:0:
224,96,62268,1,8,0:0:0:0:
160,64,62309,1,8,0:0:0:0:
160,96,62350,1,0,0:0:0:0:
160,96,62390,1,8,0:0:0:0:
160,96,62431,1,8,0:0:0:0:
160,64,62471,1,0,0:0:0:0:
160,64,62512,1,8,0:0:0:0:
288,96,62552,1,4,0:0:0:0:
256,160,62877,1,12,0:0:0:0:
256,160,63039,1,0,0:0:0:0:
256,160,63120,1,0,0:0:0:0:
256,160,63201,1,0,0:0:0:0:
256,160,63282,1,0,0:0:0:0:
256,160,63363,1,0,0:0:0:0:
256,160,63444,1,0,0:0:0:0:
256,160,63525,1,8,0:0:0:0:
288,128,63688,1,4,0:0:0:0:
288,128,64012,1,0,0:0:0:0:
288,128,64174,1,8,0:0:0:0:
288,128,64336,1,0,0:0:0:0:
288,128,64417,1,0,0:0:0:0:
288,128,64498,1,0,0:0:0:0:
288,160,64661,1,0,0:0:0:0:
288,160,64742,1,0,0:0:0:0:
288,160,64823,1,8,0:0:0:0:
192,64,64985,1,0,0:0:0:0:
288,64,65147,1,4,0:0:0:0:
192,32,65471,1,8,0:0:0:0:
320,32,65633,1,0,0:0:0:0:
320,32,65715,1,0,0:0:0:0:
224,96,65796,1,0,0:0:0:0:
224,32,65958,1,4,0:0:0:0:
224,64,66120,1,8,0:0:0:0:
224,96,66282,1,4,0:0:0:0:
288,96,66606,1,0,0:0:0:0:
256,128,66768,1,8,0:0:0:0:
288,128,66930,1,0,0:0:0:0:
288,128,67011,1,0,0:0:0:0:
288,128,67092,1,0,0:0:0:0:
224,64,67254,1,0,0:0:0:0:
224,96,67336,1,0,0:0:0:0:
224,96,67417,1,8,0:0:0:0:
224,96,67579,1,0,0:0:0:0:
224,160,67660,1,0,0:0:0:0:
288,96,67741,1,8,0:0:0:0:
288,96,67822,1,8,0:0:0:0:
288,96,67903,1,0,0:0:0:0:
288,96,67984,1,0,0:0:0:0:
288,96,68065,1,0,0:0:0:0:
288,96,68146,1,0,0:0:0:0:
256,96,68227,1,8,0:0:0:0:
256,96,68309,1,8,0:0:0:0:
256,96,68390,1,0,0:0:0:0:
256,96,68471,1,0,0:0:0:0:
256,96,68552,1,0,0:0:0:0:
256,96,68714,1,8,0:0:0:0:
256,96,68795,1,8,0:0:0:0:
256,96,68876,1,0,0:0:0:0:
224,96,68957,1,0,0:0:0:0:
224,64,69038,1,8,0:0:0:0:
224,64,69119,1,8,0:0:0:0:
224,64,69200,1,0,0:0:0:0:
224,64,69282,1,0,0:0:0:0:
224,64,69363,1,0,0:0:0:0:
224,64,69525,1,8,0:0:0:0:
224,64,69606,1,8,0:0:0:0:
224,64,69687,1,0,0:0:0:0:
224,64,69768,1,0,0:0:0:0:
224,64,69849,1,0,0:0:0:0:
224,64,69930,1,0,0:0:0:0:
224,64,70011,1,8,0:0:0:0:
224,64,70092,1,8,0:0:0:0:
224,64,70173,1,0,0:0:0:0:
224,64,70254,1,0,0:0:0:0:
192,64,70336,1,12,0:0:0:0:
256,160,70498,1,0,0:0:0:0:
256,160,70579,1,0,0:0:0:0:
256,160,70660,1,0,0:0:0:0:
192,64,70822,1,12,0:0:0:0:
224,64,70984,1,0,0:0:0:0:
288,96,71065,1,0,0:0:0:0:
224,64,71146,1,0,0:0:0:0:
192,64,71309,1,12,0:0:0:0:
192,64,71471,1,0,0:0:0:0:
224,96,71552,1,0,0:0:0:0:
192,64,71633,1,0,0:0:0:0:
224,96,71795,1,12,0:0:0:0:
224,96,71957,1,0,0:0:0:0:
224,96,72011,1,0,0:0:0:0:
224,96,72065,1,0,0:0:0:0:
224,96,72119,1,0,0:0:0:0:
352,64,72281,1,12,0:0:0:0:
224,32,72444,1,0,0:0:0:0:
192,32,72606,1,8,0:0:0:0:
192,32,72687,1,8,0:0:0:0:
192,32,72768,1,0,0:0:0:0:
288,128,72930,1,12,0:0:0:0:
288,96,73092,1,0,0:0:0:0:
320,96,73173,1,0,0:0:0:0:
288,96,73254,1,0,0:0:0:0:
288,96,73417,1,8,0:0:0:0:
288,96,73579,1,0,0:0:0:0:
288,96,73741,1,8,0:0:0:0:
288,96,73903,1,0,0:0:0:0:
288,96,73984,1,0,0:0:0:0:
288,96,74065,1,0,0:0:0:0:
320,96,74227,1,12,0:0:0:0:
320,96,74390,1,0,0:0:0:0:
320,96,74471,1,0,0:0:0:0:
320,96,74552,1,8,0:0:0:0:
320,96,74876,1,0,0:0:0:0:
320,96,74957,1,0,0:0:0:0:
320,96,75038,1,0,0:0:0:0:
320,96,75119,1,0,0:0:0:0:
320,96,75200,1,8,0:0:0:0:
320,96,75525,1,12,0:0:0:0:
320,96,75687,1,0,0:0:0:0:
320,96,75768,1,0,0:0:0:0:
320,96,75849,1,8,0:0:0:0:
320,96,76011,1,0,0:0:0:0:
320,96,76092,1,0,0:0:0:0:
320,96,76173,1,0,0:0:0:0:
320,96,76336,1,0,0:0:0:0:
320,96,76498,1,8,0:0:0:0:
320,96,76660,1,0,0:0:0:0:
320,96,76822,1,12,0:0:0:0:
320,96,76984,1,0,0:0:0:0:
320,96,77065,1,0,0:0:0:0:
320,96,77146,1,8,0:0:0:0:
320,96,77308,1,0,0:0:0:0:
320,96,77389,1,0,0:0:0:0:
320,96,77470,1,0,0:0:0:0:
320,96,77633,1,0,0:0:0:0:
320,96,77795,1,8,0:0:0:0:
320,96,77957,1,0,0:0:0:0:
320,96,78119,1,12,0:0:0:0:
320,96,78281,1,0,0:0:0:0:
320,96,78362,1,0,0:0:0:0:
320,96,78443,1,8,0:0:0:0:
320,96,78605,1,0,0:0:0:0:
320,96,78686,1,0,0:0:0:0:
320,96,78767,1,0,0:0:0:0:
320,96,78930,1,0,0:0:0:0:
320,96,79092,1,8,0:0:0:0:
320,96,79254,1,0,0:0:0:0:
192,64,79417,1,0,0:0:0:0:
224,64,79579,1,8,0:0:0:0:
224,96,79741,1,0,0:0:0:0:
224,96,79822,1,0,0:0:0:0:
224,96,79903,1,8,0:0:0:0:
224,96,80065,1,0,0:0:0:0:
224,96,80227,1,8,0:0:0:0:
256,96,80390,1,8,0:0:0:0:
256,96,80552,1,8,0:0:0:0:
320,96,80714,1,12,0:0:0:0:
320,96,80876,1,0,0:0:0:0:
320,96,80957,1,0,0:0:0:0:
320,96,81038,1,8,0:0:0:0:
320,96,81200,1,0,0:0:0:0:
320,96,81281,1,0,0:0:0:0:
320,96,81362,1,0,0:0:0:0:
320,96,81525,1,0,0:0:0:0:
320,96,81687,1,8,0:0:0:0:
320,96,81849,1,0,0:0:0:0:
320,96,82011,1,12,0:0:0:0:
320,96,82173,1,0,0:0:0:0:
320,96,82254,1,0,0:0:0:0:
320,96,82335,1,8,0:0:0:0:
320,96,82497,1,0,0:0:0:0:
320,96,82578,1,0,0:0:0:0:
320,96,82659,1,0,0:0:0:0:
320,96,82822,1,0,0:0:0:0:
320,96,82984,1,8,0:0:0:0:
320,96,83146,1,0,0:0:0:0:
320,96,83309,1,12,0:0:0:0:
320,96,83471,1,0,0:0:0:0:
320,96,83552,1,0,0:0:0:0:
320,96,83633,1,8,0:0:0:0:
320,96,83795,1,0,0:0:0:0:
320,96,83876,1,0,0:0:0:0:
320,96,83957,1,0,0:0:0:0:
320,96,84120,1,0,0:0:0:0:
320,96,84282,1,8,0:0:0:0:
320,96,84444,1,0,0:0:0:0:
160,128,84606,1,8,0:0:0:0:
160,128,84687,1,8,0:0:0:0:
160,128,84768,1,8,0:0:0:0:
160,128,84849,1,8,0:0:0:0:
160,128,84930,1,8,0:0:0:0:
160,128,85011,1,8,0:0:0:0:
160,128,85092,1,8,0:0:0:0:
160,128,85173,1,8,0:0:0:0:
160,128,85254,1,8,0:0:0:0:
160,128,85336,1,8,0:0:0:0:
160,128,85417,1,8,0:0:0:0:
160,128,85498,1,8,0:0:0:0:
160,128,85579,1,8,0:0:0:0:
224,64,85741,1,8,0:0:0:0:
256,160,85903,1,4,0:0:0:0:
192,128,86146,1,0,0:0:0:0:
192,128,86227,1,8,0:0:0:0:
192,128,86389,1,0,0:0:0:0:
192,128,86714,1,0,0:0:0:0:
192,128,86876,1,8,0:0:0:0:
192,128,87038,1,0,0:0:0:0:
192,128,87119,1,0,0:0:0:0:
192,128,87200,1,4,0:0:0:0:
160,96,87443,1,0,0:0:0:0:
160,96,87525,1,8,0:0:0:0:
224,96,87687,1,0,0:0:0:0:
224,96,87768,1,0,0:0:0:0:
224,96,87849,1,0,0:0:0:0:
224,96,88011,1,0,0:0:0:0:
224,96,88092,1,0,0:0:0:0:
224,96,88173,1,8,0:0:0:0:
224,96,88335,1,0,0:0:0:0:
224,96,88497,1,4,0:0:0:0:
320,96,88741,1,0,0:0:0:0:
320,96,88822,1,8,0:0:0:0:
320,96,88984,1,0,0:0:0:0:
320,96,89308,1,0,0:0:0:0:
320,96,89470,1,8,0:0:0:0:
256,96,89633,1,0,0:0:0:0:
128,96,89714,1,0,0:0:0:0:
256,96,89795,1,12,0:0:0:0:
256,128,90119,1,4,0:0:0:0:
256,128,90443,1,12,0:0:0:0:
192,128,90768,1,8,0:0:0:0:
224,96,91092,1,4,0:0:0:0:
224,96,91335,1,0,0:0:0:0:
224,96,91416,1,8,0:0:0:0:
224,96,91579,1,0,0:0:0:0:
224,96,91903,1,0,0:0:0:0:
224,96,92065,1,8,0:0:0:0:
224,96,92227,1,0,0:0:0:0:
224,96,92308,1,0,0:0:0:0:
224,96,92389,1,4,0:0:0:0:
224,96,92633,1,0,0:0:0:0:
224,96,92714,1,8,0:0:0:0:
224,96,92876,1,0,0:0:0:0:
224,32,92957,1,0,0:0:0:0:
224,96,93038,1,0,0:0:0:0:
224,96,93200,1,0,0:0:0:0:
256,96,93281,1,0,0:0:0:0:
224,96,93362,1,8,0:0:0:0:
224,96,93525,1,0,0:0:0:0:
256,96,93687,1,4,0:0:0:0:
224,160,93849,1,0,0:0:0:0:
224,160,93930,1,0,0:0:0:0:
224,160,94011,1,8,0:0:0:0:
224,160,94173,1,0,0:0:0:0:
256,96,94335,1,4,0:0:0:0:
256,96,94497,1,0,0:0:0:0:
256,96,94660,1,8,0:0:0:0:
256,96,94741,1,8,0:0:0:0:
256,96,94822,1,0,0:0:0:0:
352,128,94984,1,4,0:0:0:0:
352,128,95146,1,8,0:0:0:0:
352,128,95308,1,8,0:0:0:0:
160,160,95470,1,0,0:0:0:0:
160,128,95552,1,8,0:0:0:0:
160,128,95633,1,0,0:0:0:0:
160,128,95714,1,8,0:0:0:0:
160,128,95795,1,0,0:0:0:0:
160,128,95876,1,0,0:0:0:0:
160,128,95957,1,8,0:0:0:0:
160,128,96038,1,8,0:0:0:0:
160,128,96119,1,0,0:0:0:0:
160,128,96200,1,0,0:0:0:0:
160,128,96281,1,4,0:0:0:0:
192,128,96524,1,0,0:0:0:0:
192,128,96605,1,8,0:0:0:0:
192,128,96767,1,0,0:0:0:0:
192,128,97092,1,0,0:0:0:0:
192,128,97254,1,8,0:0:0:0:
192,128,97416,1,0,0:0:0:0:
192,128,97497,1,0,0:0:0:0:
192,128,97578,1,4,0:0:0:0:
160,96,97821,1,0,0:0:0:0:
160,96,97903,1,8,0:0:0:0:
224,96,98065,1,0,0:0:0:0:
224,96,98146,1,0,0:0:0:0:
224,96,98227,1,0,0:0:0:0:
224,96,98389,1,0,0:0:0:0:
224,96,98470,1,0,0:0:0:0:
224,96,98551,1,8,0:0:0:0:
224,96,98713,1,0,0:0:0:0:
224,96,98875,1,4,0:0:0:0:
320,96,99119,1,0,0:0:0:0:
320,96,99200,1,8,0:0:0:0:
320,96,99362,1,0,0:0:0:0:
320,96,99686,1,0,0:0:0:0:
320,96,99848,1,8,0:0:0:0:
256,96,100011,1,0,0:0:0:0:
128,96,100092,1,0,0:0:0:0:
256,96,100173,1,12,0:0:0:0:
256,128,100497,1,4,0:0:0:0:
256,128,100821,1,12,0:0:0:0:
192,128,101146,1,8,0:0:0:0:
224,96,101470,1,4,0:0:0:0:
224,96,101713,1,0,0:0:0:0:
224,96,101794,1,8,0:0:0:0:
224,96,101957,1,0,0:0:0:0:
224,96,102281,1,0,0:0:0:0:
224,96,102443,1,8,0:0:0:0:
224,96,102605,1,0,0:0:0:0:
224,96,102686,1,0,0:0:0:0:
224,96,102767,1,4,0:0:0:0:
224,96,103011,1,0,0:0:0:0:
224,96,103092,1,8,0:0:0:0:
224,96,103254,1,0,0:0:0:0:
224,32,103335,1,0,0:0:0:0:
224,96,103416,1,0,0:0:0:0:
224,96,103578,1,0,0:0:0:0:
256,96,103659,1,0,0:0:0:0:
224,96,103740,1,8,0:0:0:0:
224,96,103903,1,0,0:0:0:0:
256,96,104065,1,4,0:0:0:0:
224,160,104227,1,0,0:0:0:0:
224,160,104308,1,0,0:0:0:0:
224,160,104389,1,8,0:0:0:0:
224,160,104551,1,8,0:0:0:0:
256,96,104713,1,4,0:0:0:0:
256,96,104875,1,0,0:0:0:0:
256,96,105038,1,8,0:0:0:0:
256,96,105119,1,8,0:0:0:0:
256,96,105200,1,0,0:0:0:0:
352,128,105362,1,4,0:0:0:0:
192,128,105524,1,8,0:0:0:0:
192,128,105687,1,8,0:0:0:0:
288,192,105849,1,0,0:0:0:0:
288,192,105930,1,8,0:0:0:0:
288,192,106011,1,0,0:0:0:0:
288,192,106092,1,8,0:0:0:0:
288,192,106173,1,0,0:0:0:0:
128,160,106336,1,8,0:0:0:0:
128,160,106417,1,8,0:0:0:0:
128,160,106498,1,0,0:0:0:0:
128,160,106579,1,0,0:0:0:0:
128,160,106660,1,12,0:0:0:0:
224,192,106822,1,0,0:0:0:0:
224,224,106903,1,0,0:0:0:0:
224,192,106984,1,8,0:0:0:0:
224,192,107146,1,8,0:0:0:0:
256,128,107309,1,0,0:0:0:0:
256,128,107390,1,0,0:0:0:0:
256,128,107471,1,0,0:0:0:0:
256,128,107633,1,8,0:0:0:0:
256,128,107714,1,8,0:0:0:0:
256,128,107795,1,0,0:0:0:0:
256,128,107876,1,0,0:0:0:0:
256,128,107957,1,12,0:0:0:0:
256,128,108119,1,0,0:0:0:0:
256,128,108200,1,0,0:0:0:0:
256,128,108281,1,8,0:0:0:0:
256,128,108444,1,8,0:0:0:0:
256,128,108606,1,0,0:0:0:0:
256,128,108687,1,0,0:0:0:0:
256,128,108768,1,0,0:0:0:0:
256,128,108930,1,8,0:0:0:0:
256,128,109011,1,8,0:0:0:0:
256,128,109092,1,0,0:0:0:0:
256,128,109173,1,0,0:0:0:0:
256,128,109254,1,12,0:0:0:0:
256,128,109417,1,0,0:0:0:0:
256,128,109498,1,0,0:0:0:0:
256,128,109579,1,8,0:0:0:0:
256,128,109741,1,8,0:0:0:0:
256,128,109903,1,0,0:0:0:0:
256,128,109984,1,0,0:0:0:0:
256,128,110065,1,0,0:0:0:0:
288,96,110227,1,8,0:0:0:0:
288,96,110309,1,8,0:0:0:0:
288,96,110390,1,0,0:0:0:0:
288,96,110471,1,0,0:0:0:0:
288,96,110552,1,12,0:0:0:0:
288,96,110714,1,0,0:0:0:0:
288,96,110795,1,0,0:0:0:0:
288,96,110876,1,8,0:0:0:0:
288,96,111038,1,8,0:0:0:0:
224,96,111200,1,0,0:0:0:0:
224,96,111281,1,0,0:0:0:0:
224,96,111363,1,0,0:0:0:0:
224,96,111525,1,8,0:0:0:0:
224,96,111606,1,8,0:0:0:0:
224,96,111687,1,0,0:0:0:0:
224,96,111768,1,0,0:0:0:0:
224,96,111849,1,12,0:0:0:0:
224,96,112011,1,0,0:0:0:0:
224,96,112092,1,0,0:0:0:0:
224,96,112173,1,8,0:0:0:0:
224,96,112336,1,8,0:0:0:0:
224,96,112498,1,0,0:0:0:0:
256,96,112660,1,0,0:0:0:0:
256,96,112741,1,0,0:0:0:0:
256,96,112822,1,8,0:0:0:0:
256,96,112903,1,8,0:0:0:0:
256,96,112984,1,0,0:0:0:0:
256,96,113065,1,0,0:0:0:0:
288,128,113146,1,12,0:0:0:0:
288,128,113309,1,0,0:0:0:0:
288,128,113390,1,0,0:0:0:0:
288,128,113471,1,8,0:0:0:0:
288,128,113633,1,8,0:0:0:0:
288,160,113714,1,8,0:0:0:0:
288,128,113795,1,0,0:0:0:0:
288,128,113957,1,0,0:0:0:0:
288,128,114038,1,0,0:0:0:0:
288,128,114119,1,8,0:0:0:0:
288,128,114200,1,8,0:0:0:0:
288,128,114281,1,0,0:0:0:0:
288,128,114363,1,0,0:0:0:0:
288,128,114444,1,12,0:0:0:0:
288,160,114606,1,0,0:0:0:0:
224,64,114687,1,0,0:0:0:0:
224,64,114768,1,8,0:0:0:0:
256,96,114930,1,8,0:0:0:0:
256,96,115092,1,0,0:0:0:0:
256,96,115173,1,0,0:0:0:0:
256,96,115254,1,0,0:0:0:0:
256,96,115417,1,8,0:0:0:0:
256,96,115498,1,8,0:0:0:0:
256,96,115579,1,0,0:0:0:0:
256,96,115660,1,0,0:0:0:0:
256,96,115741,1,12,0:0:0:0:
256,96,115903,1,0,0:0:0:0:
256,96,115984,1,0,0:0:0:0:
256,96,116065,1,8,0:0:0:0:
256,96,116227,1,8,0:0:0:0:
256,96,116390,1,0,0:0:0:0:
256,96,116471,1,0,0:0:0:0:
256,96,116552,1,0,0:0:0:0:
256,96,116714,1,8,0:0:0:0:
256,96,116795,1,8,0:0:0:0:
256,96,116876,1,0,0:0:0:0:
256,96,116957,1,0,0:0:0:0:
256,128,117038,1,8,0:0:0:0:
352,160,117092,1,0,0:0:0:0:
352,160,117146,1,0,0:0:0:0:
256,128,117200,1,8,0:0:0:0:
256,128,117281,1,8,0:0:0:0:
256,160,117362,1,0,0:0:0:0:
256,128,117443,1,0,0:0:0:0:
256,160,117524,1,8,0:0:0:0:
256,160,117606,1,8,0:0:0:0:
256,128,117687,1,0,0:0:0:0:
224,192,117741,1,8,0:0:0:0:
224,192,117795,1,8,0:0:0:0:
224,192,117849,1,0,0:0:0:0:
320,96,117930,1,0,0:0:0:0:
256,96,118011,1,8,0:0:0:0:
256,96,118092,1,8,0:0:0:0:
256,96,118173,1,0,0:0:0:0:
256,96,118254,1,0,0:0:0:0:
288,96,118335,1,8,0:0:0:0:
320,128,118389,1,0,0:0:0:0:
320,128,118443,1,0,0:0:0:0:
320,128,118497,1,8,0:0:0:0:
352,128,118579,1,8,0:0:0:0:
352,128,118660,1,0,0:0:0:0:
352,128,118741,1,0,0:0:0:0:
352,128,118822,1,8,0:0:0:0:
352,128,118903,1,8,0:0:0:0:
384,128,118984,1,0,0:0:0:0:
384,128,119038,1,0,0:0:0:0:
384,128,119092,1,0,0:0:0:0:
384,128,119146,1,8,0:0:0:0:
96,128,119227,1,0,0:0:0:0:
320,128,119308,1,12,0:0:0:0:
320,160,119470,1,0,0:0:0:0:
320,160,119552,1,0,0:0:0:0:
256,128,119633,1,8,0:0:0:0:
352,160,119687,1,0,0:0:0:0:
352,160,119741,1,0,0:0:0:0:
256,128,119795,1,8,0:0:0:0:
256,128,119876,1,8,0:0:0:0:
256,160,119957,1,0,0:0:0:0:
256,128,120038,1,0,0:0:0:0:
256,160,120119,1,8,0:0:0:0:
256,160,120201,1,8,0:0:0:0:
256,128,120282,1,0,0:0:0:0:
224,192,120336,1,8,0:0:0:0:
224,192,120390,1,8,0:0:0:0:
224,192,120444,1,0,0:0:0:0:
320,96,120525,1,0,0:0:0:0:
256,96,120606,1,8,0:0:0:0:
256,96,120687,1,8,0:0:0:0:
256,96,120768,1,0,0:0:0:0:
256,96,120849,1,0,0:0:0:0:
288,96,120930,1,8,0:0:0:0:
320,128,120984,1,0,0:0:0:0:
320,128,121038,1,0,0:0:0:0:
320,128,121092,1,8,0:0:0:0:
352,128,121174,1,8,0:0:0:0:
352,128,121255,1,0,0:0:0:0:
352,128,121336,1,0,0:0:0:0:
352,128,121417,1,8,0:0:0:0:
352,128,121498,1,8,0:0:0:0:
384,128,121579,1,0,0:0:0:0:
384,128,121633,1,0,0:0:0:0:
384,128,121687,1,0,0:0:0:0:
384,128,121741,1,8,0:0:0:0:
384,96,121822,1,8,0:0:0:0:
320,128,121903,1,0,0:0:0:0:
320,128,121984,1,0,0:0:0:0:
320,160,122065,1,0,0:0:0:0:
320,160,122147,1,0,0:0:0:0:
320,192,122227,1,12,0:0:0:0:
288,64,122390,1,0,0:0:0:0:
288,96,122471,1,0,0:0:0:0:
288,96,122553,1,0,0:0:0:0:
288,64,122715,1,12,0:0:0:0:
288,64,122877,1,0,0:0:0:0:
288,64,122958,1,0,0:0:0:0:
288,64,123039,1,0,0:0:0:0:
288,64,123201,1,12,0:0:0:0:
288,64,123363,1,0,0:0:0:0:
288,64,123444,1,0,0:0:0:0:
288,64,123525,1,0,0:0:0:0:
288,96,123688,1,4,0:0:0:0:
288,96,123850,1,0,0:0:0:0:
288,96,123931,1,0,0:0:0:0:
288,96,124012,1,0,0:0:0:0:
224,64,124174,1,12,0:0:0:0:
256,96,124336,1,0,0:0:0:0:
256,128,124417,1,0,0:0:0:0:
288,128,124498,1,8,0:0:0:0:
288,128,124580,1,8,0:0:0:0:
288,128,124661,1,0,0:0:0:0:
288,96,124823,1,12,0:0:0:0:
192,192,124985,1,0,0:0:0:0:
288,96,125147,1,12,0:0:0:0:
288,96,125309,1,0,0:0:0:0:
224,192,125390,1,0,0:0:0:0:
288,96,125471,1,12,0:0:0:0:
288,96,125634,1,12,0:0:0:0:
288,96,125796,1,0,0:0:0:0:
288,96,125877,1,0,0:0:0:0:
288,96,125958,1,12,0:0:0:0:
288,96,126120,1,0,0:0:0:0:
288,96,126282,1,12,0:0:0:0:
288,96,126444,1,12,0:0:0:0:
288,96,126607,1,12,0:0:0:0:
192,64,126769,1,12,0:0:0:0:
192,128,126822,1,0,0:0:0:0:
224,128,126876,1,8,0:0:0:0:
224,128,126930,1,0,0:0:0:0:
224,128,126984,1,0,0:0:0:0:
224,128,127038,1,0,0:0:0:0:
192,64,127092,1,8,0:0:0:0:
192,96,127417,1,4,0:0:0:0:
192,64,127741,1,8,0:0:0:0:
192,96,127903,1,0,0:0:0:0:
192,96,127984,1,0,0:0:0:0:
192,96,128065,1,0,0:0:0:0:
192,96,128146,1,0,0:0:0:0:
192,96,128227,1,0,0:0:0:0:
192,96,128309,1,0,0:0:0:0:
192,96,128390,1,8,0:0:0:0:
192,96,128552,1,4,0:0:0:0:
192,96,128876,1,0,0:0:0:0:
192,32,129038,1,8,0:0:0:0:
192,96,129200,1,0,0:0:0:0:
192,96,129281,1,0,0:0:0:0:
192,96,129363,1,4,0:0:0:0:
192,96,129525,1,0,0:0:0:0:
192,96,129606,1,0,0:0:0:0:
192,96,129687,1,8,0:0:0:0:
192,96,129768,1,8,0:0:0:0:
192,96,129849,1,0,0:0:0:0:
192,96,129930,1,0,0:0:0:0:
192,96,130011,1,4,0:0:0:0:
224,128,130173,1,0,0:0:0:0:
224,128,130254,1,0,0:0:0:0:
224,128,130336,1,8,0:0:0:0:
224,128,130498,1,4,0:0:0:0:
224,160,130660,1,0,0:0:0:0:
224,160,130741,1,0,0:0:0:0:
224,160,130822,1,0,0:0:0:0:
224,160,130984,1,8,0:0:0:0:
224,160,131146,1,4,0:0:0:0:
224,160,131471,1,0,0:0:0:0:
224,160,131633,1,8,0:0:0:0:
224,160,131795,1,0,0:0:0:0:
224,160,131876,1,0,0:0:0:0:
224,160,131957,1,0,0:0:0:0:
224,160,132119,1,0,0:0:0:0:
224,160,132200,1,0,0:0:0:0:
224,160,132281,1,8,0:0:0:0:
224,160,132363,1,8,0:0:0:0:
224,160,132444,1,0,0:0:0:0:
224,160,132525,1,0,0:0:0:0:
224,160,132606,1,4,0:0:0:0:
224,128,132768,1,0,0:0:0:0:
224,128,132849,1,0,0:0:0:0:
224,128,132930,1,8,0:0:0:0:
224,128,133092,1,0,0:0:0:0:
224,128,133173,1,0,0:0:0:0:
224,128,133254,1,0,0:0:0:0:
320,128,133417,1,0,0:0:0:0:
320,128,133498,1,0,0:0:0:0:
320,128,133579,1,8,0:0:0:0:
320,128,133660,1,8,0:0:0:0:
320,128,133741,1,0,0:0:0:0:
320,128,133822,1,0,0:0:0:0:
320,128,133903,1,4,0:0:0:0:
288,128,134065,1,0,0:0:0:0:
288,128,134146,1,0,0:0:0:0:
288,128,134227,1,8,0:0:0:0:
288,128,134390,1,0,0:0:0:0:
288,128,134471,1,0,0:0:0:0:
288,128,134552,1,0,0:0:0:0:
288,128,134714,1,0,0:0:0:0:
288,128,134795,1,0,0:0:0:0:
288,128,134876,1,8,0:0:0:0:
288,128,134957,1,8,0:0:0:0:
288,128,135038,1,0,0:0:0:0:
288,128,135119,1,0,0:0:0:0:
288,128,135200,1,12,0:0:0:0:
288,96,135363,1,0,0:0:0:0:
288,96,135444,1,0,0:0:0:0:
288,96,135525,1,0,0:0:0:0:
288,96,135687,1,12,0:0:0:0:
288,96,135849,1,0,0:0:0:0:
288,96,135930,1,0,0:0:0:0:
288,96,136011,1,0,0:0:0:0:
256,64,136173,1,0,0:0:0:0:
256,64,136336,1,4,0:0:0:0:
256,64,136498,1,0,0:0:0:0:
256,64,136579,1,0,0:0:0:0:
256,64,136660,1,8,0:0:0:0:
256,64,136822,1,4,0:0:0:0:
256,64,136984,1,8,0:0:0:0:
224,192,137065,1,8,0:0:0:0:
192,192,137146,1,0,0:0:0:0:
256,96,137227,1,8,0:0:0:0:
256,96,137309,1,0,0:0:0:0:
256,96,137390,1,0,0:0:0:0:
384,96,137471,1,0,0:0:0:0:
256,64,137511,1,8,0:0:0:0:
256,64,137552,1,8,0:0:0:0:
256,64,137592,1,0,0:0:0:0:
256,64,137633,1,8,0:0:0:0:
256,64,137673,1,8,0:0:0:0:
256,64,137714,1,0,0:0:0:0:
256,64,137754,1,8,0:0:0:0:
256,64,137795,1,4,0:0:0:0:
224,128,138119,1,8,0:0:0:0:
224,128,138281,1,0,0:0:0:0:
224,128,138363,1,0,0:0:0:0:
224,128,138444,1,0,0:0:0:0:
160,32,138525,1,0,0:0:0:0:
160,32,138606,1,0,0:0:0:0:
160,32,138687,1,0,0:0:0:0:
160,32,138768,1,8,0:0:0:0:
160,32,138930,1,4,0:0:0:0:
256,128,139254,1,0,0:0:0:0:
192,64,139417,1,8,0:0:0:0:
192,96,139579,1,0,0:0:0:0:
192,96,139660,1,0,0:0:0:0:
192,96,139741,1,0,0:0:0:0:
192,96,139903,1,0,0:0:0:0:
192,96,139984,1,0,0:0:0:0:
192,96,140065,1,8,0:0:0:0:
192,96,140146,1,8,0:0:0:0:
192,96,140227,1,0,0:0:0:0:
192,96,140309,1,0,0:0:0:0:
192,96,140390,1,4,0:0:0:0:
256,96,140552,1,0,0:0:0:0:
256,96,140633,1,0,0:0:0:0:
256,96,140714,1,8,0:0:0:0:
256,96,140876,1,4,0:0:0:0:
256,96,141038,1,0,0:0:0:0:
192,128,141119,1,0,0:0:0:0:
352,128,141200,1,0,0:0:0:0:
256,96,141363,1,8,0:0:0:0:
192,96,141525,1,4,0:0:0:0:
256,128,141849,1,0,0:0:0:0:
256,128,141930,1,0,0:0:0:0:
256,128,142011,1,8,0:0:0:0:
256,128,142173,1,0,0:0:0:0:
256,128,142254,1,0,0:0:0:0:
256,128,142336,1,0,0:0:0:0:
256,128,142498,1,0,0:0:0:0:
256,128,142579,1,0,0:0:0:0:
256,128,142660,1,8,0:0:0:0:
256,128,142741,1,8,0:0:0:0:
256,128,142822,1,0,0:0:0:0:
256,128,142903,1,0,0:0:0:0:
256,128,142984,1,8,0:0:0:0:
256,128,143065,1,8,0:0:0:0:
256,128,143146,1,0,0:0:0:0:
256,128,143227,1,0,0:0:0:0:
256,128,143309,1,0,0:0:0:0:
256,128,143390,1,0,0:0:0:0:
256,128,143471,1,8,0:0:0:0:
256,128,143552,1,8,0:0:0:0:
256,128,143633,1,0,0:0:0:0:
256,128,143714,1,0,0:0:0:0:
256,128,143795,1,0,0:0:0:0:
256,128,143876,1,0,0:0:0:0:
256,128,143957,1,8,0:0:0:0:
256,128,144038,1,0,0:0:0:0:
256,128,144119,1,0,0:0:0:0:
256,128,144200,1,0,0:0:0:0:
256,128,144281,1,8,0:0:0:0:
256,128,144363,1,8,0:0:0:0:
256,128,144444,1,0,0:0:0:0:
256,128,144525,1,0,0:0:0:0:
256,128,144606,1,0,0:0:0:0:
256,128,144687,1,0,0:0:0:0:
256,128,144768,1,8,0:0:0:0:
256,128,144849,1,8,0:0:0:0:
256,128,144930,1,0,0:0:0:0:
256,128,145011,1,0,0:0:0:0:
256,128,145092,1,0,0:0:0:0:
256,128,145173,1,0,0:0:0:0:
256,128,145254,1,8,0:0:0:0:
256,128,145336,1,0,0:0:0:0:
256,128,145417,1,0,0:0:0:0:
256,128,145498,1,0,0:0:0:0:
256,160,145579,1,12,0:0:0:0:
256,160,145741,1,0,0:0:0:0:
256,160,145822,1,0,0:0:0:0:
256,160,145903,1,0,0:0:0:0:
320,224,146065,1,12,0:0:0:0:
320,224,146227,1,0,0:0:0:0:
320,224,146309,1,0,0:0:0:0:
320,224,146390,1,0,0:0:0:0:
320,224,146552,1,12,0:0:0:0:
320,224,146714,1,0,0:0:0:0:
320,224,146795,1,0,0:0:0:0:
320,224,146876,1,0,0:0:0:0:
224,160,147038,1,12,0:0:0:0:
416,160,147200,1,0,0:0:0:0:
416,160,147254,1,0,0:0:0:0:
416,160,147309,1,0,0:0:0:0:
416,160,147363,1,0,0:0:0:0:
416,160,147525,1,12,0:0:0:0:
192,64,147687,1,0,0:0:0:0:
192,96,147849,1,8,0:0:0:0:
192,96,147930,1,8,0:0:0:0:
192,96,148011,1,0,0:0:0:0:
288,128,148173,1,12,0:0:0:0:
288,128,148336,1,0,0:0:0:0:
288,128,148417,1,0,0:0:0:0:
288,128,148498,1,0,0:0:0:0:
288,128,148660,1,8,0:0:0:0:
288,128,148822,1,0,0:0:0:0:
256,192,148984,1,8,0:0:0:0:
288,128,149146,1,0,0:0:0:0:
288,128,149227,1,0,0:0:0:0:
288,128,149309,1,0,0:0:0:0:
256,96,149471,1,12,0:0:0:0:
256,96,149633,1,0,0:0:0:0:
384,128,149714,1,0,0:0:0:0:
256,96,149795,1,8,0:0:0:0:
288,224,150119,1,0,0:0:0:0:
288,224,150200,1,0,0:0:0:0:
288,224,150281,1,0,0:0:0:0:
288,224,150363,1,0,0:0:0:0:
288,224,150444,1,8,0:0:0:0:
224,224,150768,1,0,0:0:0:0:
256,160,151092,1,0,0:0:0:0:
256,160,151417,1,0,0:0:0:0:
256,160,151741,1,0,0:0:0:0:
256,160,152065,1,0,0:0:0:0:
256,160,152390,1,0,0:0:0:0:
256,96,152714,1,0,0:0:0:0:
224,128,153038,1,8,0:0:0:0:
224,128,153200,1,0,0:0:0:0:
224,128,153687,1,12,0:0:0:0:
320,128,154173,1,0,0:0:0:0:
320,128,154336,1,8,0:0:0:0:
320,128,154660,1,0,0:0:0:0:
320,128,154984,1,8,0:0:0:0:
320,128,155471,1,0,0:0:0:0:
320,128,155633,1,8,0:0:0:0:
256,256,155957,1,0,0:0:0:0:
256,256,156281,1,8,0:0:0:0:
256,256,156606,1,0,0:0:0:0:
256,256,156768,1,0,0:0:0:0:
224,128,156930,1,8,0:0:0:0:
224,128,157092,1,0,0:0:0:0:
256,96,157417,1,0,0:0:0:0:
256,96,157579,1,8,0:0:0:0:
288,96,157903,1,0,0:0:0:0:
288,96,157984,1,0,0:0:0:0:
288,96,158065,1,0,0:0:0:0:
288,96,158146,1,0,0:0:0:0:
288,96,158227,1,8,0:0:0:0:
288,96,158390,1,0,0:0:0:0:
256,96,158714,1,0,0:0:0:0:
256,96,158795,1,0,0:0:0:0:
256,96,158876,1,12,0:0:0:0:
192,32,159363,1,0,0:0:0:0:
192,32,159525,1,8,0:0:0:0:
320,160,159849,1,0,0:0:0:0:
320,160,160173,1,8,0:0:0:0:
320,160,160498,1,0,0:0:0:0:
320,160,160579,1,0,0:0:0:0:
320,160,160660,1,0,0:0:0:0:
320,160,160822,1,8,0:0:0:0:
320,160,160984,1,0,0:0:0:0:
288,192,161146,1,12,0:0:0:0:
288,192,161309,1,0,0:0:0:0:
288,192,161390,1,0,0:0:0:0:
288,192,161471,1,8,0:0:0:0:
288,192,161633,1,0,0:0:0:0:
288,192,161795,1,12,0:0:0:0:
288,192,162119,1,0,0:0:0:0:
288,192,162281,1,0,0:0:0:0:
288,192,162444,1,12,0:0:0:0:
288,192,162606,1,0,0:0:0:0:
288,192,162687,1,0,0:0:0:0:
288,192,162768,1,8,0:0:0:0:
224,96,162930,1,0,0:0:0:0:
224,128,163092,1,12,0:0:0:0:
224,96,163254,1,8,0:0:0:0:
224,96,163417,1,0,0:0:0:0:
224,96,163498,1,0,0:0:0:0:
224,96,163579,1,0,0:0:0:0:
224,96,163741,1,12,0:0:0:0:
256,160,163903,1,0,0:0:0:0:
256,160,163984,1,0,0:0:0:0:
256,160,164065,1,8,0:0:0:0:
256,160,164227,1,0,0:0:0:0:
256,160,164309,1,0,0:0:0:0:
256,160,164390,1,0,0:0:0:0:
256,160,164552,1,0,0:0:0:0:
256,160,164633,1,0,0:0:0:0:
256,160,164714,1,8,0:0:0:0:
256,160,164876,1,0,0:0:0:0:
256,160,164957,1,0,0:0:0:0:
256,160,165038,1,12,0:0:0:0:
256,160,166336,1,4,0:0:0:0:
224,64,166660,1,8,0:0:0:0:
320,128,166822,1,0,0:0:0:0:
320,128,166903,1,0,0:0:0:0:
320,128,166984,1,0,0:0:0:0:
320,128,167146,1,0,0:0:0:0:
320,128,167309,1,8,0:0:0:0:
256,128,167471,1,0,0:0:0:0:
256,128,167633,1,0,0:0:0:0:
288,128,167957,1,8,0:0:0:0:
288,128,168119,1,0,0:0:0:0:
288,128,168200,1,0,0:0:0:0:
288,128,168281,1,0,0:0:0:0:
288,128,168444,1,8,0:0:0:0:
192,32,168606,1,8,0:0:0:0:
192,64,168768,1,0,0:0:0:0:
192,64,168930,1,0,0:0:0:0:
224,160,169254,1,8,0:0:0:0:
224,160,169417,1,0,0:0:0:0:
224,160,169498,1,0,0:0:0:0:
224,160,169579,1,0,0:0:0:0:
224,160,169741,1,0,0:0:0:0:
224,160,169903,1,8,0:0:0:0:
224,160,170065,1,0,0:0:0:0:
224,128,170227,1,8,0:0:0:0:
224,128,170309,1,8,0:0:0:0:
224,128,170390,1,0,0:0:0:0:
224,192,170552,1,0,0:0:0:0:
224,192,170714,1,8,0:0:0:0:
224,192,170795,1,8,0:0:0:0:
224,192,170876,1,0,0:0:0:0:
224,128,171038,1,0,0:0:0:0:
224,128,171200,1,8,0:0:0:0:
256,160,171281,1,8,0:0:0:0:
256,160,171363,1,0,0:0:0:0:
224,192,171525,1,4,0:0:0:0:
224,128,171687,1,0,0:0:0:0:
224,128,171768,1,0,0:0:0:0:
224,128,171849,1,8,0:0:0:0:
224,128,172011,1,0,0:0:0:0:
224,128,172092,1,0,0:0:0:0:
224,128,172173,1,0,0:0:0:0:
224,128,172336,1,0,0:0:0:0:
224,128,172498,1,8,0:0:0:0:
224,128,172660,1,0,0:0:0:0:
224,128,172741,1,0,0:0:0:0:
224,128,172822,1,0,0:0:0:0:
224,128,172984,1,0,0:0:0:0:
224,128,173146,1,8,0:0:0:0:
224,128,173309,1,0,0:0:0:0:
224,128,173390,1,0,0:0:0:0:
224,128,173471,1,0,0:0:0:0:
224,128,173633,1,0,0:0:0:0:
224,128,173795,1,8,0:0:0:0:
192,96,173957,1,0,0:0:0:0:
192,96,174038,1,0,0:0:0:0:
192,96,174119,1,12,0:0:0:0:
224,128,174281,1,8,0:0:0:0:
224,128,174363,1,0,0:0:0:0:
224,128,174525,1,8,0:0:0:0:
224,128,174606,1,0,0:0:0:0:
224,128,174768,1,12,0:0:0:0:
224,128,174930,1,8,0:0:0:0:
224,128,175011,1,0,0:0:0:0:
224,128,175173,1,8,0:0:0:0:
224,128,175254,1,0,0:0:0:0:
224,128,175417,1,12,0:0:0:0:
224,128,175579,1,8,0:0:0:0:
224,128,175660,1,0,0:0:0:0:
224,128,175822,1,8,0:0:0:0:
224,128,175903,1,0,0:0:0:0:
224,128,176065,1,12,0:0:0:0:
224,128,176227,1,8,0:0:0:0:
160,96,176309,1,0,0:0:0:0:
160,96,176471,1,8,0:0:0:0:
160,96,176552,1,0,0:0:0:0:
288,128,176714,1,4,0:0:0:0:
256,128,176876,1,0,0:0:0:0:
256,128,176957,1,0,0:0:0:0:
256,128,177038,1,8,0:0:0:0:
256,128,177200,1,0,0:0:0:0:
256,128,177444,1,8,0:0:0:0:
256,128,177525,1,0,0:0:0:0:
256,128,177687,1,8,0:0:0:0:
256,128,177849,1,0,0:0:0:0:
256,128,178011,1,0,0:0:0:0:
224,96,178173,1,0,0:0:0:0:
224,96,178254,1,0,0:0:0:0:
224,96,178336,1,8,0:0:0:0:
224,96,178498,1,0,0:0:0:0:
224,96,178579,1,8,0:0:0:0:
224,96,178741,1,8,0:0:0:0:
224,96,178822,1,0,0:0:0:0:
192,64,178984,1,8,0:0:0:0:
288,160,179146,1,0,0:0:0:0:
288,160,179227,1,0,0:0:0:0:
288,160,179309,1,12,0:0:0:0:
288,160,179471,1,0,0:0:0:0:
288,160,179552,1,0,0:0:0:0:
224,96,179633,1,8,0:0:0:0:
224,96,179795,1,0,0:0:0:0:
224,96,179876,1,0,0:0:0:0:
224,96,179957,1,0,0:0:0:0:
224,96,180119,1,0,0:0:0:0:
224,96,180200,1,0,0:0:0:0:
224,96,180281,1,8,0:0:0:0:
256,160,180363,1,8,0:0:0:0:
256,160,180444,1,0,0:0:0:0:
256,160,180606,1,4,0:0:0:0:
128,128,180768,1,0,0:0:0:0:
128,128,180930,1,8,0:0:0:0:
128,128,181092,1,8,0:0:0:0:
224,96,181254,1,8,0:0:0:0:
224,96,181417,1,0,0:0:0:0:
224,96,181498,1,0,0:0:0:0:
224,96,181579,1,8,0:0:0:0:
224,96,181660,1,8,0:0:0:0:
224,96,181741,1,0,0:0:0:0:
224,96,181903,1,12,0:0:0:0:
192,64,182390,1,8,0:0:0:0:
160,64,182714,1,8,0:0:0:0:
160,96,182876,1,8,0:0:0:0:
192,128,183200,1,8,0:0:0:0:
192,96,183687,1,8,0:0:0:0:
192,96,184173,1,8,0:0:0:0:
288,128,184498,1,8,0:0:0:0:
288,128,184984,1,8,0:0:0:0:
256,192,185309,1,8,0:0:0:0:
256,192,185471,1,8,0:0:0:0:
256,192,185795,1,8,0:0:0:0:
256,192,186281,1,8,0:0:0:0:
256,192,186768,1,8,0:0:0:0:
256,224,187092,1,8,0:0:0:0:
256,224,187579,1,8,0:0:0:0:
256,224,187903,1,8,0:0:0:0:
256,224,188065,1,8,0:0:0:0:
256,224,188390,1,8,0:0:0:0:
256,224,188876,1,8,0:0:0:0:
256,224,189200,1,8,0:0:0:0:
256,224,189363,1,8,0:0:0:0:
256,224,189687,1,8,0:0:0:0:
224,128,190173,1,8,0:0:0:0:
256,128,190498,1,8,0:0:0:0:
256,128,190660,1,8,0:0:0:0:
256,128,190822,1,0,0:0:0:0:
256,128,191146,1,8,0:0:0:0:
256,128,191227,1,8,0:0:0:0:
256,128,191309,1,0,0:0:0:0:
192,96,191471,1,0,0:0:0:0:
352,128,191633,1,8,0:0:0:0:
352,128,191660,1,8,0:0:0:0:
288,96,191795,1,0,0:0:0:0:
288,128,191957,1,8,0:0:0:0:
288,128,192119,1,8,0:0:0:0:
288,128,192281,1,0,0:0:0:0:
288,128,192606,1,12,0:0:0:0:
192,96,192768,1,0,0:0:0:0:
192,96,192849,1,0,0:0:0:0:
192,96,192930,1,0,0:0:0:0:
192,96,193011,1,0,0:0:0:0:
192,96,193092,1,0,0:0:0:0:
192,96,193173,1,0,0:0:0:0:
192,96,193254,1,8,0:0:0:0:
224,96,193417,1,0,0:0:0:0:
224,96,193498,1,0,0:0:0:0:
224,96,193579,1,0,0:0:0:0:
224,96,193741,1,0,0:0:0:0:
224,96,193822,1,0,0:0:0:0:
224,96,193903,1,8,0:0:0:0:
224,96,193984,1,0,0:0:0:0:
224,96,194065,1,0,0:0:0:0:
224,96,194146,1,0,0:0:0:0:
224,96,194227,1,0,0:0:0:0:
224,96,194309,1,8,0:0:0:0:
224,96,194390,1,0,0:0:0:0:
224,96,194471,1,0,0:0:0:0:
224,96,194552,1,8,0:0:0:0:
224,96,194714,1,8,0:0:0:0:
224,96,194795,1,8,0:0:0:0:
224,96,194876,1,4,0:0:0:0:
224,96,195038,1,0,0:0:0:0:
224,96,195119,1,0,0:0:0:0:
224,96,195200,1,8,0:0:0:0:
224,96,195363,1,4,0:0:0:0:
224,96,195525,1,0,0:0:0:0:
224,96,195606,1,0,0:0:0:0:
224,96,195687,1,0,0:0:0:0:
224,96,195849,1,8,0:0:0:0:
224,96,196011,1,4,0:0:0:0:
192,96,196336,1,0,0:0:0:0:
192,96,196417,1,0,0:0:0:0:
192,96,196498,1,8,0:0:0:0:
192,64,196660,1,0,0:0:0:0:
192,64,196741,1,0,0:0:0:0:
192,64,196822,1,0,0:0:0:0:
192,64,196903,1,0,0:0:0:0:
192,64,196984,1,0,0:0:0:0:
192,64,197065,1,0,0:0:0:0:
192,64,197146,1,8,0:0:0:0:
224,96,197227,1,8,0:0:0:0:
224,96,197309,1,0,0:0:0:0:
224,96,197390,1,0,0:0:0:0:
224,96,197471,1,8,0:0:0:0:
224,96,197552,1,0,0:0:0:0:
224,96,197633,1,0,0:0:0:0:
224,96,197714,1,0,0:0:0:0:
224,96,197795,1,8,0:0:0:0:
288,96,197957,1,0,0:0:0:0:
288,96,198038,1,0,0:0:0:0:
288,96,198119,1,8,0:0:0:0:
192,160,198200,1,0,0:0:0:0:
192,160,198281,1,0,0:0:0:0:
192,160,198362,1,8,0:0:0:0:
192,160,198443,1,8,0:0:0:0:
192,160,198525,1,0,0:0:0:0:
192,160,198606,1,0,0:0:0:0:
192,160,198687,1,0,0:0:0:0:
192,160,198768,1,8,0:0:0:0:
192,160,198849,1,8,0:0:0:0:
192,160,198930,1,0,0:0:0:0:
192,160,199011,1,0,0:0:0:0:
192,160,199092,1,8,0:0:0:0:
288,96,199254,1,0,0:0:0:0:
288,96,199335,1,0,0:0:0:0:
288,96,199416,1,8,0:0:0:0:
192,160,199497,1,0,0:0:0:0:
192,160,199578,1,0,0:0:0:0:
192,160,199659,1,8,0:0:0:0:
192,160,199740,1,8,0:0:0:0:
192,160,199822,1,0,0:0:0:0:
192,160,199903,1,0,0:0:0:0:
192,160,199984,1,0,0:0:0:0:
256,128,200065,1,12,0:0:0:0:
288,96,200227,1,0,0:0:0:0:
288,96,200309,1,0,0:0:0:0:
288,96,200390,1,0,0:0:0:0:
288,96,200552,1,12,0:0:0:0:
288,96,200714,1,8,0:0:0:0:
288,96,200795,1,0,0:0:0:0:
288,96,200876,1,0,0:0:0:0:
288,96,201038,1,0,0:0:0:0:
288,96,201200,1,4,0:0:0:0:
288,96,201363,1,0,0:0:0:0:
288,96,201444,1,0,0:0:0:0:
288,96,201525,1,8,0:0:0:0:
288,96,201687,1,0,0:0:0:0:
288,96,201849,1,8,0:0:0:0:
352,128,201930,1,8,0:0:0:0:
224,96,202011,1,0,0:0:0:0:
288,128,202092,1,8,0:0:0:0:
288,128,202173,1,0,0:0:0:0:
288,128,202254,1,0,0:0:0:0:
288,128,202336,1,0,0:0:0:0:
352,64,202376,1,8,0:0:0:0:
352,64,202417,1,8,0:0:0:0:
352,64,202457,1,0,0:0:0:0:
352,64,202498,1,8,0:0:0:0:
352,64,202538,1,8,0:0:0:0:
352,64,202579,1,0,0:0:0:0:
352,64,202619,1,8,0:0:0:0:
352,64,202660,1,4,0:0:0:0:
288,128,202984,1,12,0:0:0:0:
192,96,203146,1,0,0:0:0:0:
192,96,203227,1,0,0:0:0:0:
192,96,203308,1,0,0:0:0:0:
192,96,203389,1,0,0:0:0:0:
192,96,203470,1,0,0:0:0:0:
192,96,203551,1,0,0:0:0:0:
192,96,203632,1,8,0:0:0:0:
224,96,203795,1,0,0:0:0:0:
224,96,203876,1,0,0:0:0:0:
224,96,203957,1,0,0:0:0:0:
224,96,204119,1,0,0:0:0:0:
224,96,204200,1,0,0:0:0:0:
224,96,204281,1,8,0:0:0:0:
224,96,204362,1,0,0:0:0:0:
224,96,204443,1,0,0:0:0:0:
224,96,204524,1,0,0:0:0:0:
224,96,204605,1,0,0:0:0:0:
224,96,204687,1,8,0:0:0:0:
224,96,204768,1,0,0:0:0:0:
224,96,204849,1,0,0:0:0:0:
224,96,204930,1,8,0:0:0:0:
224,96,205092,1,8,0:0:0:0:
224,96,205173,1,8,0:0:0:0:
224,96,205254,1,4,0:0:0:0:
224,96,205416,1,0,0:0:0:0:
224,96,205497,1,0,0:0:0:0:
224,96,205578,1,8,0:0:0:0:
224,96,205741,1,4,0:0:0:0:
224,96,205903,1,0,0:0:0:0:
224,96,205984,1,0,0:0:0:0:
224,96,206065,1,0,0:0:0:0:
224,96,206227,1,8,0:0:0:0:
224,96,206389,1,4,0:0:0:0:
192,96,206714,1,0,0:0:0:0:
192,96,206795,1,0,0:0:0:0:
192,96,206876,1,8,0:0:0:0:
192,64,207038,1,0,0:0:0:0:
192,64,207119,1,0,0:0:0:0:
192,64,207200,1,0,0:0:0:0:
192,64,207281,1,0,0:0:0:0:
192,64,207362,1,0,0:0:0:0:
192,64,207443,1,0,0:0:0:0:
192,64,207524,1,8,0:0:0:0:
224,96,207605,1,8,0:0:0:0:
224,96,207687,1,0,0:0:0:0:
224,96,207768,1,0,0:0:0:0:
224,96,207849,1,8,0:0:0:0:
224,96,207930,1,0,0:0:0:0:
224,96,208011,1,0,0:0:0:0:
224,96,208092,1,0,0:0:0:0:
224,96,208173,1,8,0:0:0:0:
288,96,208335,1,0,0:0:0:0:
288,96,208416,1,0,0:0:0:0:
288,96,208497,1,8,0:0:0:0:
192,160,208578,1,0,0:0:0:0:
192,160,208659,1,0,0:0:0:0:
192,160,208740,1,8,0:0:0:0:
192,160,208821,1,8,0:0:0:0:
192,160,208903,1,0,0:0:0:0:
192,160,208984,1,0,0:0:0:0:
192,160,209065,1,0,0:0:0:0:
192,160,209146,1,8,0:0:0:0:
192,160,209227,1,8,0:0:0:0:
192,160,209308,1,0,0:0:0:0:
192,160,209389,1,0,0:0:0:0:
192,160,209470,1,0,0:0:0:0:
288,96,209632,1,0,0:0:0:0:
288,96,209713,1,0,0:0:0:0:
288,96,209794,1,8,0:0:0:0:
192,160,209875,1,0,0:0:0:0:
192,160,209956,1,0,0:0:0:0:
192,160,210037,1,8,0:0:0:0:
192,160,210118,1,8,0:0:0:0:
192,160,210200,1,0,0:0:0:0:
192,160,210281,1,0,0:0:0:0:
192,160,210362,1,0,0:0:0:0:
256,128,210443,1,12,0:0:0:0:
288,96,210605,1,0,0:0:0:0:
288,96,210687,1,0,0:0:0:0:
288,96,210768,1,0,0:0:0:0:
288,96,210930,1,12,0:0:0:0:
288,96,211092,1,8,0:0:0:0:
288,96,211173,1,0,0:0:0:0:
288,96,211254,1,0,0:0:0:0:
288,96,211416,1,0,0:0:0:0:
288,96,211578,1,4,0:0:0:0:
288,96,211741,1,0,0:0:0:0:
288,96,211822,1,0,0:0:0:0:
288,96,211903,1,8,0:0:0:0:
288,96,212065,1,0,0:0:0:0:
128,96,212227,1,4,0:0:0:0:
224,128,212390,1,8,0:0:0:0:
224,128,212471,1,8,0:0:0:0:
224,128,212552,1,0,0:0:0:0:
224,128,212714,1,8,0:0:0:0:
224,128,212795,1,8,0:0:0:0:
224,128,212876,1,0,0:0:0:0:
256,96,213038,1,12,0:0:0:0:
256,64,213200,1,0,0:0:0:0:
256,64,213281,1,0,0:0:0:0:
256,192,213363,1,0,0:0:0:0:
256,192,213525,1,8,0:0:0:0:
256,192,213687,1,0,0:0:0:0:
256,192,213849,1,8,0:0:0:0:
256,192,214011,1,0,0:0:0:0:
256,192,214092,1,0,0:0:0:0:
256,192,214173,1,0,0:0:0:0:
288,224,214336,1,12,0:0:0:0:
256,224,214498,1,0,0:0:0:0:
256,224,214660,1,8,0:0:0:0:
288,192,214984,1,0,0:0:0:0:
288,192,215065,1,0,0:0:0:0:
288,192,215146,1,0,0:0:0:0:
288,192,215227,1,0,0:0:0:0:
288,192,215309,1,8,0:0:0:0:
320,96,215633,1,12,0:0:0:0:
320,96,215795,1,0,0:0:0:0:
320,96,215876,1,0,0:0:0:0:
320,96,215957,1,8,0:0:0:0:
320,96,216119,1,0,0:0:0:0:
320,96,216200,1,0,0:0:0:0:
320,96,216281,1,0,0:0:0:0:
320,96,216444,1,0,0:0:0:0:
320,96,216606,1,8,0:0:0:0:
320,96,216768,1,0,0:0:0:0:
320,96,216930,1,12,0:0:0:0:
320,96,217092,1,0,0:0:0:0:
320,96,217173,1,0,0:0:0:0:
320,96,217254,1,8,0:0:0:0:
320,96,217416,1,0,0:0:0:0:
320,96,217497,1,0,0:0:0:0:
320,96,217578,1,0,0:0:0:0:
320,96,217741,1,0,0:0:0:0:
320,96,217903,1,8,0:0:0:0:
320,96,218065,1,0,0:0:0:0:
320,96,218227,1,12,0:0:0:0:
320,96,218389,1,0,0:0:0:0:
320,96,218470,1,0,0:0:0:0:
320,96,218551,1,8,0:0:0:0:
320,96,218713,1,0,0:0:0:0:
320,96,218794,1,0,0:0:0:0:
320,96,218875,1,0,0:0:0:0:
320,96,219038,1,0,0:0:0:0:
320,96,219200,1,8,0:0:0:0:
320,96,219362,1,0,0:0:0:0:
192,64,219525,1,0,0:0:0:0:
224,64,219687,1,8,0:0:0:0:
224,96,219849,1,0,0:0:0:0:
224,96,219930,1,0,0:0:0:0:
224,96,220011,1,8,0:0:0:0:
224,96,220173,1,0,0:0:0:0:
224,96,220335,1,8,0:0:0:0:
256,96,220498,1,8,0:0:0:0:
256,96,220660,1,8,0:0:0:0:
320,96,220822,1,12,0:0:0:0:
320,96,220984,1,0,0:0:0:0:
320,96,221065,1,0,0:0:0:0:
320,96,221146,1,8,0:0:0:0:
320,96,221308,1,0,0:0:0:0:
320,96,221389,1,0,0:0:0:0:
320,96,221470,1,0,0:0:0:0:
320,96,221633,1,0,0:0:0:0:
320,96,221795,1,8,0:0:0:0:
320,96,221957,1,0,0:0:0:0:
320,96,222119,1,12,0:0:0:0:
320,96,222281,1,0,0:0:0:0:
320,96,222362,1,0,0:0:0:0:
320,96,222443,1,8,0:0:0:0:
320,96,222605,1,0,0:0:0:0:
320,96,222686,1,0,0:0:0:0:
320,96,222767,1,0,0:0:0:0:
320,96,222930,1,0,0:0:0:0:
320,96,223092,1,8,0:0:0:0:
320,96,223254,1,0,0:0:0:0:
320,96,223417,1,12,0:0:0:0:
320,96,223579,1,0,0:0:0:0:
320,96,223660,1,0,0:0:0:0:
320,96,223741,1,8,0:0:0:0:
320,96,223903,1,0,0:0:0:0:
320,96,223984,1,0,0:0:0:0:
320,96,224065,1,0,0:0:0:0:
320,96,224228,1,0,0:0:0:0:
320,96,224390,1,8,0:0:0:0:
320,96,224552,1,0,0:0:0:0:
224,192,224714,1,0,0:0:0:0:
224,192,224876,1,12,0:0:0:0:
224,192,225038,1,0,0:0:0:0:
224,192,225119,1,0,0:0:0:0:
224,192,225200,1,12,0:0:0:0:
128,96,225363,1,0,0:0:0:0:
128,96,225525,1,12,0:0:0:0:
224,96,225687,1,12,0:0:0:0:
224,96,225849,1,12,0:0:0:0:
320,96,226011,1,12,0:0:0:0:
320,96,226173,1,0,0:0:0:0:
320,96,226254,1,0,0:0:0:0:
320,96,226335,1,8,0:0:0:0:
320,96,226497,1,0,0:0:0:0:
320,96,226578,1,0,0:0:0:0:
320,96,226659,1,0,0:0:0:0:
320,96,226822,1,0,0:0:0:0:
320,96,226984,1,8,0:0:0:0:
320,96,227146,1,0,0:0:0:0:
320,96,227308,1,12,0:0:0:0:
320,96,227470,1,0,0:0:0:0:
320,96,227551,1,0,0:0:0:0:
320,96,227632,1,8,0:0:0:0:
320,96,227794,1,0,0:0:0:0:
320,96,227875,1,0,0:0:0:0:
320,96,227956,1,0,0:0:0:0:
320,96,228119,1,0,0:0:0:0:
320,96,228281,1,8,0:0:0:0:
320,96,228443,1,0,0:0:0:0:
320,96,228605,1,12,0:0:0:0:
320,96,228767,1,0,0:0:0:0:
320,96,228848,1,0,0:0:0:0:
320,96,228929,1,8,0:0:0:0:
320,96,229091,1,0,0:0:0:0:
320,96,229172,1,0,0:0:0:0:
320,96,229253,1,0,0:0:0:0:
320,96,229416,1,0,0:0:0:0:
320,96,229578,1,8,0:0:0:0:
320,96,229740,1,0,0:0:0:0:
192,64,229903,1,0,0:0:0:0:
224,64,230065,1,8,0:0:0:0:
224,96,230227,1,0,0:0:0:0:
224,96,230308,1,0,0:0:0:0:
224,96,230389,1,8,0:0:0:0:
224,96,230551,1,0,0:0:0:0:
224,96,230713,1,8,0:0:0:0:
256,96,230876,1,8,0:0:0:0:
256,96,231038,1,8,0:0:0:0:
320,96,231200,1,12,0:0:0:0:
320,96,231362,1,0,0:0:0:0:
320,96,231443,1,0,0:0:0:0:
320,96,231524,1,8,0:0:0:0:
320,96,231686,1,0,0:0:0:0:
320,96,231767,1,0,0:0:0:0:
320,96,231848,1,0,0:0:0:0:
320,96,232011,1,0,0:0:0:0:
320,96,232173,1,8,0:0:0:0:
320,96,232335,1,0,0:0:0:0:
320,96,232497,1,12,0:0:0:0:
320,96,232659,1,0,0:0:0:0:
320,96,232740,1,0,0:0:0:0:
320,96,232821,1,8,0:0:0:0:
320,96,232983,1,0,0:0:0:0:
320,96,233064,1,0,0:0:0:0:
320,96,233145,1,0,0:0:0:0:
320,96,233308,1,0,0:0:0:0:
320,96,233470,1,8,0:0:0:0:
320,96,233632,1,0,0:0:0:0:
320,96,233795,1,12,0:0:0:0:
320,96,233957,1,0,0:0:0:0:
320,96,234038,1,0,0:0:0:0:
320,96,234119,1,8,0:0:0:0:
320,96,234281,1,0,0:0:0:0:
320,96,234362,1,0,0:0:0:0:
320,96,234443,1,0,0:0:0:0:
320,96,234606,1,0,0:0:0:0:
320,96,234768,1,8,0:0:0:0:
320,96,234930,1,0,0:0:0:0:
160,128,235092,1,8,0:0:0:0:
160,128,235173,1,8,0:0:0:0:
160,128,235254,1,8,0:0:0:0:
160,128,235335,1,8,0:0:0:0:
160,128,235416,1,8,0:0:0:0:
160,128,235497,1,8,0:0:0:0:
160,128,235578,1,8,0:0:0:0:
160,128,235659,1,8,0:0:0:0:
160,128,235740,1,8,0:0:0:0:
160,128,235822,1,8,0:0:0:0:
160,128,235903,1,8,0:0:0:0:
160,128,235984,1,8,0:0:0:0:
160,128,236065,1,8,0:0:0:0:
224,64,236227,1,8,0:0:0:0:
