osu file format v14

[General]
AudioFilename: audio.mp3
AudioLeadIn: 0
PreviewTime: 63481
Countdown: 0
SampleSet: Normal
StackLeniency: 0.7
Mode: 1
LetterboxInBreaks: 0
WidescreenStoryboard: 0

[Editor]
DistanceSpacing: 0.1
BeatDivisor: 4
GridSize: 32
TimelineZoom: 2.5

[Metadata]
Title:Mamanaranai
TitleUnicode:ままならない
Artist:Buta-Otome
ArtistUnicode:豚乙女
Creator:Karee Pan
Version:Muzukashii
Source:東方Project
Tags:butaotome, touhou, ランコ, ランコ, ランコ, ランコの姉, Paradise Lost, パンデモニックプラネット, Pandemonic Planet, 上海アリス幻樂団, ZUN,
BeatmapID:1524527
BeatmapSetID:722051

[Difficulty]
HPDrainRate:5
CircleSize:2
OverallDifficulty:5
ApproachRate:5
SliderMultiplier:1.4
SliderTickRate:1

[Events]
//Background and Video events
0,0,"BG.png",0,0
//Break Periods
2,149417,155754
//Storyboard Layer 0 (Background)
//Storyboard Layer 1 (Fail)
//Storyboard Layer 2 (Pass)
//Storyboard Layer 3 (Foreground)
//Storyboard Sound Samples

[TimingPoints]
324,315.789473684211,4,1,0,80,1,0
10427,-100,4,1,0,60,0,0
14850,-100,4,1,0,80,0,0
20534,-100,4,1,0,60,0,0
24955,-100,4,1,0,80,0,0
30637,-100,4,1,0,90,0,0
31900,-100,4,1,0,70,0,0
33163,-100,4,1,0,90,0,0
34426,-100,4,1,0,70,0,0
35690,-100,4,1,0,90,0,0
36953,-100,4,1,0,70,0,0
38218,-100,4,1,0,65,0,0
40742,-100,4,1,0,60,0,0
41690,-100,4,1,0,40,0,0
43271,-100,4,1,0,90,0,1
63481,-100,4,1,0,80,0,0
73584,-100,4,1,0,60,0,0
78007,-100,4,1,0,80,0,0
83691,-100,4,1,0,60,0,0
88112,-100,4,1,0,80,0,0
93794,-100,4,1,0,90,0,0
95058,-100,4,1,0,70,0,0
96321,-100,4,1,0,90,0,0
97584,-100,4,1,0,70,0,0
98847,-100,4,1,0,90,0,0
100110,-100,4,1,0,70,0,0
101375,-100,4,1,0,65,0,0
103900,-100,4,1,0,60,0,0
105007,-100,4,1,0,40,0,0
106428,-100,4,1,0,90,0,1
126638,-100,4,1,0,70,0,0
156952,-100,4,1,0,60,0,0
159480,-100,4,1,0,90,0,1
179690,-100,4,1,0,70,0,0
199899,-100,4,1,0,80,0,0

[HitObjects]
256,192,324,5,12,0:0:0:0:
256,192,639,1,0,0:0:0:0:
256,192,955,1,0,0:0:0:0:
224,192,1113,1,0,0:0:0:0:
256,192,1271,1,8,0:0:0:0:
256,192,1429,1,0,0:0:0:0:
256,192,1587,1,8,0:0:0:0:
256,192,1902,1,0,0:0:0:0:
256,192,2218,1,0,0:0:0:0:
160,192,2376,1,0,0:0:0:0:
256,192,2534,1,8,0:0:0:0:
256,192,2692,1,0,0:0:0:0:
256,192,2850,1,12,0:0:0:0:
256,192,3166,1,0,0:0:0:0:
256,192,3481,1,0,0:0:0:0:
224,192,3639,1,0,0:0:0:0:
256,192,3797,1,8,0:0:0:0:
256,192,3955,1,0,0:0:0:0:
256,192,4113,1,8,0:0:0:0:
256,192,4429,1,8,0:0:0:0:
256,192,4587,1,0,0:0:0:0:
256,192,4745,1,8,0:0:0:0:
256,192,4902,1,8,0:0:0:0:
256,192,5060,1,0,0:0:0:0:
256,192,5376,1,12,0:0:0:0:
256,192,5692,1,0,0:0:0:0:
256,192,6008,1,0,0:0:0:0:
256,192,6166,1,0,0:0:0:0:
256,192,6323,1,8,0:0:0:0:
256,192,6639,1,8,0:0:0:0:
256,192,6797,1,0,0:0:0:0:
256,192,6955,1,8,0:0:0:0:
224,192,7113,1,0,0:0:0:0:
256,192,7271,1,0,0:0:0:0:
256,192,7429,1,0,0:0:0:0:
256,192,7587,1,8,0:0:0:0:
256,192,7902,1,12,0:0:0:0:
256,192,8218,1,0,0:0:0:0:
256,192,8534,1,0,0:0:0:0:
256,192,8692,1,0,0:0:0:0:
256,192,8850,1,8,0:0:0:0:
256,192,9008,1,8,0:0:0:0:
256,192,9323,1,8,0:0:0:0:
256,192,9639,1,8,0:0:0:0:
256,192,9797,1,0,0:0:0:0:
256,192,9955,1,8,0:0:0:0:
256,192,10034,1,8,0:0:0:0:
256,192,10113,1,8,0:0:0:0:
256,192,10271,1,8,0:0:0:0:
256,192,10429,1,4,0:0:0:0:
256,192,14850,1,4,0:0:0:0:
256,192,15008,1,4,0:0:0:0:
256,192,15323,1,12,0:0:0:0:
256,192,15639,1,0,0:0:0:0:
256,192,15797,1,8,0:0:0:0:
256,192,16113,1,0,0:0:0:0:
256,192,16271,1,0,0:0:0:0:
256,192,16429,1,8,0:0:0:0:
256,192,16587,1,0,0:0:0:0:
256,192,16902,1,0,0:0:0:0:
256,192,17060,1,8,0:0:0:0:
256,192,17376,1,8,0:0:0:0:
224,224,17534,1,0,0:0:0:0:
192,192,17692,1,8,0:0:0:0:
192,192,17850,1,0,0:0:0:0:
192,192,18165,1,0,0:0:0:0:
192,192,18323,1,8,0:0:0:0:
192,192,18639,1,8,0:0:0:0:
192,192,18797,1,8,0:0:0:0:
192,192,18955,1,0,0:0:0:0:
192,192,19113,1,12,0:0:0:0:
192,192,19429,1,12,0:0:0:0:
192,192,19744,1,12,0:0:0:0:
192,192,19902,1,0,0:0:0:0:
192,192,19981,1,0,0:0:0:0:
192,192,20060,1,0,0:0:0:0:
192,192,20218,1,8,0:0:0:0:
320,192,20534,1,4,0:0:0:0:
256,192,24955,1,4,0:0:0:0:
256,192,25113,1,4,0:0:0:0:
256,192,25429,1,12,0:0:0:0:
256,192,25744,1,0,0:0:0:0:
256,192,25902,1,8,0:0:0:0:
256,192,26218,1,0,0:0:0:0:
224,192,26376,1,0,0:0:0:0:
256,192,26534,1,8,0:0:0:0:
256,192,26692,1,0,0:0:0:0:
256,192,27007,1,0,0:0:0:0:
256,192,27165,1,8,0:0:0:0:
256,192,27481,1,8,0:0:0:0:
256,192,27639,1,0,0:0:0:0:
256,192,27797,1,0,0:0:0:0:
256,192,27955,1,8,0:0:0:0:
224,192,28271,1,0,0:0:0:0:
224,192,28429,1,8,0:0:0:0:
224,192,28744,1,0,0:0:0:0:
224,192,28902,1,0,0:0:0:0:
224,192,29060,1,0,0:0:0:0:
224,192,29218,1,8,0:0:0:0:
224,192,29534,1,0,0:0:0:0:
224,192,29692,1,8,0:0:0:0:
224,192,29850,1,0,0:0:0:0:
224,192,30007,1,8,0:0:0:0:
224,192,30086,1,8,0:0:0:0:
224,192,30165,1,8,0:0:0:0:
224,192,30323,1,0,0:0:0:0:
224,192,30639,1,12,0:0:0:0:
224,192,30797,1,12,0:0:0:0:
224,192,30955,1,12,0:0:0:0:
224,192,31744,1,4,0:0:0:0:
224,192,32060,1,0,0:0:0:0:
224,192,32218,1,8,0:0:0:0:
224,192,32376,1,0,0:0:0:0:
224,192,32455,1,0,0:0:0:0:
224,192,32534,1,0,0:0:0:0:
224,192,32692,1,8,0:0:0:0:
224,192,32850,1,0,0:0:0:0:
224,192,33165,1,4,0:0:0:0:
224,192,33323,1,4,0:0:0:0:
224,192,33481,1,4,0:0:0:0:
224,192,34271,1,4,0:0:0:0:
224,192,34586,1,0,0:0:0:0:
224,192,34744,1,8,0:0:0:0:
224,192,34902,1,0,0:0:0:0:
224,192,35060,1,8,0:0:0:0:
224,192,35139,1,8,0:0:0:0:
192,96,35218,1,8,0:0:0:0:
224,192,35376,1,0,0:0:0:0:
224,192,35692,1,12,0:0:0:0:
224,192,35850,1,12,0:0:0:0:
224,192,36007,1,12,0:0:0:0:
224,192,36797,1,4,0:0:0:0:
224,192,37113,1,0,0:0:0:0:
224,192,37271,1,8,0:0:0:0:
224,192,37428,1,0,0:0:0:0:
224,192,37586,1,8,0:0:0:0:
224,192,37665,1,8,0:0:0:0:
224,192,37744,1,8,0:0:0:0:
224,192,37902,1,0,0:0:0:0:
224,192,38060,1,8,0:0:0:0:
224,192,38218,1,4,0:0:0:0:
256,192,38534,1,0,0:0:0:0:
256,192,38850,1,8,0:0:0:0:
256,192,39007,1,0,0:0:0:0:
256,192,39323,1,8,0:0:0:0:
256,192,39639,1,0,0:0:0:0:
256,192,39797,1,0,0:0:0:0:
256,192,40113,1,8,0:0:0:0:
256,192,40744,1,4,0:0:0:0:
256,192,41060,1,8,0:0:0:0:
256,192,41376,1,8,0:0:0:0:
256,192,41534,1,0,0:0:0:0:
256,192,41849,1,0,0:0:0:0:
256,192,43271,1,12,0:0:0:0:
256,192,43586,1,8,0:0:0:0:
256,192,43744,1,8,0:0:0:0:
256,192,43902,1,0,0:0:0:0:
256,128,44218,1,0,0:0:0:0:
224,160,44534,1,8,0:0:0:0:
224,160,44849,1,0,0:0:0:0:
256,128,45007,1,8,0:0:0:0:
224,160,45165,1,0,0:0:0:0:
224,160,45481,1,8,0:0:0:0:
224,160,45797,1,4,0:0:0:0:
224,160,46113,1,8,0:0:0:0:
256,128,46271,1,0,0:0:0:0:
224,160,46428,1,8,0:0:0:0:
256,160,46586,1,0,0:0:0:0:
224,160,46744,1,8,0:0:0:0:
224,160,47060,1,8,0:0:0:0:
224,160,47376,1,8,0:0:0:0:
256,128,47534,1,0,0:0:0:0:
224,160,47692,1,0,0:0:0:0:
224,160,47849,1,0,0:0:0:0:
256,128,48007,1,8,0:0:0:0:
256,128,48323,1,4,0:0:0:0:
224,160,48639,1,8,0:0:0:0:
224,224,48955,1,0,0:0:0:0:
224,224,49192,1,0,0:0:0:0:
224,224,49428,1,8,0:0:0:0:
224,224,49586,1,8,0:0:0:0:
224,224,49823,1,0,0:0:0:0:
224,224,50060,1,0,0:0:0:0:
224,224,50218,1,8,0:0:0:0:
256,192,50376,1,0,0:0:0:0:
224,224,50534,1,8,0:0:0:0:
224,224,50849,1,12,0:0:0:0:
256,160,51007,1,0,0:0:0:0:
224,224,51165,1,8,0:0:0:0:
224,224,51481,1,8,0:0:0:0:
256,224,51639,1,0,0:0:0:0:
224,224,51797,1,8,0:0:0:0:
224,224,51955,1,8,0:0:0:0:
224,224,52113,1,0,0:0:0:0:
224,224,52428,1,0,0:0:0:0:
224,224,52586,1,0,0:0:0:0:
224,224,52744,1,8,0:0:0:0:
224,224,52823,1,8,0:0:0:0:
224,224,52902,1,8,0:0:0:0:
224,224,53060,1,8,0:0:0:0:
224,224,53218,1,0,0:0:0:0:
224,224,53376,1,12,0:0:0:0:
224,224,53691,1,8,0:0:0:0:
224,224,53849,1,8,0:0:0:0:
224,224,54007,1,0,0:0:0:0:
256,224,54323,1,0,0:0:0:0:
160,192,54481,1,0,0:0:0:0:
256,224,54639,1,8,0:0:0:0:
256,224,54955,1,8,0:0:0:0:
256,224,55112,1,0,0:0:0:0:
256,224,55270,1,0,0:0:0:0:
256,224,55586,1,8,0:0:0:0:
288,224,55902,1,4,0:0:0:0:
288,224,56218,1,8,0:0:0:0:
288,224,56376,1,0,0:0:0:0:
256,224,56534,1,8,0:0:0:0:
256,224,56691,1,0,0:0:0:0:
256,224,56849,1,8,0:0:0:0:
256,224,57165,1,8,0:0:0:0:
256,224,57481,1,8,0:0:0:0:
256,128,57639,1,0,0:0:0:0:
256,224,57797,1,0,0:0:0:0:
256,224,57955,1,0,0:0:0:0:
256,224,58113,1,8,0:0:0:0:
256,224,58428,1,4,0:0:0:0:
256,224,58744,1,8,0:0:0:0:
256,224,59060,1,0,0:0:0:0:
256,224,59297,1,0,0:0:0:0:
256,224,59534,1,8,0:0:0:0:
256,224,59691,1,8,0:0:0:0:
256,224,59928,1,0,0:0:0:0:
256,224,60165,1,0,0:0:0:0:
256,224,60323,1,8,0:0:0:0:
256,192,60481,1,0,0:0:0:0:
256,224,60639,1,8,0:0:0:0:
256,224,60955,1,12,0:0:0:0:
256,224,61270,1,8,0:0:0:0:
224,192,61428,1,8,0:0:0:0:
256,224,61586,1,0,0:0:0:0:
256,224,61744,1,0,0:0:0:0:
256,224,61902,1,8,0:0:0:0:
256,224,62060,5,0,0:0:0:0:
256,224,62218,1,12,0:0:0:0:
256,224,62534,1,8,0:0:0:0:
256,192,62691,1,0,0:0:0:0:
256,192,62849,1,8,0:0:0:0:
256,192,63007,1,8,0:0:0:0:
256,192,63165,1,0,0:0:0:0:
256,192,63244,1,0,0:0:0:0:
256,192,63323,1,0,0:0:0:0:
224,192,63481,1,12,0:0:0:0:
224,192,63797,1,0,0:0:0:0:
224,192,64112,1,0,0:0:0:0:
224,192,64270,1,0,0:0:0:0:
224,192,64428,1,8,0:0:0:0:
224,192,64586,1,0,0:0:0:0:
224,192,64744,1,8,0:0:0:0:
224,192,65060,1,0,0:0:0:0:
224,192,65376,1,0,0:0:0:0:
224,192,65534,1,0,0:0:0:0:
224,192,65691,1,8,0:0:0:0:
224,192,65849,1,0,0:0:0:0:
224,192,66007,1,12,0:0:0:0:
224,192,66323,1,0,0:0:0:0:
224,192,66639,1,0,0:0:0:0:
224,192,66797,1,0,0:0:0:0:
224,192,66955,1,8,0:0:0:0:
224,192,67112,1,0,0:0:0:0:
224,192,67270,1,8,0:0:0:0:
224,192,67586,1,8,0:0:0:0:
224,192,67744,1,0,0:0:0:0:
224,192,67902,1,8,0:0:0:0:
224,192,68060,1,8,0:0:0:0:
224,192,68218,1,0,0:0:0:0:
224,192,68533,1,12,0:0:0:0:
256,192,68849,1,0,0:0:0:0:
256,192,69165,1,0,0:0:0:0:
192,160,69323,1,0,0:0:0:0:
256,192,69481,1,8,0:0:0:0:
256,192,69797,1,8,0:0:0:0:
224,192,69955,1,0,0:0:0:0:
256,192,70112,1,8,0:0:0:0:
256,192,70270,1,0,0:0:0:0:
256,192,70428,1,0,0:0:0:0:
224,160,70586,1,0,0:0:0:0:
256,192,70744,1,8,0:0:0:0:
256,192,71060,1,12,0:0:0:0:
256,192,71376,1,0,0:0:0:0:
256,192,71534,1,0,0:0:0:0:
256,192,71691,1,8,0:0:0:0:
256,192,71849,1,0,0:0:0:0:
256,192,72007,1,8,0:0:0:0:
256,192,72165,1,8,0:0:0:0:
256,192,72481,1,8,0:0:0:0:
256,192,72797,1,8,0:0:0:0:
256,192,72876,1,8,0:0:0:0:
256,192,72955,1,8,0:0:0:0:
256,192,73112,1,8,0:0:0:0:
256,192,73270,1,0,0:0:0:0:
256,192,73428,1,8,0:0:0:0:
256,192,73586,1,4,0:0:0:0:
256,192,78007,1,4,0:0:0:0:
256,192,78165,1,4,0:0:0:0:
256,192,78480,1,12,0:0:0:0:
256,192,78796,1,0,0:0:0:0:
256,192,78954,1,8,0:0:0:0:
256,192,79270,1,0,0:0:0:0:
288,192,79428,1,0,0:0:0:0:
256,192,79586,1,8,0:0:0:0:
256,192,79744,1,0,0:0:0:0:
256,192,80059,1,0,0:0:0:0:
256,192,80217,1,8,0:0:0:0:
256,192,80533,1,8,0:0:0:0:
224,224,80691,1,0,0:0:0:0:
192,192,80849,1,8,0:0:0:0:
192,192,81007,1,0,0:0:0:0:
192,192,81322,1,0,0:0:0:0:
192,192,81480,1,8,0:0:0:0:
192,192,81796,1,0,0:0:0:0:
192,192,81954,1,8,0:0:0:0:
192,192,82112,1,8,0:0:0:0:
192,192,82270,1,8,0:0:0:0:
192,192,82586,1,8,0:0:0:0:
160,192,82744,1,0,0:0:0:0:
192,192,82901,1,8,0:0:0:0:
192,192,83059,1,0,0:0:0:0:
192,192,83138,1,0,0:0:0:0:
192,192,83217,1,0,0:0:0:0:
192,192,83375,1,8,0:0:0:0:
320,192,83691,1,4,0:0:0:0:
256,192,84007,1,8,0:0:0:0:
256,192,84323,1,0,0:0:0:0:
256,192,84481,1,8,0:0:0:0:
256,192,84639,1,0,0:0:0:0:
256,192,84954,1,8,0:0:0:0:
256,192,85586,1,8,0:0:0:0:
256,192,86218,1,0,0:0:0:0:
256,192,86533,1,8,0:0:0:0:
256,192,86849,1,0,0:0:0:0:
256,192,87007,1,8,0:0:0:0:
256,192,87165,1,0,0:0:0:0:
256,192,87481,1,0,0:0:0:0:
256,192,88112,1,4,0:0:0:0:
256,192,88270,1,4,0:0:0:0:
256,192,88586,1,12,0:0:0:0:
256,192,88901,1,0,0:0:0:0:
256,192,89059,1,8,0:0:0:0:
256,192,89375,1,0,0:0:0:0:
224,192,89533,1,0,0:0:0:0:
256,192,89691,1,8,0:0:0:0:
256,192,89849,1,0,0:0:0:0:
256,192,90164,1,0,0:0:0:0:
256,192,90322,1,8,0:0:0:0:
256,192,90638,1,8,0:0:0:0:
256,192,90796,1,8,0:0:0:0:
256,192,90954,1,0,0:0:0:0:
256,192,91112,1,8,0:0:0:0:
224,192,91428,1,0,0:0:0:0:
224,192,91586,1,8,0:0:0:0:
224,192,91901,1,0,0:0:0:0:
224,192,92059,1,0,0:0:0:0:
224,192,92217,1,0,0:0:0:0:
224,192,92375,1,8,0:0:0:0:
224,192,92691,1,0,0:0:0:0:
224,192,92849,1,8,0:0:0:0:
224,192,93007,1,0,0:0:0:0:
224,192,93164,1,8,0:0:0:0:
224,192,93243,1,8,0:0:0:0:
224,192,93322,1,8,0:0:0:0:
224,192,93480,1,0,0:0:0:0:
224,192,93796,1,12,0:0:0:0:
224,192,93954,1,12,0:0:0:0:
224,192,94112,1,12,0:0:0:0:
224,192,94901,1,4,0:0:0:0:
224,192,95217,1,0,0:0:0:0:
224,192,95375,1,8,0:0:0:0:
224,192,95533,1,0,0:0:0:0:
224,192,95612,1,0,0:0:0:0:
224,192,95691,1,0,0:0:0:0:
224,192,95849,1,8,0:0:0:0:
224,192,96007,1,0,0:0:0:0:
224,192,96322,1,4,0:0:0:0:
224,192,96480,1,4,0:0:0:0:
224,192,96638,1,4,0:0:0:0:
224,192,97428,1,4,0:0:0:0:
224,192,97743,1,0,0:0:0:0:
224,192,97901,1,8,0:0:0:0:
224,192,98059,1,0,0:0:0:0:
224,192,98217,1,8,0:0:0:0:
224,192,98296,1,8,0:0:0:0:
192,96,98375,1,8,0:0:0:0:
224,192,98533,1,0,0:0:0:0:
224,192,98849,1,12,0:0:0:0:
224,192,99007,1,12,0:0:0:0:
224,192,99164,1,12,0:0:0:0:
224,192,99954,1,4,0:0:0:0:
224,192,100270,1,8,0:0:0:0:
224,192,100428,1,8,0:0:0:0:
224,192,100585,1,0,0:0:0:0:
224,192,100743,1,8,0:0:0:0:
224,192,100822,1,8,0:0:0:0:
224,192,100901,1,8,0:0:0:0:
224,192,101060,1,0,0:0:0:0:
224,192,101217,1,8,0:0:0:0:
224,192,101375,1,4,0:0:0:0:
256,160,101691,1,0,0:0:0:0:
256,192,102007,1,8,0:0:0:0:
288,192,102165,1,0,0:0:0:0:
256,192,102481,1,8,0:0:0:0:
288,192,102796,1,0,0:0:0:0:
288,192,102954,1,8,0:0:0:0:
256,192,103270,1,8,0:0:0:0:
256,192,103901,1,4,0:0:0:0:
224,192,105007,1,0,0:0:0:0:
256,192,105086,1,8,0:0:0:0:
256,192,106428,1,12,0:0:0:0:
256,192,106743,1,8,0:0:0:0:
256,192,106902,1,8,0:0:0:0:
256,192,107059,1,0,0:0:0:0:
256,128,107375,1,0,0:0:0:0:
224,160,107691,1,8,0:0:0:0:
256,128,108006,1,0,0:0:0:0:
224,160,108164,1,8,0:0:0:0:
224,160,108322,1,0,0:0:0:0:
224,160,108638,1,8,0:0:0:0:
224,160,108954,1,4,0:0:0:0:
224,160,109270,1,8,0:0:0:0:
224,160,109428,1,0,0:0:0:0:
256,192,109585,1,8,0:0:0:0:
256,160,109743,1,0,0:0:0:0:
224,160,109901,1,8,0:0:0:0:
224,160,110217,1,8,0:0:0:0:
224,160,110533,1,8,0:0:0:0:
256,128,110691,1,0,0:0:0:0:
224,160,110849,1,0,0:0:0:0:
224,160,111006,1,0,0:0:0:0:
256,128,111164,1,8,0:0:0:0:
256,128,111480,1,4,0:0:0:0:
224,160,111796,1,8,0:0:0:0:
224,224,112112,1,0,0:0:0:0:
224,224,112349,1,0,0:0:0:0:
224,224,112585,1,8,0:0:0:0:
224,224,112743,1,8,0:0:0:0:
224,224,112980,1,0,0:0:0:0:
224,224,113217,1,0,0:0:0:0:
224,224,113375,1,8,0:0:0:0:
192,224,113533,1,0,0:0:0:0:
224,224,113691,1,8,0:0:0:0:
224,224,114006,1,12,0:0:0:0:
224,160,114165,1,0,0:0:0:0:
224,224,114322,1,8,0:0:0:0:
224,224,114480,1,0,0:0:0:0:
224,224,114638,1,8,0:0:0:0:
256,224,114796,1,8,0:0:0:0:
224,224,114954,1,0,0:0:0:0:
224,224,115112,1,8,0:0:0:0:
224,224,115270,1,0,0:0:0:0:
224,224,115585,1,0,0:0:0:0:
224,224,115743,1,0,0:0:0:0:
224,224,115901,1,8,0:0:0:0:
224,224,115980,1,8,0:0:0:0:
224,224,116059,1,8,0:0:0:0:
224,224,116217,1,8,0:0:0:0:
224,224,116375,1,0,0:0:0:0:
224,224,116533,1,12,0:0:0:0:
224,224,116848,1,8,0:0:0:0:
224,224,117006,1,8,0:0:0:0:
224,224,117164,1,0,0:0:0:0:
256,224,117480,1,0,0:0:0:0:
160,192,117638,1,0,0:0:0:0:
256,224,117796,1,8,0:0:0:0:
256,224,118112,1,8,0:0:0:0:
256,224,118269,1,0,0:0:0:0:
256,224,118427,1,0,0:0:0:0:
256,224,118743,1,8,0:0:0:0:
288,224,119059,1,4,0:0:0:0:
288,224,119375,1,8,0:0:0:0:
192,192,119533,1,0,0:0:0:0:
256,224,119691,1,8,0:0:0:0:
256,224,119848,1,0,0:0:0:0:
256,224,120006,1,8,0:0:0:0:
256,224,120322,1,8,0:0:0:0:
256,224,120638,1,8,0:0:0:0:
256,128,120796,1,0,0:0:0:0:
256,224,120954,1,0,0:0:0:0:
256,224,121112,1,0,0:0:0:0:
256,224,121270,1,8,0:0:0:0:
256,224,121585,1,4,0:0:0:0:
256,224,121901,1,8,0:0:0:0:
256,224,122217,1,0,0:0:0:0:
256,224,122454,1,0,0:0:0:0:
256,224,122691,1,8,0:0:0:0:
256,224,122848,1,8,0:0:0:0:
256,224,123085,1,0,0:0:0:0:
256,224,123322,1,0,0:0:0:0:
256,224,123480,1,8,0:0:0:0:
128,160,123638,1,0,0:0:0:0:
256,224,123796,1,8,0:0:0:0:
256,224,124112,1,12,0:0:0:0:
256,224,124269,1,0,0:0:0:0:
256,224,124427,1,8,0:0:0:0:
256,160,124586,1,0,0:0:0:0:
256,224,124743,1,8,0:0:0:0:
256,224,124901,1,0,0:0:0:0:
256,224,125059,1,0,0:0:0:0:
256,224,125217,1,0,0:0:0:0:
256,224,125375,1,12,0:0:0:0:
256,224,125691,1,8,0:0:0:0:
256,192,125848,1,0,0:0:0:0:
256,192,126006,1,8,0:0:0:0:
256,192,126164,1,0,0:0:0:0:
256,192,126480,1,0,0:0:0:0:
224,192,126638,1,12,0:0:0:0:
256,192,126796,1,12,0:0:0:0:
256,192,126954,1,12,0:0:0:0:
256,192,127744,1,4,0:0:0:0:
256,192,128059,1,0,0:0:0:0:
256,192,128217,1,8,0:0:0:0:
256,192,128375,1,0,0:0:0:0:
256,192,128454,1,0,0:0:0:0:
256,192,128533,1,0,0:0:0:0:
256,192,128691,1,8,0:0:0:0:
256,192,128849,1,8,0:0:0:0:
256,192,129165,1,4,0:0:0:0:
256,192,129322,1,4,0:0:0:0:
256,192,129480,1,4,0:0:0:0:
256,192,130270,1,4,0:0:0:0:
256,192,130586,1,0,0:0:0:0:
256,192,130744,1,8,0:0:0:0:
256,192,130822,1,8,0:0:0:0:
256,192,130901,1,8,0:0:0:0:
256,192,131059,1,0,0:0:0:0:
256,192,131217,1,8,0:0:0:0:
256,192,131375,1,0,0:0:0:0:
256,192,131691,1,12,0:0:0:0:
256,192,131849,1,12,0:0:0:0:
256,192,132007,1,12,0:0:0:0:
256,192,132796,1,4,0:0:0:0:
256,192,133112,1,0,0:0:0:0:
256,192,133270,1,8,0:0:0:0:
256,192,133428,1,8,0:0:0:0:
256,192,133586,1,0,0:0:0:0:
256,192,133665,1,0,0:0:0:0:
256,192,133743,1,0,0:0:0:0:
256,192,133901,1,8,0:0:0:0:
256,192,134217,1,4,0:0:0:0:
256,192,134375,1,4,0:0:0:0:
256,192,134533,1,4,0:0:0:0:
256,192,135322,1,4,0:0:0:0:
256,192,135638,1,0,0:0:0:0:
256,192,135796,1,8,0:0:0:0:
256,192,135954,1,0,0:0:0:0:
256,192,136033,1,0,0:0:0:0:
256,192,136112,1,0,0:0:0:0:
256,192,136270,1,8,0:0:0:0:
256,192,136428,1,0,0:0:0:0:
256,192,136743,1,12,0:0:0:0:
224,192,136901,1,12,0:0:0:0:
224,192,137059,1,12,0:0:0:0:
224,192,137849,1,4,0:0:0:0:
224,192,138165,1,0,0:0:0:0:
224,192,138322,1,8,0:0:0:0:
256,224,138480,1,0,0:0:0:0:
224,192,138638,1,8,0:0:0:0:
224,192,138796,1,0,0:0:0:0:
224,192,138954,1,8,0:0:0:0:
224,192,139270,1,4,0:0:0:0:
224,192,139428,1,4,0:0:0:0:
224,192,139586,1,4,0:0:0:0:
224,192,140375,1,4,0:0:0:0:
224,192,140691,1,0,0:0:0:0:
224,192,140849,1,8,0:0:0:0:
224,192,141007,1,0,0:0:0:0:
224,192,141164,1,8,0:0:0:0:
224,192,141243,1,8,0:0:0:0:
224,192,141322,1,8,0:0:0:0:
256,160,141480,1,0,0:0:0:0:
224,192,141796,1,12,0:0:0:0:
224,192,141954,1,12,0:0:0:0:
224,192,142112,1,12,0:0:0:0:
224,192,142901,1,4,0:0:0:0:
224,192,143217,1,0,0:0:0:0:
224,192,143375,1,8,0:0:0:0:
224,192,143533,1,0,0:0:0:0:
224,192,143691,1,8,0:0:0:0:
224,192,143770,1,8,0:0:0:0:
224,192,143849,1,8,0:0:0:0:
224,192,144007,1,0,0:0:0:0:
256,224,144164,1,8,0:0:0:0:
224,192,144322,1,4,0:0:0:0:
224,192,144796,1,0,0:0:0:0:
224,192,144954,1,8,0:0:0:0:
224,192,145428,1,0,0:0:0:0:
224,192,145743,1,0,0:0:0:0:
224,192,146059,1,0,0:0:0:0:
224,192,146217,1,8,0:0:0:0:
224,192,146691,1,0,0:0:0:0:
224,192,146849,1,12,0:0:0:0:
224,192,147322,1,0,0:0:0:0:
224,192,147480,1,8,0:0:0:0:
224,192,147638,1,0,0:0:0:0:
224,192,147796,1,0,0:0:0:0:
224,192,147954,1,8,0:0:0:0:
224,192,148270,1,8,0:0:0:0:
224,192,148428,1,0,0:0:0:0:
224,192,148585,1,8,0:0:0:0:
224,192,148743,1,0,0:0:0:0:
224,192,148901,1,8,0:0:0:0:
224,192,149059,1,8,0:0:0:0:
224,192,149217,1,8,0:0:0:0:
288,224,156954,5,8,0:0:0:0:
288,224,157112,1,0,0:0:0:0:
288,224,157191,1,0,0:0:0:0:
288,224,157270,1,0,0:0:0:0:
288,224,157428,1,0,0:0:0:0:
288,224,157585,1,8,0:0:0:0:
288,224,157743,1,0,0:0:0:0:
288,224,157901,1,8,0:0:0:0:
288,224,158217,1,0,0:0:0:0:
256,192,159480,1,12,0:0:0:0:
256,192,159795,1,8,0:0:0:0:
256,192,159953,1,8,0:0:0:0:
256,192,160111,1,0,0:0:0:0:
256,192,160427,1,0,0:0:0:0:
256,160,160585,1,0,0:0:0:0:
224,160,160743,1,8,0:0:0:0:
224,160,161058,1,8,0:0:0:0:
224,160,161216,1,0,0:0:0:0:
256,128,161374,1,0,0:0:0:0:
224,160,161690,1,8,0:0:0:0:
224,160,162006,1,4,0:0:0:0:
224,160,162322,1,8,0:0:0:0:
256,128,162480,1,0,0:0:0:0:
224,160,162637,1,8,0:0:0:0:
256,160,162796,1,0,0:0:0:0:
224,160,162953,1,8,0:0:0:0:
224,160,163269,1,8,0:0:0:0:
224,160,163585,1,8,0:0:0:0:
256,128,163743,1,0,0:0:0:0:
224,160,163901,1,0,0:0:0:0:
256,128,164059,1,0,0:0:0:0:
256,128,164216,1,8,0:0:0:0:
256,128,164532,1,4,0:0:0:0:
224,160,164848,1,8,0:0:0:0:
224,224,165164,1,0,0:0:0:0:
224,224,165401,1,0,0:0:0:0:
224,224,165637,1,8,0:0:0:0:
224,224,165795,1,8,0:0:0:0:
224,224,166032,1,0,0:0:0:0:
224,224,166269,1,0,0:0:0:0:
224,224,166427,1,8,0:0:0:0:
224,224,166585,1,0,0:0:0:0:
224,224,166743,1,8,0:0:0:0:
224,224,167058,1,12,0:0:0:0:
224,224,167216,1,0,0:0:0:0:
224,224,167374,1,8,0:0:0:0:
224,224,167533,1,0,0:0:0:0:
224,224,167690,1,8,0:0:0:0:
224,224,167848,1,8,0:0:0:0:
256,160,168006,1,0,0:0:0:0:
224,224,168164,1,8,0:0:0:0:
224,224,168322,1,0,0:0:0:0:
224,224,168637,1,0,0:0:0:0:
224,224,168795,1,0,0:0:0:0:
224,224,168953,1,8,0:0:0:0:
224,224,169032,1,8,0:0:0:0:
224,224,169111,1,8,0:0:0:0:
224,224,169270,1,8,0:0:0:0:
224,224,169427,1,0,0:0:0:0:
224,224,169585,1,12,0:0:0:0:
224,224,169900,1,8,0:0:0:0:
224,192,170059,1,0,0:0:0:0:
192,192,170217,1,8,0:0:0:0:
224,224,170375,1,8,0:0:0:0:
192,224,170533,1,0,0:0:0:0:
160,192,170690,1,0,0:0:0:0:
256,224,170848,1,8,0:0:0:0:
192,160,171164,1,8,0:0:0:0:
256,192,171322,1,0,0:0:0:0:
256,224,171479,1,0,0:0:0:0:
224,192,171638,1,8,0:0:0:0:
192,192,171796,1,0,0:0:0:0:
224,224,171954,1,8,0:0:0:0:
288,224,172111,1,4,0:0:0:0:
256,192,172427,1,8,0:0:0:0:
288,224,172585,1,0,0:0:0:0:
160,192,172743,1,8,0:0:0:0:
256,224,172900,1,0,0:0:0:0:
224,192,173059,1,8,0:0:0:0:
256,160,173217,1,0,0:0:0:0:
256,224,173374,1,8,0:0:0:0:
256,224,173690,1,8,0:0:0:0:
256,224,173848,1,0,0:0:0:0:
256,224,174006,1,0,0:0:0:0:
288,160,174164,1,0,0:0:0:0:
256,224,174322,1,8,0:0:0:0:
224,224,174480,1,8,0:0:0:0:
256,224,174637,1,4,0:0:0:0:
256,224,174953,1,8,0:0:0:0:
256,224,175269,1,0,0:0:0:0:
256,224,175506,1,0,0:0:0:0:
256,224,175743,1,0,0:0:0:0:
256,224,175901,1,8,0:0:0:0:
256,224,176137,1,0,0:0:0:0:
256,224,176374,1,0,0:0:0:0:
256,224,176532,1,8,0:0:0:0:
224,256,176691,1,0,0:0:0:0:
256,224,176848,1,8,0:0:0:0:
256,224,177164,1,12,0:0:0:0:
256,224,177321,1,0,0:0:0:0:
256,224,177479,1,8,0:0:0:0:
256,224,177637,1,0,0:0:0:0:
256,224,177795,1,8,0:0:0:0:
256,224,177953,1,8,0:0:0:0:
256,224,178111,1,8,0:0:0:0:
256,224,178269,1,0,0:0:0:0:
256,224,178427,1,12,0:0:0:0:
256,224,178743,1,8,0:0:0:0:
256,192,178900,1,0,0:0:0:0:
256,192,179058,1,8,0:0:0:0:
256,192,179216,1,0,0:0:0:0:
256,192,179374,1,8,0:0:0:0:
224,192,179690,1,4,0:0:0:0:
256,192,179848,1,8,0:0:0:0:
224,192,180006,1,0,0:0:0:0:
160,192,180164,1,8,0:0:0:0:
256,192,180480,1,8,0:0:0:0:
256,192,180796,1,0,0:0:0:0:
256,192,181112,1,8,0:0:0:0:
192,160,181269,1,0,0:0:0:0:
256,192,181427,1,8,0:0:0:0:
256,224,181743,1,8,0:0:0:0:
256,192,182059,1,0,0:0:0:0:
256,192,182217,1,8,0:0:0:0:
256,192,182533,1,8,0:0:0:0:
256,192,182848,1,0,0:0:0:0:
256,192,183006,1,8,0:0:0:0:
256,192,183164,1,0,0:0:0:0:
256,192,183480,1,0,0:0:0:0:
256,192,183638,1,8,0:0:0:0:
256,192,183796,1,8,0:0:0:0:
256,192,183954,1,0,0:0:0:0:
256,192,184269,1,8,0:0:0:0:
256,192,184585,1,8,0:0:0:0:
256,192,184743,1,4,0:0:0:0:
256,192,185059,1,8,0:0:0:0:
256,192,185375,1,8,0:0:0:0:
256,192,185533,1,0,0:0:0:0:
256,192,185848,1,8,0:0:0:0:
256,192,186164,1,8,0:0:0:0:
256,192,186322,1,0,0:0:0:0:
256,192,186480,1,8,0:0:0:0:
256,192,186796,1,8,0:0:0:0:
256,192,187111,1,8,0:0:0:0:
256,192,187269,1,8,0:0:0:0:
288,192,187427,1,0,0:0:0:0:
256,192,187585,1,8,0:0:0:0:
288,192,187743,1,0,0:0:0:0:
256,192,187901,1,8,0:0:0:0:
256,192,188059,1,0,0:0:0:0:
256,192,188217,1,0,0:0:0:0:
256,192,188375,1,8,0:0:0:0:
256,192,188690,1,8,0:0:0:0:
256,192,188848,1,8,0:0:0:0:
256,192,189006,1,0,0:0:0:0:
256,192,189164,1,8,0:0:0:0:
256,192,189243,1,8,0:0:0:0:
256,192,189322,1,8,0:0:0:0:
256,192,189480,1,0,0:0:0:0:
256,192,189638,1,0,0:0:0:0:
256,192,189796,1,12,0:0:0:0:
256,192,190111,1,0,0:0:0:0:
256,192,190427,1,8,0:0:0:0:
256,192,190585,1,0,0:0:0:0:
224,160,190901,1,8,0:0:0:0:
256,192,191217,1,0,0:0:0:0:
256,192,191533,1,0,0:0:0:0:
256,192,191690,1,8,0:0:0:0:
256,192,192006,1,0,0:0:0:0:
256,224,192322,1,0,0:0:0:0:
256,192,192480,1,8,0:0:0:0:
256,192,192638,1,8,0:0:0:0:
256,192,192796,1,8,0:0:0:0:
256,224,192954,1,0,0:0:0:0:
256,192,193111,1,0,0:0:0:0:
256,192,193269,1,8,0:0:0:0:
256,192,193427,1,0,0:0:0:0:
256,192,193585,1,8,0:0:0:0:
256,192,193901,1,8,0:0:0:0:
256,192,194059,1,0,0:0:0:0:
224,192,194375,1,8,0:0:0:0:
256,192,194690,1,8,0:0:0:0:
256,192,194848,1,4,0:0:0:0:
256,192,195164,1,8,0:0:0:0:
256,192,195480,1,8,0:0:0:0:
256,192,195638,1,0,0:0:0:0:
256,192,195796,1,8,0:0:0:0:
256,192,195954,1,0,0:0:0:0:
256,192,196111,1,8,0:0:0:0:
256,192,196427,1,0,0:0:0:0:
256,192,196743,1,8,0:0:0:0:
256,192,196901,1,0,0:0:0:0:
256,192,197059,1,8,0:0:0:0:
256,192,197217,1,8,0:0:0:0:
256,192,197375,1,0,0:0:0:0:
288,224,197690,1,0,0:0:0:0:
256,192,197848,1,0,0:0:0:0:
288,224,198006,1,8,0:0:0:0:
288,224,198164,1,0,0:0:0:0:
288,224,198322,1,0,0:0:0:0:
288,224,198480,1,8,0:0:0:0:
224,192,198796,1,8,0:0:0:0:
256,192,198953,1,0,0:0:0:0:
256,192,199111,1,8,0:0:0:0:
256,192,199269,12,0,199743,0:0:0:0:
224,192,199901,5,12,0:0:0:0:
224,192,200217,1,8,0:0:0:0:
224,192,200375,1,0,0:0:0:0:
224,192,200532,1,0,0:0:0:0:
224,192,200690,1,0,0:0:0:0:
224,192,200848,1,8,0:0:0:0:
224,192,201006,1,0,0:0:0:0:
224,192,201164,1,8,0:0:0:0:
224,192,201480,1,8,0:0:0:0:
224,192,201638,1,0,0:0:0:0:
224,192,201796,1,0,0:0:0:0:
224,192,201954,1,0,0:0:0:0:
224,192,202111,1,8,0:0:0:0:
224,192,202269,1,0,0:0:0:0:
224,192,202427,1,12,0:0:0:0:
224,192,202743,1,8,0:0:0:0:
224,192,202901,1,0,0:0:0:0:
224,192,203059,1,0,0:0:0:0:
224,192,203217,1,0,0:0:0:0:
224,192,203375,1,8,0:0:0:0:
224,192,203532,1,0,0:0:0:0:
224,192,203690,1,8,0:0:0:0:
224,192,204006,1,8,0:0:0:0:
224,192,204164,1,0,0:0:0:0:
224,192,204322,1,8,0:0:0:0:
224,192,204480,1,8,0:0:0:0:
224,192,204638,1,0,0:0:0:0:
224,192,204953,1,12,0:0:0:0:
192,160,205269,1,8,0:0:0:0:
256,192,205585,1,0,0:0:0:0:
256,192,205743,1,0,0:0:0:0:
256,192,205901,1,8,0:0:0:0:
256,192,206059,1,0,0:0:0:0:
256,192,206217,1,8,0:0:0:0:
224,192,206374,1,0,0:0:0:0:
256,192,206532,1,8,0:0:0:0:
256,192,206848,1,0,0:0:0:0:
256,192,207006,1,0,0:0:0:0:
256,192,207164,1,8,0:0:0:0:
256,192,207322,1,0,0:0:0:0:
256,192,207480,1,12,0:0:0:0:
256,192,207796,1,8,0:0:0:0:
256,192,208111,1,0,0:0:0:0:
256,192,208269,1,0,0:0:0:0:
256,192,208427,1,8,0:0:0:0:
256,192,208585,1,8,0:0:0:0:
256,192,208901,1,8,0:0:0:0:
256,192,209217,1,8,0:0:0:0:
256,192,209296,1,8,0:0:0:0:
256,192,209375,1,8,0:0:0:0:
256,192,209532,1,0,0:0:0:0:
256,192,209690,1,8,0:0:0:0:
256,192,209848,1,8,0:0:0:0:
256,192,210006,1,4,0:0:0:0:
256,192,210164,12,0,212059,0:0:0:0:
256,192,212217,5,12,0:0:0:0:
256,192,212374,1,12,0:0:0:0:
