osu file format v14

[General]
AudioFilename: audio.mp3
AudioLeadIn: 0
PreviewTime: 63481
Countdown: 0
SampleSet: Normal
StackLeniency: 0.7
Mode: 1
LetterboxInBreaks: 0
WidescreenStoryboard: 0

[Editor]
DistanceSpacing: 0.1
BeatDivisor: 1
GridSize: 32
TimelineZoom: 2.5

[Metadata]
Title:Mamanaranai
TitleUnicode:ままならない
Artist:Buta-Otome
ArtistUnicode:豚乙女
Creator:Karee Pan
Version:Kantan
Source:東方Project
Tags:butaotome, touhou, ランコ, ランコ, ランコ, ランコの姉, Paradise Lost, パンデモニックプラネット, Pandemonic Planet, 上海アリス幻樂団, ZUN,
BeatmapID:1524526
BeatmapSetID:722051

[Difficulty]
HPDrainRate:7
CircleSize:2
OverallDifficulty:3
ApproachRate:5
SliderMultiplier:1.4
SliderTickRate:1

[Events]
//Background and Video events
0,0,"BG.png",0,0
//Break Periods
2,149417,155754
//Storyboard Layer 0 (Background)
//Storyboard Layer 1 (Fail)
//Storyboard Layer 2 (Pass)
//Storyboard Layer 3 (Foreground)
//Storyboard Sound Samples

[TimingPoints]
324,315.789473684211,4,1,0,80,1,0
10427,-100,4,1,0,60,0,0
14850,-100,4,1,0,80,0,0
20534,-100,4,1,0,60,0,0
24955,-100,4,1,0,80,0,0
30637,-100,4,1,0,90,0,0
31900,-100,4,1,0,70,0,0
33163,-100,4,1,0,90,0,0
34426,-100,4,1,0,70,0,0
35690,-100,4,1,0,90,0,0
36953,-100,4,1,0,70,0,0
38218,-100,4,1,0,65,0,0
40742,-100,4,1,0,60,0,0
41690,-100,4,1,0,40,0,0
43271,-100,4,1,0,90,0,1
63481,-100,4,1,0,80,0,0
73584,-100,4,1,0,60,0,0
78007,-100,4,1,0,80,0,0
83691,-100,4,1,0,60,0,0
88112,-100,4,1,0,80,0,0
93794,-100,4,1,0,90,0,0
95058,-100,4,1,0,70,0,0
96321,-100,4,1,0,90,0,0
97584,-100,4,1,0,70,0,0
98847,-100,4,1,0,90,0,0
100110,-100,4,1,0,70,0,0
101375,-100,4,1,0,65,0,0
103900,-100,4,1,0,60,0,0
105007,-100,4,1,0,40,0,0
106428,-100,4,1,0,90,0,1
126638,-100,4,1,0,70,0,0
156952,-100,4,1,0,60,0,0
159480,-100,4,1,0,90,0,1
179690,-100,4,1,0,70,0,0
199899,-100,4,1,0,80,0,0

[HitObjects]
256,192,324,5,12,0:0:0:0:
256,192,955,1,0,0:0:0:0:
256,192,1271,1,0,0:0:0:0:
256,192,1587,1,8,0:0:0:0:
256,192,2218,1,0,0:0:0:0:
256,192,2534,1,0,0:0:0:0:
256,192,2850,1,12,0:0:0:0:
256,192,3481,1,0,0:0:0:0:
256,192,4113,1,8,0:0:0:0:
256,192,4429,1,0,0:0:0:0:
256,192,4745,1,8,0:0:0:0:
256,192,5376,1,12,0:0:0:0:
256,192,5692,1,0,0:0:0:0:
256,192,6008,1,0,0:0:0:0:
256,192,6639,1,8,0:0:0:0:
256,192,6955,1,0,0:0:0:0:
256,192,7271,1,0,0:0:0:0:
256,192,7902,1,12,0:0:0:0:
256,192,8218,1,0,0:0:0:0:
256,192,8534,1,0,0:0:0:0:
256,192,9166,1,8,0:0:0:0:
224,160,9797,1,8,0:0:0:0:
256,192,10429,1,4,0:0:0:0:
256,192,14850,1,4,0:0:0:0:
256,192,15323,1,12,0:0:0:0:
256,192,16113,1,0,0:0:0:0:
256,192,16587,1,8,0:0:0:0:
256,192,17376,1,8,0:0:0:0:
256,192,17850,1,0,0:0:0:0:
256,192,18639,1,0,0:0:0:0:
256,192,19113,1,12,0:0:0:0:
256,192,19429,1,12,0:0:0:0:
256,192,19744,1,12,0:0:0:0:
256,192,20534,1,4,0:0:0:0:
256,192,24955,1,4,0:0:0:0:
256,192,25429,1,12,0:0:0:0:
256,192,26218,1,0,0:0:0:0:
256,192,26692,1,8,0:0:0:0:
256,192,27481,1,0,0:0:0:0:
256,192,27955,1,8,0:0:0:0:
256,192,28744,1,0,0:0:0:0:
256,192,29218,1,8,0:0:0:0:
288,192,30007,1,0,0:0:0:0:
256,192,30639,1,12,0:0:0:0:
256,192,30955,1,12,0:0:0:0:
256,192,31744,1,4,0:0:0:0:
224,192,32534,1,8,0:0:0:0:
256,192,33165,1,4,0:0:0:0:
256,192,33481,1,4,0:0:0:0:
256,192,34271,1,4,0:0:0:0:
224,192,35060,1,8,0:0:0:0:
256,192,35692,1,12,0:0:0:0:
256,192,36007,1,12,0:0:0:0:
288,224,36797,1,4,0:0:0:0:
224,192,37586,1,0,0:0:0:0:
288,224,37902,1,8,0:0:0:0:
288,224,38218,1,4,0:0:0:0:
288,224,38850,1,8,0:0:0:0:
288,224,39481,1,0,0:0:0:0:
288,224,40113,1,8,0:0:0:0:
288,224,40744,1,12,0:0:0:0:
288,224,41849,1,0,0:0:0:0:
256,224,43271,1,12,0:0:0:0:
256,224,43902,1,0,0:0:0:0:
256,224,44218,1,0,0:0:0:0:
256,224,44534,1,8,0:0:0:0:
256,224,45165,1,0,0:0:0:0:
256,224,45481,1,8,0:0:0:0:
256,224,45797,1,4,0:0:0:0:
256,224,46428,1,0,0:0:0:0:
256,224,46744,1,0,0:0:0:0:
256,224,47060,1,8,0:0:0:0:
256,224,47692,1,0,0:0:0:0:
256,224,48007,1,8,0:0:0:0:
256,224,48323,1,4,0:0:0:0:
256,224,48955,1,0,0:0:0:0:
256,224,49586,1,8,0:0:0:0:
224,192,49902,1,0,0:0:0:0:
256,224,50218,1,8,0:0:0:0:
256,224,50849,1,12,0:0:0:0:
256,224,51481,1,0,0:0:0:0:
256,224,51797,1,8,0:0:0:0:
256,224,52113,1,0,0:0:0:0:
256,224,52744,1,8,0:0:0:0:
256,224,53376,1,12,0:0:0:0:
256,224,54007,1,0,0:0:0:0:
256,224,54323,1,0,0:0:0:0:
256,224,54639,1,8,0:0:0:0:
256,224,55270,1,0,0:0:0:0:
256,224,55586,1,8,0:0:0:0:
256,224,55902,1,4,0:0:0:0:
256,224,56534,1,0,0:0:0:0:
224,224,56849,1,0,0:0:0:0:
256,224,57165,1,8,0:0:0:0:
256,224,57797,1,0,0:0:0:0:
256,224,58113,1,8,0:0:0:0:
256,224,58428,1,4,0:0:0:0:
160,224,59060,1,0,0:0:0:0:
192,224,59691,1,8,0:0:0:0:
192,224,60007,1,0,0:0:0:0:
192,224,60323,1,8,0:0:0:0:
192,224,60955,1,12,0:0:0:0:
192,224,61586,1,0,0:0:0:0:
224,192,61902,1,0,0:0:0:0:
192,224,62218,1,8,0:0:0:0:
192,224,63481,1,12,0:0:0:0:
192,224,64112,1,0,0:0:0:0:
192,224,64428,1,0,0:0:0:0:
192,224,64744,1,8,0:0:0:0:
192,224,65376,1,0,0:0:0:0:
192,224,65691,1,0,0:0:0:0:
192,224,66007,1,12,0:0:0:0:
192,224,66639,1,0,0:0:0:0:
192,224,67270,1,8,0:0:0:0:
192,224,67586,1,0,0:0:0:0:
192,224,67902,1,8,0:0:0:0:
192,224,68533,1,12,0:0:0:0:
192,224,68849,1,0,0:0:0:0:
192,224,69165,1,0,0:0:0:0:
192,224,69797,1,8,0:0:0:0:
192,224,70112,1,0,0:0:0:0:
192,224,70428,1,0,0:0:0:0:
192,224,71060,1,12,0:0:0:0:
192,224,71376,1,0,0:0:0:0:
192,224,71691,1,0,0:0:0:0:
192,224,72323,1,8,0:0:0:0:
192,224,72955,1,8,0:0:0:0:
192,224,73586,1,4,0:0:0:0:
256,192,78007,1,4,0:0:0:0:
256,192,78480,1,12,0:0:0:0:
256,192,79270,1,0,0:0:0:0:
256,192,79744,1,8,0:0:0:0:
256,192,80533,1,8,0:0:0:0:
256,192,81007,1,0,0:0:0:0:
256,192,81796,1,0,0:0:0:0:
256,192,82270,1,12,0:0:0:0:
256,192,82586,1,12,0:0:0:0:
256,192,82901,1,12,0:0:0:0:
256,192,83691,1,4,0:0:0:0:
256,192,88112,1,4,0:0:0:0:
256,192,88586,1,12,0:0:0:0:
256,192,89375,1,0,0:0:0:0:
256,192,89849,1,8,0:0:0:0:
256,192,90638,1,0,0:0:0:0:
256,192,91112,1,8,0:0:0:0:
256,192,91901,1,0,0:0:0:0:
256,192,92375,1,8,0:0:0:0:
288,192,93164,1,0,0:0:0:0:
256,192,93796,1,12,0:0:0:0:
256,192,94112,1,12,0:0:0:0:
256,192,94901,1,4,0:0:0:0:
224,192,95691,1,8,0:0:0:0:
256,192,96322,1,4,0:0:0:0:
256,192,96638,1,4,0:0:0:0:
256,192,97428,1,4,0:0:0:0:
224,192,98217,1,8,0:0:0:0:
256,192,98849,1,12,0:0:0:0:
256,192,99164,1,12,0:0:0:0:
288,224,99954,1,4,0:0:0:0:
224,192,100743,1,0,0:0:0:0:
288,224,101059,1,8,0:0:0:0:
288,224,101375,1,4,0:0:0:0:
256,192,102007,1,8,0:0:0:0:
256,192,102954,1,0,0:0:0:0:
256,192,103270,1,8,0:0:0:0:
256,192,103902,1,4,0:0:0:0:
256,192,105007,1,8,0:0:0:0:
256,224,106428,1,12,0:0:0:0:
256,224,107059,1,0,0:0:0:0:
256,224,107375,1,0,0:0:0:0:
256,224,107691,1,8,0:0:0:0:
256,224,108322,1,0,0:0:0:0:
256,224,108638,1,8,0:0:0:0:
256,224,108954,1,4,0:0:0:0:
256,224,109585,1,0,0:0:0:0:
288,192,109902,1,0,0:0:0:0:
256,224,110217,1,8,0:0:0:0:
256,224,110849,1,0,0:0:0:0:
256,224,111164,1,8,0:0:0:0:
256,224,111480,1,4,0:0:0:0:
256,224,112112,1,0,0:0:0:0:
256,224,112743,1,8,0:0:0:0:
224,192,113059,1,0,0:0:0:0:
256,224,113375,1,8,0:0:0:0:
256,224,114006,1,12,0:0:0:0:
256,224,114638,1,0,0:0:0:0:
256,224,114954,1,8,0:0:0:0:
256,224,115270,1,0,0:0:0:0:
256,224,115901,1,8,0:0:0:0:
256,224,116533,1,12,0:0:0:0:
256,224,117164,1,0,0:0:0:0:
256,224,117480,1,0,0:0:0:0:
256,224,117796,1,8,0:0:0:0:
256,224,118427,1,0,0:0:0:0:
256,224,118743,1,8,0:0:0:0:
256,224,119059,1,4,0:0:0:0:
256,224,119691,1,0,0:0:0:0:
288,192,120007,1,0,0:0:0:0:
256,224,120322,1,8,0:0:0:0:
256,224,120954,1,0,0:0:0:0:
256,224,121270,1,8,0:0:0:0:
256,224,121585,1,4,0:0:0:0:
160,224,122217,1,0,0:0:0:0:
192,224,122848,1,8,0:0:0:0:
192,224,123164,1,0,0:0:0:0:
192,224,123480,1,8,0:0:0:0:
192,224,124112,1,12,0:0:0:0:
192,224,124743,1,0,0:0:0:0:
224,192,125059,1,0,0:0:0:0:
192,224,125375,1,8,0:0:0:0:
192,224,126638,1,12,0:0:0:0:
224,224,126954,1,12,0:0:0:0:
224,224,127744,1,4,0:0:0:0:
224,224,128533,1,8,0:0:0:0:
224,224,129165,1,4,0:0:0:0:
224,224,129480,1,4,0:0:0:0:
224,224,130270,1,4,0:0:0:0:
224,224,131059,1,0,0:0:0:0:
224,224,131691,1,12,0:0:0:0:
224,224,132007,1,12,0:0:0:0:
224,224,132796,1,4,0:0:0:0:
224,224,133586,1,8,0:0:0:0:
224,224,134217,1,4,0:0:0:0:
224,224,134533,1,4,0:0:0:0:
224,224,135322,1,4,0:0:0:0:
224,224,136112,1,0,0:0:0:0:
224,224,136743,1,12,0:0:0:0:
224,224,137059,1,12,0:0:0:0:
224,224,137849,1,0,0:0:0:0:
224,224,138638,1,8,0:0:0:0:
224,224,139270,1,4,0:0:0:0:
224,224,139586,1,4,0:0:0:0:
224,224,140375,1,4,0:0:0:0:
96,192,141164,1,0,0:0:0:0:
224,224,141796,1,12,0:0:0:0:
224,224,142112,1,12,0:0:0:0:
224,224,142901,1,4,0:0:0:0:
224,224,143691,1,8,0:0:0:0:
224,224,144322,1,4,0:0:0:0:
224,224,144954,1,8,0:0:0:0:
224,224,145586,1,0,0:0:0:0:
224,224,145901,1,0,0:0:0:0:
224,224,146217,1,8,0:0:0:0:
224,224,146849,1,12,0:0:0:0:
224,224,147954,1,8,0:0:0:0:
256,192,148270,12,0,149217,0:0:0:0:
256,192,156954,5,8,0:0:0:0:
256,192,157585,1,8,0:0:0:0:
256,192,157901,1,0,0:0:0:0:
256,192,158217,1,0,0:0:0:0:
256,224,159480,1,12,0:0:0:0:
256,224,160111,1,0,0:0:0:0:
256,224,160427,1,0,0:0:0:0:
256,224,160743,1,8,0:0:0:0:
256,224,161374,1,0,0:0:0:0:
256,224,161690,1,8,0:0:0:0:
256,224,162006,1,4,0:0:0:0:
256,224,162637,1,0,0:0:0:0:
256,224,162953,1,0,0:0:0:0:
256,224,163269,1,8,0:0:0:0:
256,224,163901,1,0,0:0:0:0:
256,224,164216,1,8,0:0:0:0:
256,224,164532,1,4,0:0:0:0:
256,224,165164,1,0,0:0:0:0:
256,224,165795,1,8,0:0:0:0:
224,192,166111,1,0,0:0:0:0:
256,224,166427,1,8,0:0:0:0:
256,224,167058,1,12,0:0:0:0:
256,224,167690,1,0,0:0:0:0:
256,224,168006,1,8,0:0:0:0:
256,224,168322,1,0,0:0:0:0:
256,224,168953,1,8,0:0:0:0:
256,224,169585,1,12,0:0:0:0:
288,224,169901,1,0,0:0:0:0:
256,224,170216,1,0,0:0:0:0:
256,224,170532,1,0,0:0:0:0:
256,224,170848,1,8,0:0:0:0:
256,224,171479,1,0,0:0:0:0:
256,224,171795,1,8,0:0:0:0:
256,224,172111,1,4,0:0:0:0:
256,224,172743,1,0,0:0:0:0:
224,224,173058,1,0,0:0:0:0:
256,224,173374,1,8,0:0:0:0:
256,224,174006,1,0,0:0:0:0:
256,224,174322,1,8,0:0:0:0:
256,224,174637,1,4,0:0:0:0:
160,224,175269,1,0,0:0:0:0:
192,224,175900,1,8,0:0:0:0:
192,224,176216,1,0,0:0:0:0:
192,224,176532,1,8,0:0:0:0:
192,224,177164,1,12,0:0:0:0:
288,224,177480,1,0,0:0:0:0:
192,224,177795,1,8,0:0:0:0:
224,192,178111,1,0,0:0:0:0:
192,224,178427,1,8,0:0:0:0:
192,224,179690,1,4,0:0:0:0:
192,192,180322,1,0,0:0:0:0:
192,192,180954,1,0,0:0:0:0:
192,192,181269,1,8,0:0:0:0:
192,192,181585,1,0,0:0:0:0:
192,192,182217,1,8,0:0:0:0:
192,192,182848,1,8,0:0:0:0:
192,192,183480,1,0,0:0:0:0:
96,192,183796,1,8,0:0:0:0:
192,192,184112,1,8,0:0:0:0:
192,192,184743,1,4,0:0:0:0:
192,192,185375,1,8,0:0:0:0:
192,192,186006,1,8,0:0:0:0:
192,192,186322,1,0,0:0:0:0:
192,192,186638,1,8,0:0:0:0:
192,192,187269,1,0,0:0:0:0:
192,192,188375,1,8,0:0:0:0:
192,192,189796,1,12,0:0:0:0:
192,192,190427,1,0,0:0:0:0:
192,192,191059,1,8,0:0:0:0:
192,192,191375,1,0,0:0:0:0:
192,192,191690,1,8,0:0:0:0:
192,192,192322,1,8,0:0:0:0:
192,192,192954,1,0,0:0:0:0:
192,192,193585,1,8,0:0:0:0:
192,224,194217,1,0,0:0:0:0:
192,192,194532,1,8,0:0:0:0:
192,224,194848,1,4,0:0:0:0:
192,192,195480,1,8,0:0:0:0:
192,192,196111,1,8,0:0:0:0:
192,192,196743,1,0,0:0:0:0:
192,192,197375,1,0,0:0:0:0:
192,192,198006,1,0,0:0:0:0:
192,192,198480,1,8,0:0:0:0:
256,192,199901,5,12,0:0:0:0:
256,192,200532,1,0,0:0:0:0:
256,192,200848,1,0,0:0:0:0:
256,192,201164,1,8,0:0:0:0:
256,192,201795,1,0,0:0:0:0:
256,192,202111,1,0,0:0:0:0:
256,192,202427,1,12,0:0:0:0:
256,192,203058,1,0,0:0:0:0:
256,192,203375,1,0,0:0:0:0:
256,192,203690,1,8,0:0:0:0:
256,192,204006,1,0,0:0:0:0:
256,192,204322,1,8,0:0:0:0:
256,192,204953,1,12,0:0:0:0:
256,192,205269,1,0,0:0:0:0:
256,192,205585,1,0,0:0:0:0:
256,192,206216,1,8,0:0:0:0:
256,192,206532,1,0,0:0:0:0:
256,192,206848,1,0,0:0:0:0:
256,192,207479,1,12,0:0:0:0:
256,192,207795,1,0,0:0:0:0:
256,192,208111,1,0,0:0:0:0:
224,160,208427,1,0,0:0:0:0:
256,192,208743,1,8,0:0:0:0:
224,160,209374,1,8,0:0:0:0:
256,192,210006,1,4,0:0:0:0:
256,192,210322,12,0,211901,0:0:0:0:
256,192,212217,5,12,0:0:0:0:
