osu file format v14

[General]
AudioFilename: audio.mp3
AudioLeadIn: 0
PreviewTime: 63481
Countdown: 0
SampleSet: Normal
StackLeniency: 0.7
Mode: 1
LetterboxInBreaks: 0
WidescreenStoryboard: 0

[Editor]
DistanceSpacing: 0.1
BeatDivisor: 2
GridSize: 32
TimelineZoom: 2.5

[Metadata]
Title:Mamanaranai
TitleUnicode:ままならない
Artist:Buta-Otome
ArtistUnicode:豚乙女
Creator:Karee Pan
Version:Futsuu
Source:東方Project
Tags:butaotome, touhou, ランコ, ランコ, ランコ, ランコの姉, Paradise Lost, パンデモニックプラネット, Pandemonic Planet, 上海アリス幻樂団, ZUN,
BeatmapID:1524525
BeatmapSetID:722051

[Difficulty]
HPDrainRate:6
CircleSize:2
OverallDifficulty:4
ApproachRate:5
SliderMultiplier:1.4
SliderTickRate:1

[Events]
//Background and Video events
0,0,"BG.png",0,0
//Break Periods
2,149417,155754
//Storyboard Layer 0 (Background)
//Storyboard Layer 1 (Fail)
//Storyboard Layer 2 (Pass)
//Storyboard Layer 3 (Foreground)
//Storyboard Sound Samples

[TimingPoints]
324,315.789473684211,4,1,0,80,1,0
10427,-100,4,1,0,60,0,0
14850,-100,4,1,0,80,0,0
20534,-100,4,1,0,60,0,0
24955,-100,4,1,0,80,0,0
30637,-100,4,1,0,90,0,0
31900,-100,4,1,0,70,0,0
33163,-100,4,1,0,90,0,0
34426,-100,4,1,0,70,0,0
35690,-100,4,1,0,90,0,0
36953,-100,4,1,0,70,0,0
38218,-100,4,1,0,65,0,0
40742,-100,4,1,0,60,0,0
41690,-100,4,1,0,40,0,0
43271,-100,4,1,0,90,0,1
63481,-100,4,1,0,80,0,0
73584,-100,4,1,0,60,0,0
78007,-100,4,1,0,80,0,0
83691,-100,4,1,0,60,0,0
88112,-100,4,1,0,80,0,0
93794,-100,4,1,0,90,0,0
95058,-100,4,1,0,70,0,0
96321,-100,4,1,0,90,0,0
97584,-100,4,1,0,70,0,0
98847,-100,4,1,0,90,0,0
100110,-100,4,1,0,70,0,0
101375,-100,4,1,0,65,0,0
103900,-100,4,1,0,60,0,0
105007,-100,4,1,0,40,0,0
106428,-100,4,1,0,90,0,1
126638,-100,4,1,0,70,0,0
156952,-100,4,1,0,60,0,0
159480,-100,4,1,0,90,0,1
179690,-100,4,1,0,70,0,0
199899,-100,4,1,0,80,0,0

[HitObjects]
256,192,324,5,12,0:0:0:0:
256,192,639,1,0,0:0:0:0:
256,192,955,1,0,0:0:0:0:
256,192,1271,1,8,0:0:0:0:
256,192,1429,1,0,0:0:0:0:
256,192,1587,1,8,0:0:0:0:
256,192,1902,1,0,0:0:0:0:
256,192,2218,1,0,0:0:0:0:
256,192,2534,1,8,0:0:0:0:
256,192,2692,1,0,0:0:0:0:
256,192,2850,1,12,0:0:0:0:
256,192,3481,1,0,0:0:0:0:
256,192,3797,1,0,0:0:0:0:
256,192,4113,1,8,0:0:0:0:
256,192,4429,1,8,0:0:0:0:
256,192,4587,1,0,0:0:0:0:
256,192,4745,1,8,0:0:0:0:
192,192,5060,1,0,0:0:0:0:
256,192,5376,1,12,0:0:0:0:
256,192,6008,1,8,0:0:0:0:
256,192,6166,1,0,0:0:0:0:
256,192,6323,1,8,0:0:0:0:
224,192,6639,1,8,0:0:0:0:
256,192,6955,1,0,0:0:0:0:
256,192,7271,1,8,0:0:0:0:
256,192,7429,1,0,0:0:0:0:
256,192,7587,1,8,0:0:0:0:
256,192,7902,1,12,0:0:0:0:
256,192,8534,1,8,0:0:0:0:
256,192,8850,1,0,0:0:0:0:
256,192,9008,1,8,0:0:0:0:
416,192,9323,1,8,0:0:0:0:
352,192,9639,1,8,0:0:0:0:
256,192,9955,1,0,0:0:0:0:
288,192,10113,1,8,0:0:0:0:
256,192,10429,1,4,0:0:0:0:
256,192,14850,5,4,0:0:0:0:
256,192,15008,1,4,0:0:0:0:
256,192,15324,1,12,0:0:0:0:
256,192,15797,1,8,0:0:0:0:
224,160,16113,1,0,0:0:0:0:
256,192,16587,1,8,0:0:0:0:
256,192,17061,1,8,0:0:0:0:
224,160,17376,1,0,0:0:0:0:
256,192,17850,1,0,0:0:0:0:
160,128,18324,1,8,0:0:0:0:
224,160,18639,1,0,0:0:0:0:
256,192,18955,1,0,0:0:0:0:
256,192,19113,1,12,0:0:0:0:
256,192,19429,5,12,0:0:0:0:
256,192,19744,1,12,0:0:0:0:
256,192,20534,1,4,0:0:0:0:
256,192,24955,1,4,0:0:0:0:
256,192,25113,1,4,0:0:0:0:
256,192,25429,1,12,0:0:0:0:
256,192,25902,1,8,0:0:0:0:
256,192,26218,1,0,0:0:0:0:
256,192,26692,1,8,0:0:0:0:
224,192,27165,1,0,0:0:0:0:
256,192,27481,1,0,0:0:0:0:
256,192,27955,1,8,0:0:0:0:
192,160,28429,1,0,0:0:0:0:
256,192,28744,1,8,0:0:0:0:
256,192,29060,1,0,0:0:0:0:
256,192,29218,1,8,0:0:0:0:
256,160,30007,1,0,0:0:0:0:
256,160,30323,1,0,0:0:0:0:
256,192,30639,5,12,0:0:0:0:
256,160,30797,1,12,0:0:0:0:
256,192,30955,1,12,0:0:0:0:
256,160,31744,1,4,0:0:0:0:
224,160,32218,1,8,0:0:0:0:
256,160,32534,1,8,0:0:0:0:
256,160,33165,1,4,0:0:0:0:
224,160,33323,1,4,0:0:0:0:
256,160,33481,1,4,0:0:0:0:
256,160,34271,1,4,0:0:0:0:
256,160,34744,1,0,0:0:0:0:
256,160,35060,1,8,0:0:0:0:
256,160,35692,1,12,0:0:0:0:
224,192,35850,1,12,0:0:0:0:
256,160,36007,1,12,0:0:0:0:
256,160,36797,1,4,0:0:0:0:
256,160,37271,1,8,0:0:0:0:
256,160,37586,1,0,0:0:0:0:
256,160,37902,1,8,0:0:0:0:
256,160,38218,1,4,0:0:0:0:
256,160,38850,1,8,0:0:0:0:
256,160,39323,1,0,0:0:0:0:
256,160,40113,1,8,0:0:0:0:
256,160,40428,1,8,0:0:0:0:
256,160,40744,1,4,0:0:0:0:
256,160,41376,1,8,0:0:0:0:
256,160,41849,1,0,0:0:0:0:
256,160,43271,1,12,0:0:0:0:
256,160,43586,1,0,0:0:0:0:
256,160,43902,1,0,0:0:0:0:
256,160,44218,1,0,0:0:0:0:
256,160,44534,1,8,0:0:0:0:
256,160,44849,1,8,0:0:0:0:
256,160,45007,1,8,0:0:0:0:
256,160,45165,1,0,0:0:0:0:
256,128,45481,1,8,0:0:0:0:
256,160,45797,1,4,0:0:0:0:
256,160,46428,1,0,0:0:0:0:
256,160,46744,1,0,0:0:0:0:
256,160,47060,1,8,0:0:0:0:
256,160,47376,1,8,0:0:0:0:
224,128,47534,1,8,0:0:0:0:
256,160,47692,1,0,0:0:0:0:
288,128,48007,1,8,0:0:0:0:
256,160,48323,1,4,0:0:0:0:
256,160,48955,1,8,0:0:0:0:
256,160,49270,1,8,0:0:0:0:
256,160,49428,1,0,0:0:0:0:
256,128,49586,1,8,0:0:0:0:
256,160,49902,1,0,0:0:0:0:
256,160,50218,1,8,0:0:0:0:
256,160,50849,1,12,0:0:0:0:
256,160,51165,1,0,0:0:0:0:
256,160,51481,1,8,0:0:0:0:
256,160,51639,1,0,0:0:0:0:
256,160,51797,1,8,0:0:0:0:
256,160,52113,1,0,0:0:0:0:
256,160,52428,1,0,0:0:0:0:
256,160,52586,1,0,0:0:0:0:
256,160,52744,1,8,0:0:0:0:
256,160,53376,1,12,0:0:0:0:
256,192,53691,1,8,0:0:0:0:
256,160,53849,1,8,0:0:0:0:
256,160,54007,1,0,0:0:0:0:
256,128,54323,1,0,0:0:0:0:
256,160,54639,1,8,0:0:0:0:
224,160,54955,1,8,0:0:0:0:
224,160,55113,1,8,0:0:0:0:
256,160,55270,1,0,0:0:0:0:
256,160,55586,1,8,0:0:0:0:
256,160,55902,1,4,0:0:0:0:
256,160,56534,1,0,0:0:0:0:
256,160,56849,1,0,0:0:0:0:
256,160,57165,1,8,0:0:0:0:
256,160,57481,1,8,0:0:0:0:
256,160,57639,1,8,0:0:0:0:
256,128,57797,1,0,0:0:0:0:
256,160,58113,1,8,0:0:0:0:
256,160,58428,1,4,0:0:0:0:
256,160,59060,1,0,0:0:0:0:
256,160,59376,1,8,0:0:0:0:
256,160,59534,1,0,0:0:0:0:
256,160,59691,1,8,0:0:0:0:
256,160,60007,1,0,0:0:0:0:
288,160,60323,1,8,0:0:0:0:
256,160,60955,1,12,0:0:0:0:
256,160,61270,1,0,0:0:0:0:
256,160,61586,1,0,0:0:0:0:
224,128,61744,1,8,0:0:0:0:
256,160,61902,1,0,0:0:0:0:
256,160,62218,1,8,0:0:0:0:
256,160,62534,1,8,0:0:0:0:
256,160,62849,1,0,0:0:0:0:
256,160,63481,1,12,0:0:0:0:
256,160,63797,1,0,0:0:0:0:
256,160,64112,1,0,0:0:0:0:
256,160,64428,1,8,0:0:0:0:
256,160,64586,1,0,0:0:0:0:
256,160,64744,1,8,0:0:0:0:
256,160,65060,1,0,0:0:0:0:
256,160,65376,1,0,0:0:0:0:
256,160,65691,1,8,0:0:0:0:
256,160,65849,1,0,0:0:0:0:
256,160,66007,1,12,0:0:0:0:
256,160,66639,1,0,0:0:0:0:
256,160,66955,1,0,0:0:0:0:
256,160,67270,1,8,0:0:0:0:
256,160,67586,1,8,0:0:0:0:
256,160,67744,1,0,0:0:0:0:
256,160,67902,1,8,0:0:0:0:
256,160,68218,1,0,0:0:0:0:
256,160,68533,1,12,0:0:0:0:
256,160,69165,1,8,0:0:0:0:
256,160,69323,1,0,0:0:0:0:
256,160,69481,1,8,0:0:0:0:
256,160,69797,1,8,0:0:0:0:
256,160,70112,1,0,0:0:0:0:
256,160,70428,1,8,0:0:0:0:
256,160,70586,1,0,0:0:0:0:
256,160,70744,1,8,0:0:0:0:
256,160,71060,1,12,0:0:0:0:
256,160,71691,1,8,0:0:0:0:
224,160,72007,1,0,0:0:0:0:
256,160,72165,1,8,0:0:0:0:
224,160,72481,1,8,0:0:0:0:
224,160,72797,1,8,0:0:0:0:
256,160,73112,1,0,0:0:0:0:
256,160,73270,1,8,0:0:0:0:
256,160,73586,1,4,0:0:0:0:
256,192,78007,5,4,0:0:0:0:
256,192,78165,1,4,0:0:0:0:
256,192,78481,1,12,0:0:0:0:
224,160,78954,1,8,0:0:0:0:
256,192,79270,1,0,0:0:0:0:
256,192,79744,1,8,0:0:0:0:
256,192,80218,1,8,0:0:0:0:
224,160,80533,1,0,0:0:0:0:
256,192,81007,1,8,0:0:0:0:
160,128,81481,1,0,0:0:0:0:
256,192,81796,5,8,0:0:0:0:
256,192,82112,1,0,0:0:0:0:
256,192,82270,1,12,0:0:0:0:
256,192,82586,1,12,0:0:0:0:
256,192,82901,1,12,0:0:0:0:
256,192,83691,1,4,0:0:0:0:
256,224,84639,1,0,0:0:0:0:
256,224,84954,1,8,0:0:0:0:
256,224,85586,1,8,0:0:0:0:
256,224,86218,1,0,0:0:0:0:
192,160,87165,1,0,0:0:0:0:
256,192,87481,1,0,0:0:0:0:
256,192,88112,1,4,0:0:0:0:
256,192,88270,1,4,0:0:0:0:
256,192,88586,1,12,0:0:0:0:
224,192,89060,1,8,0:0:0:0:
256,192,89375,1,0,0:0:0:0:
256,192,89849,1,8,0:0:0:0:
128,160,90323,1,0,0:0:0:0:
256,192,90638,1,0,0:0:0:0:
256,192,91112,1,8,0:0:0:0:
256,192,91586,1,0,0:0:0:0:
256,192,91901,1,8,0:0:0:0:
256,192,92217,1,0,0:0:0:0:
256,192,92375,1,8,0:0:0:0:
256,160,93164,5,0,0:0:0:0:
256,160,93480,1,0,0:0:0:0:
256,192,93796,5,12,0:0:0:0:
192,192,93954,1,12,0:0:0:0:
256,192,94112,1,12,0:0:0:0:
256,160,94901,1,4,0:0:0:0:
256,160,95375,1,8,0:0:0:0:
256,160,95691,1,8,0:0:0:0:
256,160,96007,1,8,0:0:0:0:
256,160,96322,1,4,0:0:0:0:
256,160,96481,1,4,0:0:0:0:
256,160,96638,1,4,0:0:0:0:
256,160,97428,1,4,0:0:0:0:
256,160,97901,1,8,0:0:0:0:
256,160,98217,1,8,0:0:0:0:
256,160,98533,1,0,0:0:0:0:
256,160,98849,1,12,0:0:0:0:
256,160,99007,1,12,0:0:0:0:
256,160,99164,1,12,0:0:0:0:
256,160,99954,1,4,0:0:0:0:
256,160,100428,1,8,0:0:0:0:
256,160,100743,1,0,0:0:0:0:
256,160,101059,1,8,0:0:0:0:
256,160,101375,1,4,0:0:0:0:
256,160,102007,1,8,0:0:0:0:
256,160,102481,1,0,0:0:0:0:
256,160,103270,1,8,0:0:0:0:
256,160,103586,1,8,0:0:0:0:
256,160,103902,1,4,0:0:0:0:
256,160,105006,1,8,0:0:0:0:
256,160,106428,1,12,0:0:0:0:
224,160,106744,1,0,0:0:0:0:
256,160,107059,1,0,0:0:0:0:
256,160,107375,1,0,0:0:0:0:
256,160,107691,1,8,0:0:0:0:
256,160,108007,1,8,0:0:0:0:
256,160,108165,1,8,0:0:0:0:
256,160,108322,1,0,0:0:0:0:
256,128,108638,1,8,0:0:0:0:
256,160,108954,1,4,0:0:0:0:
256,160,109585,1,0,0:0:0:0:
256,160,109901,1,0,0:0:0:0:
256,160,110217,1,8,0:0:0:0:
256,160,110533,1,8,0:0:0:0:
192,192,110691,1,8,0:0:0:0:
256,160,110849,1,0,0:0:0:0:
288,128,111164,1,8,0:0:0:0:
256,160,111480,1,4,0:0:0:0:
256,160,112112,1,8,0:0:0:0:
256,160,112427,1,8,0:0:0:0:
256,160,112585,1,0,0:0:0:0:
256,128,112743,1,8,0:0:0:0:
256,160,113059,1,0,0:0:0:0:
256,160,113375,1,8,0:0:0:0:
256,160,114006,1,12,0:0:0:0:
256,160,114322,1,0,0:0:0:0:
256,160,114638,1,8,0:0:0:0:
256,160,114796,1,0,0:0:0:0:
256,160,114954,1,8,0:0:0:0:
256,160,115270,1,0,0:0:0:0:
256,160,115585,1,0,0:0:0:0:
256,160,115901,1,8,0:0:0:0:
256,160,116533,5,12,0:0:0:0:
256,160,116849,1,8,0:0:0:0:
192,160,117006,1,8,0:0:0:0:
192,160,117164,1,0,0:0:0:0:
256,128,117480,1,0,0:0:0:0:
256,160,117796,1,8,0:0:0:0:
256,160,118112,1,0,0:0:0:0:
256,160,118270,1,8,0:0:0:0:
256,160,118427,1,0,0:0:0:0:
256,160,118743,1,8,0:0:0:0:
256,160,119059,1,4,0:0:0:0:
256,160,119691,1,0,0:0:0:0:
256,160,120006,1,8,0:0:0:0:
256,160,120164,1,0,0:0:0:0:
256,160,120322,1,8,0:0:0:0:
256,160,120638,1,8,0:0:0:0:
256,128,120954,1,0,0:0:0:0:
256,160,121270,1,8,0:0:0:0:
256,160,121585,1,4,0:0:0:0:
256,160,122217,1,0,0:0:0:0:
256,160,122533,1,8,0:0:0:0:
256,128,122691,1,0,0:0:0:0:
256,160,122848,1,8,0:0:0:0:
256,128,123165,1,0,0:0:0:0:
256,160,123480,1,8,0:0:0:0:
256,160,124112,1,12,0:0:0:0:
256,160,124427,1,0,0:0:0:0:
256,160,124743,1,0,0:0:0:0:
288,160,125059,1,0,0:0:0:0:
288,160,125217,1,0,0:0:0:0:
256,160,125375,1,8,0:0:0:0:
256,160,125691,5,8,0:0:0:0:
256,160,126006,1,0,0:0:0:0:
256,160,126322,1,0,0:0:0:0:
256,192,126638,1,12,0:0:0:0:
256,192,126796,1,12,0:0:0:0:
256,192,126954,1,12,0:0:0:0:
256,192,127744,1,4,0:0:0:0:
256,192,128217,1,8,0:0:0:0:
256,192,128533,1,8,0:0:0:0:
224,192,128849,1,8,0:0:0:0:
256,192,129165,1,4,0:0:0:0:
224,192,129322,1,4,0:0:0:0:
256,192,129480,1,4,0:0:0:0:
256,192,130270,1,4,0:0:0:0:
256,192,130744,1,8,0:0:0:0:
256,192,131059,1,8,0:0:0:0:
256,192,131375,1,0,0:0:0:0:
256,192,131691,1,12,0:0:0:0:
256,192,131849,1,12,0:0:0:0:
256,192,132007,1,12,0:0:0:0:
256,192,132796,1,4,0:0:0:0:
256,192,133270,1,8,0:0:0:0:
224,160,133586,1,0,0:0:0:0:
256,192,133901,1,8,0:0:0:0:
256,192,134217,1,4,0:0:0:0:
224,160,134375,1,4,0:0:0:0:
256,192,134533,1,4,0:0:0:0:
256,192,135322,1,4,0:0:0:0:
256,192,135796,1,8,0:0:0:0:
256,192,136112,1,8,0:0:0:0:
256,160,136428,1,0,0:0:0:0:
288,224,136743,5,12,0:0:0:0:
256,160,136901,1,12,0:0:0:0:
288,224,137059,1,12,0:0:0:0:
288,224,137849,1,4,0:0:0:0:
288,224,138322,1,8,0:0:0:0:
288,224,138638,1,8,0:0:0:0:
288,224,138954,1,8,0:0:0:0:
288,224,139270,1,4,0:0:0:0:
256,192,139428,1,4,0:0:0:0:
288,224,139586,1,4,0:0:0:0:
288,224,140375,1,4,0:0:0:0:
288,224,140849,1,8,0:0:0:0:
224,192,141164,1,0,0:0:0:0:
288,224,141480,1,0,0:0:0:0:
288,224,141796,1,12,0:0:0:0:
256,192,141954,1,12,0:0:0:0:
288,224,142112,1,12,0:0:0:0:
288,224,142901,1,4,0:0:0:0:
288,224,143375,1,8,0:0:0:0:
288,224,143691,1,8,0:0:0:0:
288,224,144007,1,8,0:0:0:0:
288,224,144322,1,4,0:0:0:0:
288,224,144954,1,8,0:0:0:0:
288,224,145586,1,0,0:0:0:0:
256,224,145901,1,0,0:0:0:0:
288,224,146217,1,8,0:0:0:0:
288,224,146849,1,12,0:0:0:0:
288,224,147480,5,0,0:0:0:0:
256,224,147954,1,8,0:0:0:0:
256,192,148270,12,0,149217,0:0:0:0:
256,192,156954,5,8,0:0:0:0:
256,192,157270,1,0,0:0:0:0:
256,192,157428,1,0,0:0:0:0:
256,192,157585,1,8,0:0:0:0:
256,192,157901,1,0,0:0:0:0:
256,192,158217,1,0,0:0:0:0:
256,160,159480,1,12,0:0:0:0:
256,160,159796,1,8,0:0:0:0:
256,160,159954,1,8,0:0:0:0:
256,160,160111,1,0,0:0:0:0:
256,160,160427,1,0,0:0:0:0:
256,160,160743,1,8,0:0:0:0:
224,160,161059,1,0,0:0:0:0:
224,160,161217,1,8,0:0:0:0:
256,160,161374,1,0,0:0:0:0:
256,128,161690,1,8,0:0:0:0:
256,160,162006,1,4,0:0:0:0:
256,160,162637,1,0,0:0:0:0:
256,160,162953,1,0,0:0:0:0:
256,160,163269,1,8,0:0:0:0:
256,160,163585,1,8,0:0:0:0:
256,160,163743,1,8,0:0:0:0:
256,160,163901,1,0,0:0:0:0:
288,128,164216,1,8,0:0:0:0:
256,160,164532,1,4,0:0:0:0:
256,160,165164,1,8,0:0:0:0:
256,160,165479,1,8,0:0:0:0:
256,160,165637,1,0,0:0:0:0:
256,128,165795,1,8,0:0:0:0:
256,160,166111,1,0,0:0:0:0:
256,160,166427,1,8,0:0:0:0:
256,160,167058,1,12,0:0:0:0:
256,160,167374,1,0,0:0:0:0:
256,160,167690,1,0,0:0:0:0:
256,160,168006,1,8,0:0:0:0:
224,160,168164,1,0,0:0:0:0:
256,160,168322,1,8,0:0:0:0:
256,160,168637,5,0,0:0:0:0:
256,160,168953,1,8,0:0:0:0:
256,160,169585,5,12,0:0:0:0:
256,160,169900,1,0,0:0:0:0:
256,160,170216,1,0,0:0:0:0:
256,128,170532,1,0,0:0:0:0:
256,160,170691,1,0,0:0:0:0:
256,160,170848,1,8,0:0:0:0:
256,160,171164,1,0,0:0:0:0:
256,160,171479,1,0,0:0:0:0:
256,160,171795,1,8,0:0:0:0:
256,160,172111,1,4,0:0:0:0:
256,160,172743,1,0,0:0:0:0:
256,160,173058,1,0,0:0:0:0:
256,192,173217,1,0,0:0:0:0:
256,160,173374,1,8,0:0:0:0:
224,128,173691,1,0,0:0:0:0:
256,160,174006,1,0,0:0:0:0:
256,160,174322,1,8,0:0:0:0:
256,160,174637,1,4,0:0:0:0:
256,160,175269,1,8,0:0:0:0:
256,160,175585,1,8,0:0:0:0:
256,160,175743,1,0,0:0:0:0:
224,192,175900,1,8,0:0:0:0:
224,128,176217,1,0,0:0:0:0:
256,160,176532,1,8,0:0:0:0:
256,160,177164,1,12,0:0:0:0:
256,160,177479,1,8,0:0:0:0:
256,128,177638,1,0,0:0:0:0:
256,160,177795,1,8,0:0:0:0:
256,160,178112,1,0,0:0:0:0:
256,160,178427,1,12,0:0:0:0:
256,160,178743,1,8,0:0:0:0:
256,160,178900,1,8,0:0:0:0:
256,160,179058,1,0,0:0:0:0:
256,160,179374,1,0,0:0:0:0:
224,192,179690,1,4,0:0:0:0:
224,160,180322,1,8,0:0:0:0:
224,160,180954,1,8,0:0:0:0:
224,160,181269,1,0,0:0:0:0:
224,160,181585,1,8,0:0:0:0:
224,160,182217,1,8,0:0:0:0:
224,160,182848,1,8,0:0:0:0:
224,160,183480,1,0,0:0:0:0:
224,160,183796,1,8,0:0:0:0:
224,160,184112,1,0,0:0:0:0:
224,160,184427,1,8,0:0:0:0:
224,160,184743,1,4,0:0:0:0:
224,160,185375,1,8,0:0:0:0:
224,160,186006,1,0,0:0:0:0:
224,160,186322,1,8,0:0:0:0:
224,160,186638,1,0,0:0:0:0:
224,160,187269,1,0,0:0:0:0:
224,160,187901,1,8,0:0:0:0:
224,160,188375,1,0,0:0:0:0:
192,160,189164,1,8,0:0:0:0:
192,160,189480,1,0,0:0:0:0:
224,160,189796,1,12,0:0:0:0:
224,160,190427,1,0,0:0:0:0:
224,160,191059,1,8,0:0:0:0:
224,160,191375,1,0,0:0:0:0:
224,160,191690,1,8,0:0:0:0:
224,160,192006,1,8,0:0:0:0:
224,160,192322,1,0,0:0:0:0:
224,160,192954,1,0,0:0:0:0:
224,160,193585,1,0,0:0:0:0:
224,160,193901,1,8,0:0:0:0:
224,160,194217,1,0,0:0:0:0:
160,160,194532,1,8,0:0:0:0:
224,160,194848,1,4,0:0:0:0:
224,160,195480,1,8,0:0:0:0:
224,160,196111,1,8,0:0:0:0:
224,160,196427,1,0,0:0:0:0:
224,160,196743,1,8,0:0:0:0:
224,160,197059,1,0,0:0:0:0:
224,160,197375,1,0,0:0:0:0:
224,160,198006,1,0,0:0:0:0:
224,160,198480,1,8,0:0:0:0:
224,160,199269,1,0,0:0:0:0:
256,160,199901,1,12,0:0:0:0:
192,160,200217,1,0,0:0:0:0:
256,160,200532,1,0,0:0:0:0:
256,160,200848,1,8,0:0:0:0:
256,160,201006,1,0,0:0:0:0:
256,160,201164,1,8,0:0:0:0:
192,160,201480,1,0,0:0:0:0:
256,160,201796,1,0,0:0:0:0:
256,160,202111,1,8,0:0:0:0:
256,160,202269,1,0,0:0:0:0:
256,160,202427,1,12,0:0:0:0:
256,160,203059,1,0,0:0:0:0:
256,160,203375,1,0,0:0:0:0:
256,160,203690,1,8,0:0:0:0:
256,160,204006,1,8,0:0:0:0:
256,160,204164,1,0,0:0:0:0:
256,160,204322,1,8,0:0:0:0:
256,160,204638,1,0,0:0:0:0:
256,160,204953,1,12,0:0:0:0:
256,160,205585,1,8,0:0:0:0:
256,160,205743,1,0,0:0:0:0:
256,160,205901,1,8,0:0:0:0:
256,160,206217,1,8,0:0:0:0:
256,160,206532,1,0,0:0:0:0:
256,160,206848,1,8,0:0:0:0:
256,160,207006,1,0,0:0:0:0:
256,160,207164,1,8,0:0:0:0:
256,160,207480,1,12,0:0:0:0:
256,160,208111,1,8,0:0:0:0:
256,160,208427,1,0,0:0:0:0:
256,160,208585,1,8,0:0:0:0:
256,160,208901,1,8,0:0:0:0:
256,160,209217,1,8,0:0:0:0:
256,160,209532,1,8,0:0:0:0:
256,160,209848,1,8,0:0:0:0:
224,160,210006,1,4,0:0:0:0:
256,192,210164,12,0,211901,0:0:0:0:
256,192,212217,5,12,0:0:0:0:
256,192,212374,1,12,0:0:0:0:
