osu file format v14

[General]
AudioFilename: audio.mp3
AudioLeadIn: 0
PreviewTime: 55733
Countdown: 0
SampleSet: None
StackLeniency: 0.7
Mode: 0
LetterboxInBreaks: 0
WidescreenStoryboard: 0

[Editor]
DistanceSpacing: 1.4
BeatDivisor: 4
GridSize: 32
TimelineZoom: 1.6

[Metadata]
Title:Eternal Lost Child
TitleUnicode:Eternal Lost Child
Artist:Buta-Otome
ArtistUnicode:Buta-Otome
Creator:Ekin
Version:Dance
Source:東方Project
Tags:Imperishable Night Kamishirasawa Keine's theme zigizigiefe
BeatmapID:1140526
BeatmapSetID:538422

[Difficulty]
HPDrainRate:6
CircleSize:4
OverallDifficulty:8
ApproachRate:9.3
SliderMultiplier:1.8
SliderTickRate:1

[Events]
//Background and Video events
0,0,"bgkeina.jpg",0,0
//Break Periods
2,67099,68996
//Storyboard Layer 0 (Background)
//Storyboard Layer 1 (Fail)
//Storyboard Layer 2 (Pass)
//Storyboard Layer 3 (Foreground)
//Storyboard Sound Samples

[TimingPoints]
14899.7358450962,333.333333333333,4,3,0,50,1,0
22899,-100,4,3,0,50,0,0
43566,-86.9565217391304,4,3,0,50,0,0
43899,-76.9230769230769,4,3,0,50,0,0
44233,-100,4,3,0,50,0,0
56233,-90.9090909090909,4,3,0,60,0,1
66899,-100,4,3,0,50,0,0
69566,-100,4,3,0,50,0,0
87566,-86.9565217391304,4,3,0,50,0,0
87899,-76.9230769230769,4,3,0,50,0,0
88233,-100,4,3,0,50,0,0
100233,-90.9090909090909,4,3,0,60,0,1
110899,-100,4,3,0,50,0,0
113566,-100,4,3,0,50,0,0
145566,-90.9090909090909,4,3,0,60,0,1
156233,-100,4,3,0,50,0,0

[Colours]
Combo1 : 123,177,238
Combo2 : 196,196,0
Combo3 : 207,207,207
Combo4 : 130,208,162

[HitObjects]
167,41,14899,5,8,0:0:0:0:
105,161,15066,1,2,0:0:0:0:
105,161,15149,1,0,0:0:0:0:
105,161,15233,2,0,P|150:173|195:170,1,90
404,102,15566,1,0,0:0:0:0:
281,45,15733,1,2,0:0:0:0:
281,45,15816,1,0,0:0:0:0:
280,45,15899,2,0,P|272:93|279:137,1,90
138,195,16233,5,8,0:0:0:0:
85,318,16399,1,2,0:0:0:0:
85,318,16483,1,0,0:0:0:0:
85,318,16566,2,0,P|130:330|175:327,1,90
328,268,16899,1,0,0:0:0:0:
238,166,17066,1,2,0:0:0:0:
238,166,17149,1,0,0:0:0:0:
238,165,17233,2,0,P|191:159|141:167,1,90
375,75,17566,5,8,0:0:0:0:
447,189,17733,1,2,0:0:0:0:
447,189,17816,1,0,0:0:0:0:
448,189,17899,2,0,P|456:237|450:280,1,90
330,354,18233,1,0,0:0:0:0:
281,228,18399,1,2,0:0:0:0:
281,228,18483,1,0,0:0:0:0:
281,227,18566,2,0,P|328:221|378:229,1,90
380,58,18899,5,8,0:0:0:0:
250,19,19066,1,2,0:0:0:0:
250,19,19149,1,0,0:0:0:0:
250,18,19233,2,0,P|203:12|153:20,1,90
66,172,19566,1,0,0:0:0:0:
199,228,19733,1,2,0:0:0:0:
199,228,19816,1,0,0:0:0:0:
200,228,19899,2,0,P|208:180|201:136,1,90
203,343,20233,5,8,0:0:0:0:
203,343,20733,5,0,0:0:0:0:
393,273,20900,1,0,0:0:0:0:
393,273,21399,5,0,0:0:0:0:
238,143,21566,1,8,0:0:0:0:
225,239,21899,5,8,0:0:0:0:
313,203,22233,5,12,0:0:0:0:
86,94,22899,5,8,0:0:0:0:
185,237,23066,1,0,0:0:0:0:
171,63,23233,1,0,0:0:0:0:
88,261,23399,1,0,0:0:0:0:
208,331,23566,2,0,P|256:341|352:288,1,135
379,248,23899,1,0,0:0:0:0:
270,132,24066,1,0,0:0:0:0:
140,181,24233,6,0,L|158:93,1,90,8|0,0:0|0:0,0:0:0:0:
303,34,24566,2,0,L|285:122,1,90
290,232,24899,2,0,P|244:293|172:299,1,135
118,295,25233,1,0,0:0:0:0:
89,151,25399,1,0,0:0:0:0:
241,134,25566,6,0,L|346:147,1,90,8|0,0:0|0:0,0:0:0:0:
445,43,25899,2,0,L|340:30,1,90
217,39,26233,2,0,P|168:71|151:163,1,135
165,214,26566,1,0,0:0:0:0:
312,254,26733,1,0,0:0:0:0:
418,125,26899,6,0,L|456:231,1,90,8|0,0:0|0:0,0:0:0:0:
328,307,27233,2,0,L|290:201,1,90
247,70,27566,1,0,0:0:0:0:
388,166,27733,1,0,0:0:0:0:
382,186,27816,1,0,0:0:0:0:
372,204,27899,2,0,P|327:231|259:233,1,90
134,138,28233,5,8,0:0:0:0:
106,321,28399,1,0,0:0:0:0:
272,120,28566,1,0,0:0:0:0:
244,303,28732,1,0,0:0:0:0:
51,157,28899,2,0,P|79:80|143:50,1,135
200,41,29233,1,0,0:0:0:0:
314,173,29399,1,0,0:0:0:0:
131,229,29566,5,8,0:0:0:0:
259,348,29733,1,0,0:0:0:0:
310,160,29899,1,0,0:0:0:0:
126,216,30066,1,0,0:0:0:0:
327,246,30233,2,0,P|385:195|389:118,1,135
391,67,30566,1,0,0:0:0:0:
235,54,30733,1,0,0:0:0:0:
112,218,30899,5,8,0:0:0:0:
280,129,31066,1,0,0:0:0:0:
280,129,31149,1,0,0:0:0:0:
280,129,31233,1,0,0:0:0:0:
258,326,31399,1,0,0:0:0:0:
186,118,31566,1,8,0:0:0:0:
258,326,31733,1,0,0:0:0:0:
370,116,31899,1,0,0:0:0:0:
442,324,32066,1,0,0:0:0:0:
128,169,32233,5,8,0:0:0:0:
195,337,32399,1,0,0:0:0:0:
394,57,32566,1,8,0:0:0:0:
344,223,32732,1,0,0:0:0:0:
231,0,32899,1,12,0:0:0:0:
231,0,33233,5,0,0:0:0:0:
450,153,33566,6,0,L|428:255,1,90,8|0,0:0|0:0,0:0:0:0:
339,338,33899,2,0,L|317:236,1,90
272,84,34233,2,0,P|207:66|147:91,1,135
97,141,34566,1,0,0:0:0:0:
276,189,34733,1,0,0:0:0:0:
149,307,34899,6,0,L|117:220,1,90,8|0,0:0|0:0,0:0:0:0:
188,56,35233,2,0,L|220:143,1,90
280,291,35566,1,0,0:0:0:0:
130,197,35733,1,0,0:0:0:0:
130,197,35816,1,0,0:0:0:0:
130,197,35899,1,0,0:0:0:0:
272,89,36066,1,0,0:0:0:0:
418,273,36233,5,8,0:0:0:0:
332,112,36399,1,0,0:0:0:0:
332,288,36566,1,0,0:0:0:0:
408,83,36733,1,0,0:0:0:0:
218,96,36899,2,0,P|201:168|243:244,1,135
260,274,37233,1,0,0:0:0:0:
402,164,37399,1,0,0:0:0:0:
311,37,37566,6,0,L|301:126,1,90,8|0,0:0|0:0,0:0:0:0:
188,233,37899,2,0,L|169:142,1,90
125,3,38233,1,0,0:0:0:0:
282,0,38399,1,0,0:0:0:0:
297,17,38483,1,0,0:0:0:0:
311,37,38566,2,0,L|323:131,1,90
417,297,38899,6,0,L|323:309,1,90,8|0,0:0|0:0,0:0:0:0:
267,189,39233,2,0,L|357:201,1,90
330,83,39566,1,0,0:0:0:0:
167,38,39733,1,0,0:0:0:0:
167,38,39816,1,0,0:0:0:0:
167,38,39899,1,0,0:0:0:0:
216,175,40066,1,0,0:0:0:0:
95,297,40233,6,0,L|184:308,1,90,8|0,0:0|0:0,0:0:0:0:
244,189,40567,2,0,L|155:201,1,90
421,306,40899,2,0,P|372:265|356:195,1,135
365,123,41233,1,0,0:0:0:0:
214,56,41399,1,0,0:0:0:0:
84,158,41566,5,8,0:0:0:0:
130,304,41733,1,0,0:0:0:0:
199,76,41899,1,0,0:0:0:0:
153,222,42066,1,0,0:0:0:0:
297,206,42233,2,0,P|350:210|391:189,1,90,8|0,0:0|0:0,0:0:0:0:
374,63,42566,2,0,P|321:59|280:80,1,90
177,168,42899,5,8,0:0:0:0:
423,313,43066,1,0,0:0:0:0:
423,313,43149,1,0,0:0:0:0:
423,313,43233,6,2,B|373:315|373:315|321:294|321:294|274:293,1,135
119,245,43566,6,0,B|165:245|189:222|189:222|240:231|282:215,1,155.250002961159,2|0,0:0|0:0,0:0:0:0:
396,168,43899,6,2,B|348:178|304:143|304:143|257:153|220:125,1,175.499991966248
118,85,44233,5,8,0:0:0:0:
270,51,44399,1,0,0:0:0:0:
286,76,44483,1,0,0:0:0:0:
294,106,44566,2,0,L|286:198,1,90
183,278,44899,2,0,L|175:186,1,90
168,39,45233,1,0,0:0:0:0:
331,156,45399,1,0,0:0:0:0:
278,330,45566,6,0,L|370:322,1,90,8|0,0:0|0:0,0:0:0:0:
450,219,45899,2,0,L|358:211,1,90
193,179,46233,1,0,0:0:0:0:
102,324,46399,1,0,0:0:0:0:
124,341,46483,1,0,0:0:0:0:
155,352,46566,2,0,P|196:361|244:354,1,90
46,171,46899,5,8,0:0:0:0:
149,43,47066,1,0,0:0:0:0:
174,28,47150,1,0,0:0:0:0:
206,22,47233,2,0,P|251:19|294:34,1,90
424,121,47566,2,0,L|399:211,1,90
274,333,47899,1,0,0:0:0:0:
258,171,48066,1,0,0:0:0:0:
74,92,48233,6,0,L|110:178,1,90,8|0,0:0|0:0,0:0:0:0:
229,157,48566,2,0,L|193:243,1,90
73,296,48899,1,0,0:0:0:0:
260,362,49066,1,0,0:0:0:0:
298,367,49149,1,0,0:0:0:0:
336,362,49233,2,0,P|380:350|421:321,1,90
413,42,49566,6,0,B|425:78|395:96|395:96|397:158|334:196,1,180,8|0,0:0|0:0,0:0:0:0:
212,263,50066,1,0,0:0:0:0:
78,213,50233,2,0,P|65:166|83:111,1,90
170,26,50566,1,0,0:0:0:0:
276,153,50733,1,0,0:0:0:0:
450,128,50899,6,0,L|419:222,1,90,8|0,0:0|0:0,0:0:0:0:
365,333,51233,2,0,P|310:275|306:230,1,90
210,210,51566,2,0,P|268:155|313:151,1,90
328,43,51899,2,0,P|383:101|387:146,1,90
400,300,52233,5,8,0:0:0:0:
108,165,52399,1,0,0:0:0:0:
108,165,52566,1,0,0:0:0:0:
409,115,52733,1,0,0:0:0:0:
267,324,52899,1,8,0:0:0:0:
178,96,53066,1,0,0:0:0:0:
178,96,53233,1,0,0:0:0:0:
456,223,53399,6,0,B|413:253|367:224|367:224|320:194|261:226,1,180,8|0,0:0|0:0,0:0:0:0:
104,262,53899,1,0,0:0:0:0:
256,365,54066,1,0,0:0:0:0:
257,174,54233,1,8,0:0:0:0:
250,129,54316,1,0,0:0:0:0:
230,89,54399,1,2,0:0:0:0:
198,57,54483,1,0,0:0:0:0:
159,36,54566,1,2,0:0:0:0:
97,175,54733,1,0,0:0:0:0:
411,52,54899,5,12,0:0:0:0:
106,93,56233,6,0,L|230:78,1,99.0000030212403,8|0,0:0|0:0,0:0:0:0:
351,162,56566,2,0,L|227:177,1,99.0000030212403
98,206,56899,1,0,0:0:0:0:
148,69,57066,1,0,0:0:0:0:
264,304,57233,1,0,0:0:0:0:
228,162,57399,6,0,B|276:127|326:165|326:165|381:201|428:167,1,198.000006042481,8|0,0:0|0:0,0:0:0:0:
512,64,57899,1,0,0:0:0:0:
380,112,58066,1,0,0:0:0:0:
504,240,58233,1,0,0:0:0:0:
425,38,58399,1,0,0:0:0:0:
425,38,58483,1,0,0:0:0:0:
425,38,58566,2,0,P|373:24|306:45,1,99.0000030212403
257,204,58899,5,8,0:0:0:0:
170,49,59066,1,0,0:0:0:0:
272,228,59233,1,0,0:0:0:0:
158,27,59399,1,0,0:0:0:0:
347,96,59566,1,8,0:0:0:0:
98,195,59733,1,0,0:0:0:0:
368,84,59899,1,0,0:0:0:0:
276,321,60066,1,0,0:0:0:0:
41,92,60233,5,8,0:0:0:0:
190,349,60399,1,0,0:0:0:0:
397,137,60566,5,8,0:0:0:0:
61,288,60733,1,0,0:0:0:0:
341,332,60899,1,8,0:0:0:0:
301,67,61066,1,2,0:0:0:0:
301,67,61149,1,0,0:0:0:0:
301,67,61233,1,0,0:0:0:0:
132,231,61399,1,0,0:0:0:0:
427,161,61566,6,0,L|454:280,1,99.0000030212403,8|0,0:0|0:0,0:0:0:0:
286,213,61899,2,0,L|259:94,1,99.0000030212403
170,88,62233,2,0,P|263:18|350:71,1,198.000006042481
469,165,62733,6,0,B|443:188|399:176|399:176|357:238|263:211,1,198.000006042481,8|0,0:0|0:0,0:0:0:0:
150,124,63233,1,0,0:0:0:0:
227,310,63399,1,0,0:0:0:0:
243,99,63566,1,0,0:0:0:0:
139,340,63733,1,0,0:0:0:0:
7,131,63899,1,0,0:0:0:0:
209,196,64066,6,0,P|306:208|388:157,1,198.000006042481,8|0,0:0|0:0,0:0:0:0:
352,23,64566,2,0,L|241:61,1,99.0000030212403
104,244,64899,2,0,L|215:206,1,99.0000030212403,8|0,0:0|0:0,0:0:0:0:
429,292,65233,2,0,L|318:330,1,99.0000030212403,8|0,0:0|0:0,0:0:0:0:
159,324,65566,5,8,0:0:0:0:
259,92,65733,1,0,0:0:0:0:
354,330,65899,1,0,0:0:0:0:
258,78,66066,1,0,0:0:0:0:
163,337,66233,1,8,0:0:0:0:
96,105,66399,1,0,0:0:0:0:
91,92,66482,1,0,0:0:0:0:
86,79,66566,1,0,0:0:0:0:
168,350,66733,1,0,0:0:0:0:
416,57,66899,5,12,0:0:0:0:
424,57,69566,5,8,0:0:0:0:
466,217,69733,1,2,0:0:0:0:
466,217,69816,1,0,0:0:0:0:
466,217,69899,2,0,P|418:225|375:219,1,90
147,101,70233,1,8,0:0:0:0:
304,54,70399,1,2,0:0:0:0:
304,54,70482,1,0,0:0:0:0:
304,54,70566,2,0,P|317:106|301:157,1,90
111,306,70899,6,0,P|154:326|194:317,1,90,8|0,0:0|0:0,0:0:0:0:
219,291,71149,1,0,0:0:0:0:
244,253,71232,1,2,0:0:0:0:
249,209,71315,1,0,0:0:0:0:
234,167,71398,1,0,0:0:0:0:
202,136,71482,1,0,0:0:0:0:
155,128,71566,6,0,P|109:120|77:88,1,90
73,42,71816,1,0,0:0:0:0:
117,21,71899,2,0,P|160:27|193:58,1,90
77,203,72233,6,0,P|109:233|153:240,1,90,8|0,0:0|0:0,0:0:0:0:
187,240,72483,1,0,0:0:0:0:
230,228,72566,1,0,0:0:0:0:
267,203,72649,1,0,0:0:0:0:
292,166,72732,1,0,0:0:0:0:
314,124,72816,1,0,0:0:0:0:
345,80,72899,5,8,0:0:0:0:
393,58,72982,1,0,0:0:0:0:
443,73,73065,1,0,0:0:0:0:
475,116,73149,1,0,0:0:0:0:
481,172,73233,2,0,P|475:217|445:252,1,90
414,359,73566,6,0,P|368:353|331:329,1,90,8|0,0:0|0:0,0:0:0:0:
294,300,73816,1,0,0:0:0:0:
259,271,73899,1,0,0:0:0:0:
242,230,73982,1,0,0:0:0:0:
246,186,74065,1,0,0:0:0:0:
270,148,74149,1,0,0:0:0:0:
288,102,74233,6,0,P|273:60|235:38,1,90,8|0,0:0|0:0,0:0:0:0:
178,33,74483,1,0,0:0:0:0:
134,61,74566,2,0,P|111:102|115:144,1,90
175,321,74899,5,8,0:0:0:0:
175,321,75399,5,0,0:0:0:0:
365,251,75566,1,0,0:0:0:0:
365,251,76065,5,0,0:0:0:0:
210,121,76232,1,8,0:0:0:0:
197,217,76565,5,8,0:0:0:0:
285,181,76899,5,12,0:0:0:0:
260,100,77566,5,8,0:0:0:0:
105,166,77733,1,0,0:0:0:0:
105,166,77816,1,0,0:0:0:0:
103,166,77899,2,0,P|96:209|109:252,1,90
254,345,78233,1,0,0:0:0:0:
285,208,78400,1,0,0:0:0:0:
285,208,78483,1,0,0:0:0:0:
283,207,78566,2,0,P|240:193|196:200,1,90
61,185,78899,5,8,0:0:0:0:
113,54,79066,1,0,0:0:0:0:
232,275,79233,1,0,0:0:0:0:
189,140,79400,1,0,0:0:0:0:
99,332,79566,1,0,0:0:0:0:
40,168,79733,1,0,0:0:0:0:
40,168,79816,1,0,0:0:0:0:
40,167,79899,2,0,P|24:125|37:83,1,90
99,332,80233,5,8,0:0:0:0:
225,382,80400,1,0,0:0:0:0:
225,382,80483,1,0,0:0:0:0:
225,382,80566,2,0,P|242:340|241:295,1,90
150,128,80899,1,0,0:0:0:0:
105,236,81066,1,0,0:0:0:0:
105,236,81149,1,0,0:0:0:0:
106,236,81232,2,0,P|149:244|193:234,1,90
265,76,81566,6,0,P|332:74|385:114,1,135,8|8,0:0|0:0,0:0:0:0:
469,205,81899,1,0,0:0:0:0:
348,323,82066,1,0,0:0:0:0:
309,154,82233,1,0,0:0:0:0:
192,282,82399,1,0,0:0:0:0:
192,282,82483,1,0,0:0:0:0:
192,282,82566,2,0,P|159:311|100:316,1,90
111,71,82899,6,0,B|100:121|122:147|122:147|99:204|127:265,1,180,8|0,0:0|0:0,0:0:0:0:
184,374,83399,1,0,0:0:0:0:
265,277,83566,2,0,B|283:240|269:207|269:207|278:175|258:137,1,135,8|0,0:0|0:0,0:0:0:0:
247,89,83899,1,0,0:0:0:0:
137,52,84066,1,0,0:0:0:0:
403,42,84233,6,0,B|420:78|404:110|404:110|423:138|407:171|407:171|417:192|414:214,1,180,8|0,0:0|0:0,0:0:0:0:
385,346,84733,1,0,0:0:0:0:
274,290,84899,2,0,B|252:270|263:242|263:242|240:204|248:160,1,135,8|0,0:0|0:0,0:0:0:0:
256,98,85233,1,0,0:0:0:0:
383,60,85399,1,0,0:0:0:0:
129,55,85566,6,0,L|23:87,1,90,8|0,0:0|0:0,0:0:0:0:
22,227,85899,2,0,L|128:195,1,90,8|0,0:0|0:0,0:0:0:0:
209,194,86233,1,8,0:0:0:0:
267,44,86399,1,0,0:0:0:0:
357,297,86566,1,8,0:0:0:0:
296,152,86733,1,0,0:0:0:0:
124,329,86899,1,8,0:0:0:0:
124,329,87233,6,2,B|173:328|173:328|210:310|210:310|257:309,1,135
390,254,87566,6,0,B|348:258|319:237|319:237|275:242|226:220,1,155.250002961159
140,152,87899,6,0,B|192:161|234:137|234:137|285:157|329:126,1,175.499991966248
373,46,88233,5,8,0:0:0:0:
475,166,88399,1,0,0:0:0:0:
491,191,88483,1,0,0:0:0:0:
499,221,88566,2,0,L|491:313,1,90
373,378,88899,2,0,L|365:288,1,90
350,160,89233,1,0,0:0:0:0:
440,42,89399,1,0,0:0:0:0:
293,14,89566,6,0,L|192:26,1,90,8|0,0:0|0:0,0:0:0:0:
233,164,89899,2,0,L|132:152,1,90
100,24,90233,1,0,0:0:0:0:
14,142,90399,1,0,0:0:0:0:
4,171,90483,1,0,0:0:0:0:
0,201,90566,2,0,L|8:293,1,90
327,341,90899,5,8,0:0:0:0:
165,381,91066,1,0,0:0:0:0:
157,355,91150,1,0,0:0:0:0:
153,325,91233,2,0,L|161:233,1,90
284,245,91566,2,0,L|276:153,1,90
260,2,91899,1,0,0:0:0:0:
421,40,92066,1,0,0:0:0:0:
446,232,92233,6,0,L|433:135,1,90,8|0,0:0|0:0,0:0:0:0:
316,96,92566,2,0,L|329:193,1,90
301,306,92899,1,8,0:0:0:0:
301,306,92983,1,0,0:0:0:0:
301,306,93066,2,0,L|310:368,1,45
385,298,93233,2,0,L|430:292,1,45
358,223,93399,2,0,L|351:178,1,45
278,227,93566,6,0,P|194:257|99:250,1,180,8|0,0:0|0:0,0:0:0:0:
1,140,94066,1,0,0:0:0:0:
99,31,94233,2,0,P|159:3|224:16,1,135
269,47,94566,1,0,0:0:0:0:
407,185,94733,1,0,0:0:0:0:
456,19,94899,6,0,L|435:111,1,90,8|0,0:0|0:0,0:0:0:0:
379,265,95233,2,0,P|341:288|287:284,1,90
182,315,95566,2,0,P|160:277|164:223,1,90,8|0,0:0|0:0,0:0:0:0:
97,139,95899,2,0,P|135:116|189:120,1,90
379,97,96233,5,8,0:0:0:0:
95,213,96399,1,0,0:0:0:0:
95,213,96566,1,0,0:0:0:0:
385,316,96733,1,0,0:0:0:0:
247,91,96899,1,8,0:0:0:0:
124,321,97066,1,0,0:0:0:0:
124,321,97232,1,0,0:0:0:0:
429,254,97399,6,0,B|387:225|341:254|341:254|294:284|260:262,1,180,8|0,0:0|0:0,0:0:0:0:
112,135,97899,1,0,0:0:0:0:
266,2,98066,1,0,0:0:0:0:
365,172,98233,1,8,0:0:0:0:
379,214,98316,1,0,0:0:0:0:
378,258,98399,1,2,0:0:0:0:
359,299,98482,1,0,0:0:0:0:
327,330,98566,1,2,0:0:0:0:
225,223,98733,1,0,0:0:0:0:
484,14,98899,5,12,0:0:0:0:
88,314,100233,6,0,L|58:194,1,99.0000030212403,8|0,0:0|0:0,0:0:0:0:
170,87,100566,2,0,L|200:207,1,99.0000030212403
225,321,100899,2,0,P|307:271|337:178,1,198.000006042481
286,68,101399,2,0,B|230:78|226:136|226:136|220:198|157:211,1,198.000006042481,8|0,0:0|0:0,0:0:0:0:
288,348,101899,1,0,0:0:0:0:
363,168,102066,1,0,0:0:0:0:
168,208,102233,1,0,0:0:0:0:
288,348,102399,1,0,0:0:0:0:
288,348,102483,1,0,0:0:0:0:
288,348,102566,2,0,P|334:363|382:356,1,99.0000030212403
468,163,102899,5,8,0:0:0:0:
380,340,103066,1,0,0:0:0:0:
406,108,103233,1,0,0:0:0:0:
295,342,103399,1,0,0:0:0:0:
477,280,103566,1,8,0:0:0:0:
234,143,103733,1,0,0:0:0:0:
498,292,103899,1,0,0:0:0:0:
211,127,104066,1,0,0:0:0:0:
193,316,104233,5,8,0:0:0:0:
299,61,104399,1,0,0:0:0:0:
313,335,104566,5,8,0:0:0:0:
190,42,104733,1,0,0:0:0:0:
28,206,104899,1,8,0:0:0:0:
284,258,105066,1,0,0:0:0:0:
284,258,105149,1,0,0:0:0:0:
284,258,105233,1,0,0:0:0:0:
103,73,105399,1,0,0:0:0:0:
193,322,105566,6,0,L|157:225,1,99.0000030212403,8|0,0:0|0:0,0:0:0:0:
228,75,105899,2,0,L|264:172,1,99.0000030212403
345,222,106233,2,0,P|265:269|175:208,1,198.000006042481
96,29,106733,6,0,B|62:60|88:108|88:108|51:147|86:215,1,198.000006042481
168,333,107233,1,0,0:0:0:0:
242,153,107399,1,0,0:0:0:0:
257,351,107566,1,0,0:0:0:0:
155,135,107733,1,0,0:0:0:0:
347,364,107899,1,0,0:0:0:0:
474,111,108066,6,0,P|483:207|431:289,1,198.000006042481
242,153,108566,2,0,L|337:180,1,99.0000030212403
201,294,108899,2,0,L|105:266,1,99.0000030212403
58,94,109233,2,0,L|153:121,1,99.0000030212403
409,166,109566,5,0,0:0:0:0:
118,255,109733,1,0,0:0:0:0:
409,342,109899,1,0,0:0:0:0:
98,248,110066,1,0,0:0:0:0:
424,157,110233,1,0,0:0:0:0:
118,77,110399,1,0,0:0:0:0:
96,70,110482,1,0,0:0:0:0:
72,62,110565,1,0,0:0:0:0:
445,165,110733,1,0,0:0:0:0:
108,350,110899,5,0,0:0:0:0:
