osu file format v14

[General]
AudioFilename: audio.mp3
AudioLeadIn: 0
PreviewTime: 47834
Countdown: 1
SampleSet: Normal
StackLeniency: 0.4
Mode: 0
LetterboxInBreaks: 0
WidescreenStoryboard: 0

[Editor]
Bookmarks: 10917,20917,23584,25584,25917,26084,26167,26250,26334,26417,26584,26750,26917,27250,27417,27500,27667,27750,27917,28084,28250,28584,28750,28834,28917,29000,29084,29250,29417,29584,29917,30084,30167,30334,30417,30584,30750,30917,31250,31417,31500,31584,31667,31750,31834,31917,32084,32250,32417,32584,32750,32917,33000,33084,33250,33417,33584,33917,34084,34167,34250,34334,34417,34584,34750,34917,35000,35167,35250,35417,35500,35584,35667,35750,35917,36000,36084,36250,41584,46917,48250,57584,57750,57917,58084,58250,58334,58500,58584,58750,58917,64250,69584,69750,69917,70084,70167,70334,70417,70584,80250,85584,90917,92250,102917,109584,114584,114917,119917,120250,130917,133584,143584,146250
DistanceSpacing: 1.1
BeatDivisor: 8
GridSize: 8
TimelineZoom: 2.799999

[Metadata]
Title:Dream of One Day
TitleUnicode:いつかの夢
Artist:Buta-Otome
ArtistUnicode:豚乙女
Creator:hirumiro
Version:Morrow
Source:東方Project
Tags:broken moon ibuki suika 少女煉獄 第二巻 My Japanese Album Titles Cant Be This Unromanized
BeatmapID:1302047
BeatmapSetID:617520

[Difficulty]
HPDrainRate:5
CircleSize:4
OverallDifficulty:8
ApproachRate:9.4
SliderMultiplier:3.14
SliderTickRate:1

[Events]
//Background and Video events
0,0,"__ibuki_suika_touhou_drawn_by_meranie__b42a3b5dcda48ddb2f3cb31a276ff292.jpg",0,0
//Break Periods
2,109784,114044
//Storyboard Layer 0 (Background)
//Storyboard Layer 1 (Fail)
//Storyboard Layer 2 (Pass)
//Storyboard Layer 3 (Foreground)
//Storyboard Sound Samples

[TimingPoints]
251,333.333333333333,4,1,0,60,1,0
251,-200,4,1,0,60,0,0
10917,-100,4,1,0,70,0,0
20834,-100,4,1,0,70,0,0
21250,-100,4,1,0,54,0,0
21584,-100,4,1,0,38,0,0
21917,-100,4,1,0,21,0,0
22250,-100,4,1,0,5,0,0
22750,-200,4,1,0,70,0,0
23584,-200,4,1,0,70,0,0
23917,-200,4,1,0,54,0,0
24250,-200,4,1,0,38,0,0
24584,-200,4,1,0,21,0,0
24917,-200,4,1,0,5,0,0
25250,-200,4,1,0,40,0,0
25584,-117.647058823529,4,1,0,50,0,0
41584,-166.666666666667,4,1,0,60,0,0
48250,-86.9565217391304,4,1,0,70,0,1
58917,-200,4,1,0,60,0,0
69584,-117.647058823529,4,1,0,55,0,0
85584,-166.666666666667,4,1,0,55,0,0
92250,-86.9565217391304,4,1,0,70,0,1
102917,-100,4,1,0,65,0,0
114584,-181.818181818182,4,1,0,45,0,0
120250,-83.3333333333333,4,1,0,75,0,1
130917,-100,4,1,0,75,0,0
133584,-95.2380952380952,4,1,0,65,0,0
135917,-111.111111111111,4,1,0,65,0,0
136250,-95.2380952380952,4,1,0,65,0,0
138084,-125,4,1,0,65,0,0
138917,-95.2380952380952,4,1,0,65,0,0
141584,-90.9090909090909,4,1,0,65,0,0
142250,-86.9565217391304,4,1,0,65,0,0
142750,-200,4,1,0,65,0,0
147417,-200,4,1,0,50,0,0
148584,-200,4,1,0,35,0,0
149750,-200,4,1,0,20,0,0
150917,-200,4,1,0,5,0,0

[Colours]
Combo1 : 228,228,228
Combo2 : 250,188,58
Combo3 : 191,37,250
Combo4 : 251,70,70

[HitObjects]
454,190,251,6,0,L|436:361,1,157
431,167,750,1,0,0:0:0:0:
199,190,917,2,0,P|237:230|300:231,1,117.75
311,225,1250,1,0,0:0:0:0:
136,41,1417,1,0,0:0:0:0:
61,106,1750,5,0,0:0:0:0:
221,94,1916,1,0,0:0:0:0:
100,198,2084,1,0,0:0:0:0:
199,190,2250,1,0,0:0:0:0:
44,97,2417,1,0,0:0:0:0:
236,83,2583,1,0,0:0:0:0:
90,208,2751,1,0,0:0:0:0:
209,198,2917,6,0,L|227:369,1,157
186,174,3417,1,0,0:0:0:0:
432,258,3584,2,0,P|382:229|327:243,1,117.75
314,253,3916,1,0,0:0:0:0:
464,68,4084,1,0,0:0:0:0:
432,258,4417,5,0,0:0:0:0:
357,114,4584,1,0,0:0:0:0:
321,332,4750,1,0,0:0:0:0:
299,171,4917,1,0,0:0:0:0:
191,363,5084,1,0,0:0:0:0:
225,204,5251,1,0,0:0:0:0:
58,347,5417,1,0,0:0:0:0:
144,209,5584,6,0,P|144:264|74:227,1,157
74,211,6084,1,0,0:0:0:0:
216,305,6250,2,0,P|173:346|117:360,1,117.75
105,359,6584,1,0,0:0:0:0:
197,128,6750,1,0,0:0:0:0:
95,172,7084,5,0,0:0:0:0:
266,209,7250,1,0,0:0:0:0:
107,279,7417,1,0,0:0:0:0:
216,305,7584,1,0,0:0:0:0:
79,158,7750,1,0,0:0:0:0:
285,202,7916,1,0,0:0:0:0:
94,286,8083,1,0,0:0:0:0:
225,317,8250,6,0,B|348:345|348:345|310:310,1,157
300,304,8750,1,0,0:0:0:0:
49,260,8917,2,0,L|176:231,1,117.75
178,231,9250,1,0,0:0:0:0:
334,54,9417,1,0,0:0:0:0:
131,145,9750,5,0,0:0:0:0:
401,145,9917,1,0,0:0:0:0:
103,262,10084,1,0,0:0:0:0:
428,262,10251,1,0,0:0:0:0:
314,378,10584,5,0,0:0:0:0:
387,336,10750,1,0,0:0:0:0:
427,263,10917,2,0,P|431:224|429:182,1,78.5
411,87,11084,2,0,P|402:49|386:10,1,78.5
314,378,11250,2,0,P|321:340|324:298,1,78.5
315,200,11417,2,0,P|310:162|298:121,1,78.5
66,162,11584,2,0,P|175:153|213:256,1,235.5
127,309,11917,2,0,P|117:271|124:232,1,78.5
219,1,12084,2,0,P|228:38|221:77,1,78.5
355,280,12250,6,0,P|317:289|278:282,1,78.5
442,138,12417,2,0,P|440:177|433:216,1,78.5
340,182,12584,1,0,0:0:0:0:
296,112,12667,1,0,0:0:0:0:
340,42,12750,2,0,P|378:33|417:40,1,78.5
256,186,12917,2,0,P|147:195|109:92,1,235.5
204,38,13250,2,0,P|202:77|196:116,1,78.5
74,257,13417,2,0,P|76:296|82:334,1,78.5
424,321,13584,6,0,P|387:305|350:296,1,78.5
251,285,13751,2,0,P|212:282|173:286,1,78.5
8,184,13917,2,0,P|44:168|82:158,1,78.5
180,146,14084,2,0,P|219:144|258:147,1,78.5
451,74,14250,2,0,P|349:92|446:118,1,235.5
454,235,14584,2,0,P|417:247|379:244,1,78.5
290,196,14750,2,0,P|266:165|255:128,1,78.5
395,40,14917,6,0,P|446:119|363:126,1,157
336,126,15167,1,0,0:0:0:0:
218,53,15250,2,0,P|256:44|294:54,1,78.5
142,239,15417,2,0,P|104:247|66:238,1,78.5
255,128,15584,2,0,P|262:249|253:374,1,235.5
356,331,15917,2,0,P|394:341|433:332,1,78.5
511,231,16084,2,0,P|473:240|434:232,1,78.5
263,49,16250,6,0,L|251:166,1,78.5
243,227,16417,2,0,L|234:305,1,78.5
99,102,16584,2,0,L|111:219,1,78.5
119,280,16751,2,0,L|127:358,1,78.5
322,268,16917,2,0,P|302:160|193:149,1,235.5
222,300,17250,2,0,P|240:265|242:226,1,78.5
119,28,17417,2,0,P|100:62|98:101,1,78.5
307,101,17584,2,0,P|268:95|228:94,1,78.5
29,197,17750,2,0,P|67:191|107:190,1,78.5
187,250,17917,5,0,0:0:0:0:
124,194,18000,1,0,0:0:0:0:
150,119,18084,2,0,P|188:113|228:112,1,78.5
422,306,18250,2,0,P|312:295|293:188,1,235.5
375,153,18584,2,0,P|381:192|372:230,1,78.5
203,376,18750,2,0,P|197:337|207:300,1,78.5
182,31,18917,6,0,P|176:69|165:107,1,78.5
132,200,19084,2,0,P|113:234|90:266,1,78.5
282,140,19250,2,0,P|258:171|239:206,1,78.5
207,298,19417,2,0,P|194:336|189:375,1,78.5
321,285,19584,2,0,P|336:248|356:215,1,78.5
413,134,19751,2,0,P|439:105|469:80,1,78.5
239,205,19917,2,0,P|129:194|110:87,1,235.5
191,128,20250,5,0,0:0:0:0:
27,44,20417,1,0,0:0:0:0:
191,128,20750,1,0,0:0:0:0:
256,192,20834,12,0,22250,0:0:0:0:
209,222,22750,6,0,L|212:282,1,39.25
212,276,22917,1,0,0:0:0:0:
445,152,23084,1,0,0:0:0:0:
212,276,23417,1,0,0:0:0:0:
256,192,23584,12,0,24917,0:0:0:0:
376,192,25250,5,0,0:0:0:0:
443,242,25417,1,0,0:0:0:0:
367,275,25584,2,0,P|335:269|302:276,1,66.7250012726784
210,313,25750,2,0,P|177:319|144:312,1,66.7250012726784
190,157,25917,2,0,P|212:182|223:214,1,66.7250012726784
65,253,26084,1,0,0:0:0:0:
65,253,26167,2,0,P|76:221|98:196,1,66.7250012726784
116,31,26334,1,0,0:0:0:0:
116,31,26417,2,0,L|109:98,1,66.7250012726784
190,157,26584,2,0,L|197:223,1,66.7250012726784
116,282,26750,2,0,L|108:348,1,66.7250012726784
405,196,26917,6,0,P|362:112|267:112,1,200.175003818035
324,255,27250,2,0,P|324:221|313:190,1,66.7250012726784
179,91,27417,1,0,0:0:0:0:
179,91,27500,2,0,P|178:124|189:155,1,66.7250012726784
110,312,27667,1,0,0:0:0:0:
110,312,27750,2,0,P|110:278|99:247,1,66.7250012726784
33,115,27917,2,0,P|59:137|89:149,1,66.7250012726784
188,154,28084,2,0,P|222:151|252:138,1,66.7250012726784
327,38,28250,6,0,P|370:123|465:122,1,200.175003818035
481,33,28584,2,0,P|448:33|417:45,1,66.7250012726784
326,265,28750,1,0,0:0:0:0:
326,265,28834,2,0,L|321:199,1,66.7250012726784
194,88,29000,1,0,0:0:0:0:
194,88,29084,2,0,L|188:154,1,66.7250012726784
5,230,29250,2,0,P|38:224|71:232,1,66.7250012726784
158,281,29417,2,0,P|190:287|223:280,1,66.7250012726784
317,133,29584,6,0,P|323:232|317:332,1,200.175003818035
422,249,29917,2,0,P|455:243|488:250,1,66.7250012726784
317,133,30084,1,0,0:0:0:0:
317,133,30167,2,0,L|230:140,1,66.7250012726784
91,176,30334,1,0,0:0:0:0:
91,176,30417,2,0,L|158:182,1,66.7250012726784
393,166,30584,2,0,P|399:133|393:100,1,66.7250012726784
320,299,30750,2,0,P|314:266|321:234,1,66.7250012726784
136,81,30917,6,0,P|199:10|290:35,1,200.175003818035
221,164,31250,2,0,P|220:130|225:98,1,66.7250012726784
169,334,31417,1,0,0:0:0:0:
169,334,31500,2,0,P|170:300|165:268,1,66.7250012726784
133,177,31667,1,0,0:0:0:0:
58,144,31750,1,0,0:0:0:0:
3,205,31834,1,0,0:0:0:0:
44,276,31917,2,0,P|78:277|111:271,1,66.7250012726784
287,159,32084,2,0,P|253:157|220:163,1,66.7250012726784
370,321,32250,6,0,P|391:295|397:263,1,66.7250012726784
304,220,32417,2,0,P|302:186|286:158,1,66.7250012726784
188,185,32584,2,0,P|164:160|134:149,1,66.7250012726784
77,232,32750,2,0,P|43:228|12:238,1,66.7250012726784
180,317,32917,2,0,P|212:321|244:310,1,66.7250012726784
401,213,33084,2,0,P|368:208|336:219,1,66.7250012726784
385,358,33250,2,0,L|379:291,1,66.7250012726784
467,164,33417,2,0,L|472:97,1,66.7250012726784
289,95,33584,6,0,P|308:188|400:212,1,200.175003818035
437,127,33917,2,0,P|405:119|373:123,1,66.7250012726784
239,249,34084,2,0,P|206:257|174:252,1,66.7250012726784
79,137,34250,2,0,P|102:161|115:192,1,66.7250012726784
64,330,34417,2,0,P|73:298|94:273,1,66.7250012726784
203,174,34584,2,0,P|235:165|267:170,1,66.7250012726784
385,229,34750,2,0,P|353:237|321:233,1,66.7250012726784
151,39,34917,1,0,0:0:0:0:
151,39,35000,2,0,L|157:106,1,66.7250012726784
239,249,35167,1,0,0:0:0:0:
239,249,35250,2,0,L|233:316,1,66.7250012726784
143,352,35417,5,0,0:0:0:0:
64,330,35500,1,0,0:0:0:0:
60,248,35584,1,0,0:0:0:0:
136,218,35667,1,0,0:0:0:0:
188,281,35750,2,0,L|174:361,1,66.7250012726784
124,204,35917,5,0,0:0:0:0:
139,123,36000,1,0,0:0:0:0:
220,112,36084,2,0,L|208:177,1,66.7250012726784
127,109,36250,5,0,0:0:0:0:
420,75,36417,1,0,0:0:0:0:
420,75,37417,1,0,0:0:0:0:
381,148,37750,1,0,0:0:0:0:
440,208,38084,1,0,0:0:0:0:
401,282,38250,1,0,0:0:0:0:
318,267,38584,1,0,0:0:0:0:
14,149,38917,5,0,0:0:0:0:
307,183,39084,1,0,0:0:0:0:
318,267,40084,1,0,0:0:0:0:
298,116,40417,2,0,L|307:183,1,66.7250012726784
241,303,40584,1,0,0:0:0:0:
230,219,40750,1,0,0:0:0:0:
163,332,40918,1,0,0:0:0:0:
153,261,41084,1,0,0:0:0:0:
84,354,41250,1,0,0:0:0:0:
78,312,41416,1,0,0:0:0:0:
309,350,41584,6,0,P|379:322|379:210,1,188.399994250488
321,169,42084,1,0,0:0:0:0:
237,37,42250,2,0,L|242:132,1,94.1999971252442
156,89,42584,2,0,L|165:182,1,94.1999971252442
77,144,42917,2,0,L|109:354,1,188.399994250488
237,37,43584,2,0,L|205:247,1,188.399994250488
154,49,44250,6,0,P|78:42|28:141,1,188.399994250488
62,205,44750,1,0,0:0:0:0:
302,103,44917,2,0,L|209:111,1,94.1999971252442
358,196,45250,2,0,L|265:189,1,94.1999971252442
441,126,45584,5,0,0:0:0:0:
421,110,45750,1,0,0:0:0:0:
352,91,45917,1,0,0:0:0:0:
282,126,46084,1,0,0:0:0:0:
229,188,46250,1,0,0:0:0:0:
146,235,46417,1,0,0:0:0:0:
51,194,46584,1,0,0:0:0:0:
32,81,46750,1,0,0:0:0:0:
441,266,46917,5,0,0:0:0:0:
51,194,47167,1,0,0:0:0:0:
441,126,47417,1,0,0:0:0:0:
346,54,47584,5,0,0:0:0:0:
349,86,47750,1,0,0:0:0:0:
441,266,47917,5,0,0:0:0:0:
487,197,48084,1,0,0:0:0:0:
441,126,48250,2,0,P|395:115|345:113,1,90.275001721859
252,110,48417,2,0,P|212:110|156:123,1,90.275001721859
42,284,48584,2,0,P|81:262|124:247,1,90.275001721859
220,224,48751,2,0,P|264:217|309:217,1,90.275001721859
441,343,48917,2,0,P|317:340|311:217,1,270.825005165577
399,191,49250,2,0,P|400:235|381:276,1,90.275001721859
219,339,49417,2,0,P|175:327|143:296,1,90.275001721859
176,118,49584,6,0,P|219:106|262:116,1,90.275001721859
87,164,49750,2,0,P|43:175|0:165,1,90.275001721859
42,76,49917,1,0,0:0:0:0:
122,56,50000,1,0,0:0:0:0:
175,117,50084,2,0,P|187:160|177:203,1,90.275001721859
33,324,50250,2,0,P|169:315|303:327,1,270.825005165577
430,365,50584,2,0,P|417:321|427:278,1,90.275001721859
389,81,50750,2,0,P|402:124|394:168,1,90.275001721859
43,150,50917,6,0,P|85:133|130:125,1,90.275001721859
229,121,51084,2,0,P|275:119|319:127,1,90.275001721859
412,270,51250,2,0,P|375:255|323:244,1,90.275001721859
229,235,51417,2,0,P|190:233|138:243,1,90.275001721859
353,339,51584,2,0,P|477:336|483:213,1,270.825005165577
396,185,51917,2,0,P|394:230|412:270,1,90.275001721859
468,116,52084,2,0,P|470:71|451:30,1,90.275001721859
205,25,52250,6,0,P|234:107|318:126,1,180.550003443718
374,66,52500,1,0,0:0:0:0:
294,38,52584,2,0,P|290:77|296:133,1,90.275001721859
235,315,52750,2,0,P|236:269|233:224,1,90.275001721859
110,50,52917,2,0,P|8:68|103:96,1,270.825005165577
291,32,53250,2,0,P|248:18|204:25,1,90.275001721859
355,109,53417,2,0,P|397:123|441:117,1,90.275001721859
131,58,53584,6,0,L|122:148,1,90.275001721859
110,247,53750,2,0,L|101:337,1,90.275001721859
241,101,53917,2,0,L|250:191,1,90.275001721859
262,290,54083,2,0,L|271:380,1,90.275001721859
462,170,54250,2,0,P|455:47|332:45,1,270.825005165577
375,197,54584,2,0,P|372:153|392:113,1,90.275001721859
427,342,54750,2,0,P|447:302|444:258,1,90.275001721859
275,126,54917,6,0,P|232:111|189:120,1,90.275001721859
20,198,55084,2,0,P|62:212|105:202,1,90.275001721859
123,69,55250,1,0,0:0:0:0:
66,130,55333,1,0,0:0:0:0:
104,202,55417,2,0,P|142:206|198:200,1,90.275001721859
306,15,55584,2,0,P|297:151|309:285,1,270.825005165577
480,341,55917,2,0,P|435:335|391:339,1,90.275001721859
218,285,56084,2,0,P|263:279|308:283,1,90.275001721859
502,215,56250,6,0,P|378:213|372:91,1,270.825005165577
457,63,56584,2,0,P|460:107|441:148,1,90.275001721859
270,211,56750,2,0,P|227:200|195:169,1,90.275001721859
57,29,56917,2,0,P|46:73|43:118,1,90.275001721859
41,219,57084,2,0,P|41:259|54:315,1,90.275001721859
163,80,57250,2,0,P|157:124|160:169,1,90.275001721859
170,269,57417,2,0,P|176:313|191:356,1,90.275001721859
441,148,57584,6,0,L|343:161,1,90.275001721859
400,237,57750,2,0,L|302:250,1,90.275001721859
73,68,57917,6,0,L|171:81,1,90.275001721859
114,157,58083,2,0,L|212:170,1,90.275001721859
438,47,58250,5,0,0:0:0:0:
452,58,58334,2,0,L|440:147,1,90.275001721859
296,259,58500,1,0,0:0:0:0:
282,270,58584,2,0,L|295:368,1,90.275001721859
73,68,58750,2,0,P|116:57|159:70,1,90.275001721859
400,237,58917,5,0,0:0:0:0:
446,306,59250,1,0,0:0:0:0:
400,237,59417,1,0,0:0:0:0:
446,166,59584,2,0,P|466:111|440:42,1,117.75
439,45,59917,1,0,0:0:0:0:
354,308,60084,1,0,0:0:0:0:
277,371,60417,5,0,0:0:0:0:
354,308,60584,1,0,0:0:0:0:
262,272,60750,1,0,0:0:0:0:
369,209,60917,1,0,0:0:0:0:
248,171,61084,1,0,0:0:0:0:
383,108,61250,1,0,0:0:0:0:
234,70,61417,1,0,0:0:0:0:
72,307,61584,6,0,P|125:361|200:351,1,157
302,143,62084,1,0,0:0:0:0:
151,283,62250,2,0,P|198:248|215:176,1,117.75
214,178,62584,1,0,0:0:0:0:
439,319,62750,1,0,0:0:0:0:
390,108,63084,5,0,0:0:0:0:
386,137,63250,1,0,0:0:0:0:
214,178,63417,5,0,0:0:0:0:
218,207,63584,2,0,B|223:249|223:249|248:274,1,78.5
322,282,63834,2,0,B|283:265|283:265|248:274,1,78.5
200,341,64084,1,0,0:0:0:0:
299,185,64250,6,0,L|319:21,1,157
317,209,64750,1,0,0:0:0:0:
216,52,64917,2,0,P|161:32|92:58,1,117.75
95,59,65250,1,0,0:0:0:0:
404,159,65417,1,0,0:0:0:0:
158,113,65750,5,0,0:0:0:0:
282,136,65917,1,0,0:0:0:0:
141,295,66084,1,0,0:0:0:0:
265,272,66251,1,0,0:0:0:0:
147,94,66417,5,0,0:0:0:0:
296,122,66584,1,0,0:0:0:0:
126,313,66751,1,0,0:0:0:0:
275,285,66917,6,0,P|182:254|128:312,1,157
126,313,67417,1,0,0:0:0:0:
344,211,67584,2,0,P|364:156|338:87,1,117.75
337,90,67917,1,0,0:0:0:0:
416,343,68084,1,0,0:0:0:0:
73,186,68417,5,0,0:0:0:0:
281,154,68584,1,0,0:0:0:0:
74,348,68750,1,0,0:0:0:0:
323,309,68917,1,0,0:0:0:0:
396,348,69250,5,0,0:0:0:0:
323,309,69417,1,0,0:0:0:0:
255,357,69584,2,0,P|218:362|183:362,1,66.7250012726784
89,356,69750,2,0,P|52:351|18:342,1,66.7250012726784
354,338,69917,2,0,P|386:328|416:315,1,66.7250012726784
297,21,70084,1,0,0:0:0:0:
286,32,70167,2,0,P|280:64|278:98,1,66.7250012726784
302,273,70334,1,0,0:0:0:0:
290,264,70417,2,0,P|283:231|280:198,1,66.7250012726784
443,66,70584,2,0,P|410:72|377:75,1,66.7250012726784
126,140,70750,2,0,P|158:146|191:149,1,66.7250012726784
444,213,70917,6,0,P|351:190|289:263,1,200.175003818035
377,343,71250,2,0,P|386:311|379:278,1,66.7250012726784
295,50,71417,2,0,P|287:82|297:114,1,66.7250012726784
465,163,71584,2,0,P|432:155|400:165,1,66.7250012726784
307,212,71750,1,0,0:0:0:0:
227,238,71834,1,0,0:0:0:0:
158,193,71917,2,0,P|148:161|155:128,1,66.7250012726784
86,284,72084,2,0,P|95:315|88:348,1,66.7250012726784
43,34,72250,6,0,P|79:27|114:25,1,66.7250012726784
208,26,72416,2,0,P|245:29|279:36,1,66.7250012726784
396,181,72584,2,0,P|360:168|326:161,1,66.7250012726784
231,146,72750,1,0,0:0:0:0:
216,143,72834,2,0,P|178:140|143:141,1,66.7250012726784
1,242,73000,1,0,0:0:0:0:
16,239,73084,2,0,P|49:236|83:238,1,66.7250012726784
235,377,73250,2,0,P|228:344|225:311,1,66.7250012726784
222,211,73417,2,0,P|223:178|229:145,1,66.7250012726784
492,80,73584,6,0,P|399:102|337:29,1,200.175003818035
480,191,73917,2,0,P|489:222|482:255,1,66.7250012726784
238,46,74084,1,0,0:0:0:0:
227,57,74168,2,0,L|221:123,1,66.7250012726784
85,246,74334,1,0,0:0:0:0:
100,250,74418,2,0,L|161:223,1,66.7250012726784
332,264,74584,2,0,L|277:225,1,66.7250012726784
327,87,74750,2,0,L|344:152,1,66.7250012726784
423,269,74917,6,0,P|369:347|275:335,1,200.175003818035
271,242,75250,2,0,P|304:246|332:264,1,66.7250012726784
160,363,75417,1,0,0:0:0:0:
148,372,75500,2,0,P|115:368|87:350,1,66.7250012726784
149,275,75667,1,0,0:0:0:0:
164,193,75751,1,0,0:0:0:0:
99,139,75834,1,0,0:0:0:0:
21,168,75917,2,0,P|16:200|16:234,1,66.7250012726784
153,74,76084,2,0,P|157:41|157:7,1,66.7250012726784
227,249,76250,6,0,L|235:328,1,66.7250012726784
316,290,76417,2,0,L|324:369,1,66.7250012726784
500,141,76584,6,0,L|492:220,1,66.7250012726784
411,182,76751,2,0,L|403:261,1,66.7250012726784
227,32,76917,2,0,P|309:41|319:147,1,200.175003818035
391,25,77250,2,0,P|430:16|462:28,1,66.7250012726784
261,100,77417,2,0,P|221:108|189:96,1,66.7250012726784
76,32,77584,6,0,P|82:131|75:231,1,200.175003818035
21,333,77917,2,0,P|59:330|94:331,1,66.7250012726784
237,381,78084,2,0,P|204:384|171:383,1,66.7250012726784
75,231,78250,2,0,P|66:199|76:167,1,66.7250012726784
239,318,78417,2,0,P|247:349|237:381,1,66.7250012726784
129,65,78584,2,0,P|119:33|129:1,1,66.7250012726784
293,151,78751,2,0,P|300:182|290:214,1,66.7250012726784
457,65,78917,5,0,0:0:0:0:
406,131,79000,1,0,0:0:0:0:
457,197,79084,2,0,P|459:229|457:263,1,66.7250012726784
352,378,79250,2,0,P|349:345|352:312,1,66.7250012726784
247,196,79417,5,0,0:0:0:0:
181,145,79500,1,0,0:0:0:0:
115,196,79584,2,0,L|123:275,1,66.7250012726784
26,155,79751,2,0,L|34:234,1,66.7250012726784
265,48,79917,2,0,L|259:115,1,66.7250012726784
354,7,80084,2,0,L|348:74,1,66.7250012726784
100,115,80250,5,0,0:0:0:0:
375,207,80417,1,0,0:0:0:0:
374,213,80584,5,0,0:0:0:0:
373,220,80668,1,0,0:0:0:0:
372,226,80751,1,0,0:0:0:0:
372,233,80835,1,0,0:0:0:0:
371,240,80918,1,0,0:0:0:0:
370,246,81001,1,0,0:0:0:0:
370,253,81085,1,0,0:0:0:0:
369,260,81168,1,0,0:0:0:0:
368,266,81251,1,0,0:0:0:0:
368,273,81335,1,0,0:0:0:0:
367,280,81418,1,0,0:0:0:0:
366,286,81501,1,0,0:0:0:0:
365,293,81584,5,0,0:0:0:0:
348,282,81667,1,0,0:0:0:0:
329,274,81750,1,0,0:0:0:0:
310,270,81833,1,0,0:0:0:0:
290,269,81918,1,0,0:0:0:0:
257,276,82001,1,0,0:0:0:0:
229,293,82084,1,0,0:0:0:0:
207,318,82167,1,0,0:0:0:0:
189,345,82251,1,0,0:0:0:0:
149,375,82334,1,0,0:0:0:0:
100,383,82417,1,0,0:0:0:0:
53,368,82500,1,0,0:0:0:0:
18,333,82584,1,0,0:0:0:0:
3,279,82667,1,0,0:0:0:0:
19,225,82750,1,0,0:0:0:0:
60,187,82833,1,0,0:0:0:0:
115,176,82917,5,0,0:0:0:0:
390,84,83084,1,0,0:0:0:0:
429,87,83250,5,0,0:0:0:0:
462,108,83333,1,0,0:0:0:0:
482,143,83416,1,0,0:0:0:0:
483,183,83500,1,0,0:0:0:0:
465,218,83583,1,0,0:0:0:0:
433,241,83666,1,0,0:0:0:0:
393,246,83750,1,0,0:0:0:0:
356,232,83833,1,0,0:0:0:0:
330,203,83916,1,0,0:0:0:0:
320,164,84000,1,0,0:0:0:0:
330,126,84083,1,0,0:0:0:0:
358,170,84167,1,0,0:0:0:0:
360,223,84250,1,0,0:0:0:0:
336,270,84333,1,0,0:0:0:0:
292,299,84417,1,0,0:0:0:0:
240,303,84500,1,0,0:0:0:0:
192,280,84584,6,0,P|160:275|122:282,1,66.7250012726784
367,365,84750,2,0,P|399:370|437:363,1,66.7250012726784
249,37,84917,2,0,L|252:103,1,66.7250012726784
404,98,85084,2,0,L|401:165,1,66.7250012726784
259,202,85250,2,0,L|262:268,1,66.7250012726784
394,264,85417,2,0,L|390:330,1,66.7250012726784
151,160,85584,6,0,P|49:155|28:234,1,188.399994250488
55,300,86084,1,0,0:0:0:0:
185,278,86250,2,0,L|179:373,1,94.1999971252442
99,211,86584,2,0,L|104:306,1,94.1999971252442
300,159,86917,2,0,L|265:376,1,188.399994250488
180,14,87584,2,0,L|210:200,1,188.399994250488
471,155,88250,6,0,P|432:76|346:92,1,188.399994250488
315,168,88750,1,0,0:0:0:0:
170,94,88917,2,0,L|264:103,1,94.1999971252442
39,177,89250,2,0,L|133:169,1,94.1999971252442
69,45,89584,5,0,0:0:0:0:
72,74,89750,1,0,0:0:0:0:
132,169,89918,5,0,0:0:0:0:
129,198,90084,1,0,0:0:0:0:
76,301,90250,5,0,0:0:0:0:
138,353,90417,1,0,0:0:0:0:
219,347,90584,1,0,0:0:0:0:
272,284,90750,1,0,0:0:0:0:
75,103,90917,5,0,0:0:0:0:
412,165,91167,1,0,0:0:0:0:
126,227,91417,1,0,0:0:0:0:
361,289,91917,5,0,0:0:0:0:
349,317,92084,1,0,0:0:0:0:
337,345,92250,2,0,P|201:336|67:348,1,270.825005165577
126,227,92584,2,0,P|129:179|123:130,1,90.275001721859
21,0,92750,2,0,P|17:44|22:89,1,90.275001721859
238,179,92917,2,0,P|330:131|231:132,1,270.825005165577
410,258,93250,2,0,P|452:269|496:259,1,90.275001721859
337,345,93417,2,0,P|294:333|250:343,1,90.275001721859
461,96,93584,6,0,L|455:186,1,90.275001721859
330,254,93750,2,0,L|336:344,1,90.275001721859
238,179,93917,1,0,0:0:0:0:
163,143,94000,1,0,0:0:0:0:
93,187,94084,2,0,L|99:277,1,90.275001721859
307,135,94250,2,0,P|256:22|141:64,1,270.825005165577
215,198,94584,2,0,L|221:108,1,90.275001721859
122,349,94750,2,0,L|116:259,1,90.275001721859
33,125,94917,6,0,P|76:110|121:106,1,90.275001721859
221,106,95084,2,0,P|266:108|309:119,1,90.275001721859
438,276,95250,2,0,P|398:254|354:242,1,90.275001721859
254,223,95417,2,0,P|208:216|163:219,1,90.275001721859
422,141,95584,2,0,P|496:56|386:30,1,270.825005165577
308,206,95917,2,0,P|298:162|309:118,1,90.275001721859
413,346,96084,2,0,P|423:302|412:259,1,90.275001721859
219,30,96250,6,0,P|109:56|137:133,1,180.550003443718
182,142,96500,1,0,0:0:0:0:
343,103,96584,2,0,P|299:93|256:105,1,90.275001721859
21,185,96750,2,0,P|65:195|109:184,1,90.275001721859
299,12,96917,2,0,P|290:148|302:282,1,270.825005165577
378,368,97250,6,0,L|467:356,1,90.275001721859
419,279,97416,2,0,L|508:267,1,90.275001721859
357,9,97584,2,0,L|345:98,1,90.275001721859
332,197,97751,2,0,L|320:286,1,90.275001721859
178,107,97917,2,0,L|190:196,1,90.275001721859
203,295,98084,2,0,L|215:384,1,90.275001721859
344,98,98250,2,0,P|464:76|409:207,1,270.825005165577
412,131,98584,2,0,L|323:143,1,90.275001721859
371,220,98750,2,0,L|282:232,1,90.275001721859
123,337,98917,6,0,P|113:294|124:251,1,90.275001721859
211,152,99083,2,0,P|221:108|210:64,1,90.275001721859
125,13,99250,1,0,0:0:0:0:
65,68,99334,1,0,0:0:0:0:
137,109,99417,2,0,P|182:114|227:109,1,90.275001721859
461,131,99584,2,0,P|341:109|396:240,1,270.825005165577
419,245,99917,2,0,P|416:201|392:164,1,90.275001721859
274,72,100084,2,0,P|233:52|189:55,1,90.275001721859
22,340,100250,6,0,P|65:355|110:359,1,90.275001721859
210,359,100417,2,0,P|255:357|298:346,1,90.275001721859
427,189,100583,2,0,P|387:211|343:223,1,90.275001721859
243,242,100750,2,0,P|197:249|152:246,1,90.275001721859
442,0,100917,2,0,L|434:89,1,90.275001721859
427,189,101084,2,0,L|419:278,1,90.275001721859
287,87,101250,2,0,L|294:176,1,90.275001721859
302,276,101417,2,0,L|309:365,1,90.275001721859
185,26,101584,6,0,P|142:15|98:20,1,90.275001721859
287,87,101750,2,0,P|330:98|374:93,1,90.275001721859
185,143,101917,2,0,P|174:186|179:230,1,90.275001721859
270,384,102084,2,0,P|281:340|276:296,1,90.275001721859
483,227,102250,1,0,0:0:0:0:
472,244,102333,2,0,L|382:251,1,90.275001721859
98,313,102501,1,0,0:0:0:0:
108,330,102584,2,0,L|199:337,1,90.275001721859
389,148,102750,1,0,0:0:0:0:
80,48,102917,5,0,0:0:0:0:
81,64,103000,1,0,0:0:0:0:
237,107,103167,1,0,0:0:0:0:
89,173,103334,1,0,0:0:0:0:
369,259,103500,5,0,0:0:0:0:
221,325,103666,1,0,0:0:0:0:
386,25,103834,5,0,0:0:0:0:
385,41,103917,1,0,0:0:0:0:
230,216,104084,1,0,0:0:0:0:
468,155,104250,5,0,0:0:0:0:
452,156,104333,1,0,0:0:0:0:
308,129,104500,1,0,0:0:0:0:
357,268,104667,1,0,0:0:0:0:
116,351,104834,5,0,0:0:0:0:
212,240,105001,1,0,0:0:0:0:
0,91,105167,5,0,0:0:0:0:
16,92,105250,1,0,0:0:0:0:
308,129,105417,1,0,0:0:0:0:
216,356,105584,5,0,0:0:0:0:
215,340,105667,1,0,0:0:0:0:
173,27,105834,1,0,0:0:0:0:
152,184,106000,1,0,0:0:0:0:
374,282,106167,1,0,0:0:0:0:
476,161,106334,1,0,0:0:0:0:
262,217,106500,5,0,0:0:0:0:
263,233,106583,1,0,0:0:0:0:
500,380,106750,1,0,0:0:0:0:
325,95,106917,5,0,0:0:0:0:
254,99,107000,1,0,0:0:0:0:
183,104,107084,1,0,0:0:0:0:
112,108,107167,1,0,0:0:0:0:
293,172,107334,5,0,0:0:0:0:
222,176,107417,1,0,0:0:0:0:
151,181,107501,1,0,0:0:0:0:
80,185,107584,1,0,0:0:0:0:
364,168,107917,1,0,0:0:0:0:
142,40,108250,5,0,0:0:0:0:
146,110,108333,1,0,0:0:0:0:
151,181,108417,1,0,0:0:0:0:
155,253,108500,1,0,0:0:0:0:
294,91,108667,5,0,0:0:0:0:
290,161,108750,1,0,0:0:0:0:
285,232,108834,1,0,0:0:0:0:
281,304,108917,1,0,0:0:0:0:
200,324,109083,5,0,0:0:0:0:
155,253,109250,1,0,0:0:0:0:
208,188,109417,1,0,0:0:0:0:
286,218,109584,1,0,0:0:0:0:
281,301,114584,5,0,0:0:0:0:
359,331,114750,1,0,0:0:0:0:
412,266,114917,1,0,0:0:0:0:
367,195,115084,1,0,0:0:0:0:
286,218,115250,1,0,0:0:0:0:
241,147,115417,1,0,0:0:0:0:
294,82,115584,2,0,P|331:86|378:121,1,86.350002635193
188,212,115917,6,0,P|151:208|104:173,1,86.350002635193
177,130,116250,1,0,0:0:0:0:
113,282,116417,1,0,0:0:0:0:
265,176,116584,1,0,0:0:0:0:
285,172,116667,1,0,0:0:0:0:
305,180,116750,1,0,0:0:0:0:
383,321,116917,2,0,P|393:279|387:237,1,86.350002635193
251,94,117250,5,0,0:0:0:0:
318,141,117417,1,0,0:0:0:0:
470,98,117584,2,0,P|428:88|386:94,1,86.350002635193
271,208,117917,1,0,0:0:0:0:
338,255,118084,1,0,0:0:0:0:
184,47,118250,5,0,0:0:0:0:
90,181,118417,1,0,0:0:0:0:
411,300,118584,2,0,P|421:258|415:216,1,86.350002635193
203,201,118917,2,0,P|225:327|271:208,1,345.400010540772
90,181,119917,5,0,0:0:0:0:
65,103,120084,1,0,0:0:0:0:
131,55,120250,2,0,P|173:72|223:80,1,94.1999971252442
318,90,120417,2,0,P|363:91|413:80,1,94.1999971252442
492,181,120584,2,0,P|447:197|400:202,1,94.1999971252442
303,206,120751,2,0,P|256:205|210:193,1,94.1999971252442
122,271,120917,2,0,P|30:319|130:315,1,282.599991375733
61,65,121250,2,0,P|55:112|60:159,1,94.1999971252442
213,383,121417,2,0,P|218:336|212:290,1,94.1999971252442
172,20,121584,6,0,P|166:67|171:114,1,94.1999971252442
324,338,121751,2,0,P|329:291|323:245,1,94.1999971252442
341,44,121917,1,0,0:0:0:0:
290,108,122001,1,0,0:0:0:0:
347,168,122084,2,0,P|393:175|440:171,1,94.1999971252442
233,48,122250,2,0,P|105:44|100:171,1,282.599991375733
185,199,122584,2,0,P|186:153|167:111,1,94.1999971252442
210,366,122750,2,0,P|209:319|229:277,1,94.1999971252442
420,80,122917,6,0,P|434:122|440:173,1,94.1999971252442
445,268,123084,2,0,P|443:312|430:362,1,94.1999971252442
271,15,123250,2,0,P|293:56|306:102,1,94.1999971252442
325,196,123417,2,0,P|331:243|326:290,1,94.1999971252442
33,233,123584,2,0,P|38:106|166:110,1,282.599991375733
187,197,123917,2,0,P|140:195|100:172,1,94.1999971252442
259,41,124084,2,0,L|251:135,1,94.1999971252442
119,310,124250,6,0,P|212:301|306:303,1,188.399994250488
471,322,124500,1,0,0:0:0:0:
395,371,124583,2,0,P|389:324|393:277,1,94.1999971252442
420,15,124750,2,0,P|425:61|421:108,1,94.1999971252442
213,273,124917,2,0,P|213:154|333:192,1,282.599991375733
286,298,125250,2,0,P|284:252|259:213,1,94.1999971252442
143,123,125417,2,0,P|103:103|55:107,1,94.1999971252442
179,363,125584,6,0,L|273:352,1,94.1999971252442
372,339,125751,2,0,L|466:325,1,94.1999971252442
81,184,125917,2,0,L|175:197,1,94.1999971252442
274,210,126084,2,0,L|369:224,1,94.1999971252442
176,81,126250,2,0,P|274:0|356:97,1,282.599991375733
266,91,126584,2,0,P|259:138|268:184,1,94.1999971252442
301,269,126750,2,0,P|307:315|298:361,1,94.1999971252442
131,307,126917,6,0,L|225:314,1,94.1999971252442
435,131,127084,2,0,L|342:138,1,94.1999971252442
209,146,127250,1,0,0:0:0:0:
278,191,127334,1,0,0:0:0:0:
342,138,127417,2,0,P|354:93|345:48,1,94.1999971252442
214,244,127584,2,0,P|274:355|387:296,1,282.599991375733
361,23,127917,2,0,L|350:117,1,94.1999971252442
289,175,128083,2,0,L|300:268,1,94.1999971252442
66,97,128250,6,0,P|112:86|159:85,1,94.1999971252442
259,93,128417,2,0,P|305:100|349:116,1,94.1999971252442
459,285,128584,2,0,P|419:259|376:241,1,94.1999971252442
279,213,128751,2,0,P|232:203|185:203,1,94.1999971252442
70,384,128916,2,0,L|56:290,1,94.1999971252442
43,191,129083,2,0,L|31:97,1,94.1999971252442
172,297,129250,2,0,L|185:203,1,94.1999971252442
198,104,129417,2,0,L|210:10,1,94.1999971252442
294,243,129584,6,0,L|334:157,1,94.1999971252442
389,235,129750,2,0,L|429:149,1,94.1999971252442
279,79,129917,2,0,L|238:164,1,94.1999971252442
184,87,130083,2,0,L|143:172,1,94.1999971252442
453,58,130250,6,0,L|362:81,1,94.1999971252442
119,260,130417,2,0,L|212:243,1,94.1999971252442
89,95,130584,1,0,0:0:0:0:
25,149,130667,1,0,0:0:0:0:
40,232,130750,2,0,L|59:333,1,94.1999971252442
375,159,130917,5,0,0:0:0:0:
81,66,131584,5,0,0:0:0:0:
269,310,132250,5,0,0:0:0:0:
290,213,132417,1,0,0:0:0:0:
249,301,132584,1,0,0:0:0:0:
309,221,132751,1,0,0:0:0:0:
176,337,132917,5,0,0:0:0:0:
167,298,133000,1,0,0:0:0:0:
178,261,133083,1,0,0:0:0:0:
103,373,133250,1,0,0:0:0:0:
43,252,133417,1,0,0:0:0:0:
57,23,133584,6,0,P|124:63|116:141,1,164.849994969177
211,61,133834,1,0,0:0:0:0:
229,56,133917,2,0,P|267:46|322:58,1,82.4249974845887
452,107,134084,2,0,P|412:97|372:104,1,82.4249974845887
396,332,134250,6,0,P|428:258|409:180,1,164.849994969177
272,128,134500,1,0,0:0:0:0:
274,147,134584,2,0,L|283:248,1,82.4249974845887
196,282,134750,2,0,L|188:364,1,82.4249974845887
97,67,134917,6,0,L|112:231,1,164.849994969177
95,344,135167,1,0,0:0:0:0:
80,333,135250,2,0,P|40:322|0:329,1,82.4249974845887
196,282,135417,2,0,P|235:292|276:285,1,82.4249974845887
382,81,135584,2,0,P|315:121|324:199,1,164.849994969177
412,354,135917,2,0,B|414:299|424:247|424:247|401:278,1,141.299995687866
332,317,136250,6,0,P|254:333|195:281,1,164.849994969177
278,245,136500,1,0,0:0:0:0:
296,240,136583,2,0,P|334:230|389:242,1,82.4249974845887
205,191,136750,2,0,P|167:201|112:189,1,82.4249974845887
275,1,136917,6,0,P|307:75|287:153,1,164.849994969177
214,292,137167,1,0,0:0:0:0:
212,273,137250,2,0,L|205:191,1,82.4249974845887
147,44,137417,2,0,L|140:127,1,82.4249974845887
60,348,137584,2,0,B|71:323|71:323|66:268,1,82.4249974845887
74,189,137750,2,0,B|63:214|63:214|67:268,1,82.4249974845887
67,268,138084,6,0,B|131:244|195:268|195:268|259:292|312:270,1,251.2
447,197,138584,2,0,P|443:251|473:225,1,125.6
356,160,138917,2,0,P|337:238|376:308,1,164.849994969177
256,257,139167,1,0,0:0:0:0:
238,252,139250,2,0,P|200:242|145:254,1,82.4249974845887
2,281,139417,2,0,P|42:291|83:285,1,82.4249974845887
100,49,139584,6,0,P|67:123|87:201,1,164.849994969177
87,201,139917,2,0,L|197:215,1,82.4249974845887
239,169,140084,2,0,L|320:158,1,82.4249974845887
308,311,140250,6,0,P|340:236|320:158,1,164.849994969177
320,158,140584,2,0,L|239:169,1,82.4249974845887
87,201,140750,2,0,L|168:211,1,82.4249974845887
444,253,140917,2,0,P|424:174|456:100,1,164.849994969177
456,100,141250,2,0,P|381:130|303:108,1,164.849994969177
228,146,141584,6,0,L|223:244,1,86.350002635193
144,173,141750,2,0,L|139:271,1,86.350002635193
156,5,141917,2,0,L|151:103,1,86.350002635193
72,32,142083,2,0,L|67:130,1,86.350002635193
228,146,142250,6,0,L|233:244,1,90.275001721859
356,115,142417,2,0,L|351:16,1,90.275001721859
312,185,142584,2,0,L|317:283,1,90.275001721859
436,68,142751,6,0,L|439:128,1,39.25
439,122,142918,1,0,0:0:0:0:
158,282,143084,1,0,0:0:0:0:
439,122,143417,1,0,0:0:0:0:
256,192,143584,12,0,145250,0:0:0:0:
161,228,145417,6,0,L|158:288,1,39.25
158,282,145584,1,0,0:0:0:0:
439,122,145750,1,0,0:0:0:0:
158,282,146083,1,0,0:0:0:0:
256,192,146250,12,0,150917,0:0:0:0:
