osu file format v14

[General]
AudioFilename: Bongunakami.mp3
AudioLeadIn: 0
PreviewTime: 50647
Countdown: 1
SampleSet: Normal
StackLeniency: 0.7
Mode: 0
LetterboxInBreaks: 1
WidescreenStoryboard: 0

[Editor]
DistanceSpacing: 1.3
BeatDivisor: 4
GridSize: 4
TimelineZoom: 1.2

[Metadata]
Title:Bonguna kami (Short ver.)
TitleUnicode:凡愚なカミ (Short ver.)
Artist:Buta otome
ArtistUnicode:豚乙女
Creator:MagicNAT
Version:Normal
Source:少女煉獄 第二巻
Tags:
BeatmapID:850937
BeatmapSetID:390434

[Difficulty]
HPDrainRate:5
CircleSize:4
OverallDifficulty:5
ApproachRate:7
SliderMultiplier:1.5
SliderTickRate:2

[Events]
//Background and Video events
0,0,"automatch-am9hf.jpg",0,0
//Break Periods
//Storyboard Layer 0 (Background)
//Storyboard Layer 1 (Fail)
//Storyboard Layer 2 (Pass)
//Storyboard Layer 3 (Foreground)
//Storyboard Sound Samples

[TimingPoints]
300,483.792936623125,4,1,0,50,1,0
15781,-100,4,2,0,100,0,0
50614,-100,4,2,0,100,0,1
69482,-100,4,2,0,100,0,0

[HitObjects]
104,64,300,6,0,P|144:108|176:108,1,75,8|0,0:0|0:0,0:0:0:0:
204,112,662,1,0,0:0:0:0:
252,108,783,2,0,P|312:108|336:140,1,75,8|0,0:0|0:0,0:0:0:0:
380,192,1267,2,0,P|420:236|448:240,2,75,8|0|8,0:0|0:0|0:0,0:0:0:0:
408,100,1993,1,0,0:0:0:0:
312,100,2235,2,0,L|260:100,1,37.5,8|0,0:0|0:0,0:0:0:0:
224,100,2477,2,0,L|180:100,1,37.5
140,104,2718,1,8,0:0:0:0:
92,188,2960,2,0,L|188:188,1,75,0|8,0:0|0:0,0:0:0:0:
264,188,3444,2,0,L|244:220,2,37.5,0|0|8,0:0|0:0|0:0,0:0:0:0:
424,76,4170,5,8,0:0:0:0:
424,76,4412,2,0,P|416:128|396:152,1,75,0|8,0:0|0:0,0:0:0:0:
324,204,4896,1,0,0:0:0:0:
268,284,5137,1,8,0:0:0:0:
268,284,5258,1,0,0:0:0:0:
268,284,5379,2,0,P|324:300|348:292,1,75,0|8,0:0|0:0,0:0:0:0:
320,200,5863,1,0,0:0:0:0:
416,208,6105,2,0,L|368:268,1,75,8|0,0:0|0:0,0:0:0:0:
320,200,6589,2,0,L|248:144,1,75,8|0,0:0|0:0,0:0:0:0:
212,240,7073,2,0,L|184:268,2,37.5,8|0|0,0:0|0:0|0:0,0:0:0:0:
132,188,7556,1,8,0:0:0:0:
312,116,8040,6,0,P|352:184|368:256,1,150,8|8,0:0|0:0,0:0:0:0:
272,244,8766,1,0,0:0:0:0:
292,148,9008,2,0,P|248:144|220:164,2,75,8|0|8,0:0|0:0|0:0,0:0:0:0:
264,240,9733,1,0,0:0:0:0:
184,296,9975,2,0,L|152:324,2,37.5,8|0|0,0:0|0:0|0:0,0:0:0:0:
208,200,10459,2,0,L|176:172,2,37.5,8|0|0,0:0|0:0|0:0,0:0:0:0:
304,188,10943,2,0,L|380:120,1,75,8|0,0:0|0:0,0:0:0:0:
264,116,11427,2,0,L|344:172,1,75,8|0,0:0|0:0,0:0:0:0:
396,92,11911,6,0,P|356:68|328:68,2,75,8|0|8,0:0|0:0|0:0,0:0:0:0:
328,160,12636,1,0,0:0:0:0:
332,256,12878,2,0,L|364:276,2,37.5,8|0|0,0:0|0:0|0:0,0:0:0:0:
252,196,13362,2,0,L|176:136,1,75,8|0,0:0|0:0,0:0:0:0:
96,172,13846,2,0,L|168:240,1,75,8|0,0:0|0:0,0:0:0:0:
188,256,14209,1,0,0:0:0:0:
228,280,14329,2,0,P|264:300|316:300,1,75,8|0,0:0|0:0,0:0:0:0:
396,308,14813,2,0,P|456:292|480:272,2,75,8|0|8,0:0|0:0|0:0,0:0:0:0:
204,276,15781,5,2,0:0:0:0:
204,276,16023,2,2,L|156:200,1,75
152,124,16507,2,0,L|64:172,2,75,0|2|0,0:0|0:0|0:0,0:0:0:0:
208,204,17232,1,2,0:0:0:0:
328,52,17716,2,0,P|292:84|276:112,2,75,2|0|2,0:0|0:0|0:0,0:0:0:0:
376,136,18442,2,0,L|412:172,2,37.5,0|0|2,0:0|0:0|0:0,0:0:0:0:
192,80,19167,6,0,P|156:112|140:152,2,75,2|0|2,0:0|0:0|0:0,0:0:0:0:
280,124,19893,2,0,P|336:160|368:252,1,150
272,212,20619,2,0,P|220:256|144:284,1,150,2|2,0:0|0:0,0:0:0:0:
168,188,21344,2,0,L|140:160,2,37.5,0|0|2,0:0|0:0|0:0,0:0:0:0:
352,116,22070,2,0,P|412:156|424:180,2,75,2|0|2,0:0|0:0|0:0,0:0:0:0:
352,116,23522,6,0,L|272:96,1,75,2|0,0:0|0:0,0:0:0:0:
224,180,24005,1,2,0:0:0:0:
128,176,24247,2,0,P|140:232|156:248,2,75,0|2|0,0:0|0:0|0:0,0:0:0:0:
196,104,24973,1,2,0:0:0:0:
252,184,25215,2,0,L|212:120,1,75,0|2,0:0|0:0,0:0:0:0:
304,84,25699,2,0,L|328:112,1,37.5
360,148,25941,2,0,L|388:180,1,37.5,2|0,0:0|0:0,0:0:0:0:
416,212,26182,2,0,L|464:276,1,75,0|2,0:0|0:0,0:0:0:0:
332,128,26908,6,0,P|380:88|412:88,2,75,2|0|2,0:0|0:0|0:0,0:0:0:0:
256,188,27634,1,0,0:0:0:0:
180,248,27876,2,0,P|136:284|96:296,2,75,2|0|2,0:0|0:0|0:0,0:0:0:0:
156,152,28601,2,0,P|216:136|308:164,1,150
392,184,29327,1,2,0:0:0:0:
328,260,29569,1,0,0:0:0:0:
232,248,29811,2,0,L|184:244,2,37.5,2|0|0,0:0|0:0|0:0,0:0:0:0:
328,228,30295,2,0,L|376:168,1,75,2|0,0:0|0:0,0:0:0:0:
276,168,30778,1,2,0:0:0:0:
440,64,31262,6,2,P|368:56|288:80,1,150
116,156,32230,2,0,P|144:200|172:216,1,75,2|0,0:0|0:0,0:0:0:0:
220,140,32714,2,0,P|256:168|268:200,1,75,2|0,0:0|0:0,0:0:0:0:
224,284,33197,2,0,P|260:308|308:316,2,75,2|0|2,0:0|0:0|0:0,0:0:0:0:
152,220,33923,2,0,L|108:152,1,75,0|2,0:0|0:0,0:0:0:0:
180,88,34407,2,0,L|264:60,1,75,0|2,0:0|0:0,0:0:0:0:
332,124,34891,2,0,P|356:160|368:204,2,75,0|2|0,0:0|0:0|0:0,0:0:0:0:
252,176,35616,2,2,P|200:208|152:296,1,150
124,188,36342,2,0,P|96:232|84:272,2,75,0|2|0,0:0|0:0|0:0,0:0:0:0:
192,260,37068,2,2,P|256:296|348:304,1,150
300,112,38035,1,2,0:0:0:0:
400,80,39003,5,2,0:0:0:0:
400,80,39245,2,0,L|336:140,1,75,0|2,0:0|0:0,0:0:0:0:
292,48,39729,1,0,0:0:0:0:
216,112,39971,1,2,0:0:0:0:
216,112,40212,2,0,L|156:168,1,75,0|2,0:0|0:0,0:0:0:0:
316,284,40938,1,2,0:0:0:0:
248,216,41180,1,0,0:0:0:0:
248,216,41422,2,0,L|176:272,2,75,2|0|2,0:0|0:0|0:0,0:0:0:0:
324,156,42148,2,0,L|404:92,1,75,0|2,0:0|0:0,0:0:0:0:
192,76,42873,6,0,L|116:136,1,75,2|0,0:0|0:0,0:0:0:0:
224,156,43357,2,0,L|156:216,1,75,2|0,0:0|0:0,0:0:0:0:
252,260,43841,2,0,L|312:208,1,75,2|0,0:0|0:0,0:0:0:0:
216,176,44325,2,0,L|292:108,1,75,2|0,0:0|0:0,0:0:0:0:
364,80,45534,1,0,0:0:0:0:
364,80,45776,2,0,L|304:136,1,75,2|0,0:0|0:0,0:0:0:0:
404,160,46260,2,2,P|384:212|304:272,1,150
116,288,47227,2,2,P|172:228|256:200,1,150
408,112,48195,2,0,P|428:80|440:40,2,75,2|0|2,0:0|0:0|0:0,0:0:0:0:
220,64,49163,5,2,0:0:0:0:
220,64,49404,2,0,L|160:120,2,75,0|2|0,0:0|0:0|0:0,0:0:0:0:
408,288,50614,6,0,L|348:220,1,75,8|0,0:0|0:0,0:0:0:0:
324,196,50977,1,0,0:0:0:0:
292,160,51098,1,8,0:0:0:0:
244,244,51340,1,0,0:0:0:0:
172,312,51582,2,0,L|120:240,1,75,8|0,0:0|0:0,0:0:0:0:
172,228,51944,1,0,0:0:0:0:
216,204,52065,1,8,0:0:0:0:
160,112,52307,1,0,0:0:0:0:
256,92,52549,2,0,L|340:64,1,75,8|0,0:0|0:0,0:0:0:0:
388,144,53033,2,0,L|476:108,2,75,8|0|8,0:0|0:0|0:0,0:0:0:0:
296,180,53759,2,0,L|248:204,2,37.5,0|0|8,0:0|0:0|0:0,0:0:0:0:
128,80,54484,6,0,L|104:48,2,37.5,8|0|0,0:0|0:0|0:0,0:0:0:0:
180,164,54968,1,8,0:0:0:0:
372,140,55452,2,8,P|328:120|220:140,1,150
408,216,56419,2,0,L|392:252|392:252,1,37.5,8|0,0:0|0:0,0:0:0:0:
364,288,56661,2,0,L|328:324,1,37.5
292,336,56903,1,8,0:0:0:0:
140,216,57387,2,0,L|100:188,4,37.5,8|0|0|0|8,0:0|0:0|0:0|0:0|0:0,0:0:0:0:
300,104,58355,6,0,P|264:140|252:176,2,75,8|0|8,0:0|0:0|0:0,0:0:0:0:
372,172,59080,1,0,0:0:0:0:
316,252,59322,2,0,P|280:264|232:268,1,75,8|0,0:0|0:0,0:0:0:0:
200,240,59685,1,0,0:0:0:0:
160,216,59806,2,0,L|120:180,2,37.5,8|0|0,0:0|0:0|0:0,0:0:0:0:
244,168,60290,2,0,L|304:112,1,75,8|0,0:0|0:0,0:0:0:0:
380,172,60774,2,0,L|404:208,2,37.5,8|0|0,0:0|0:0|0:0,0:0:0:0:
336,84,61257,2,0,P|280:64|248:68,1,75,8|0,0:0|0:0,0:0:0:0:
284,160,61741,1,8,0:0:0:0:
116,64,62225,2,8,P|132:112|204:180,1,150
268,108,62951,2,0,L|300:88,2,37.5,0|0|8,0:0|0:0|0:0,0:0:0:0:
408,244,64160,6,0,L|336:176,1,75,8|0,0:0|0:0,0:0:0:0:
320,228,64523,1,0,0:0:0:0:
284,260,64644,2,0,L|216:316,1,75,8|0,0:0|0:0,0:0:0:0:
156,240,65128,2,0,L|100:176,1,75,8|0,0:0|0:0,0:0:0:0:
192,136,65612,1,8,0:0:0:0:
316,284,66095,2,0,L|352:324,4,37.5,8|0|0|0|8,0:0|0:0|0:0|0:0|0:0,0:0:0:0:
196,128,67063,2,0,L|164:88,4,37.5,8|0|0|0|8,0:0|0:0|0:0|0:0|0:0,0:0:0:0:
388,100,68031,2,0,L|348:132,3,37.5,8|0|0|0,0:0|0:0|0:0|0:0,0:0:0:0:
320,156,68514,2,0,L|288:184,3,37.5,8|0|0|0,0:0|0:0|0:0|0:0,0:0:0:0:
256,212,68998,2,0,L|224:240,4,37.5,8|0|0|0|8,0:0|0:0|0:0|0:0|0:0,0:0:0:0:
416,100,69966,6,0,P|360:136|344:140,1,75,8|0,0:0|0:0,0:0:0:0:
304,152,70329,1,0,0:0:0:0:
256,156,70449,2,0,P|200:164|168:188,1,75,8|0,0:0|0:0,0:0:0:0:
248,248,70933,2,0,P|212:268|164:276,2,75,8|0|8,0:0|0:0|0:0,0:0:0:0:
324,188,71659,1,0,0:0:0:0:
420,172,71901,2,0,L|384:144,1,37.5,8|0,0:0|0:0,0:0:0:0:
352,116,72143,2,0,L|320:92,1,37.5
284,60,72385,1,8,0:0:0:0:
268,156,72627,2,0,L|196:88,1,75,0|8,0:0|0:0,0:0:0:0:
140,172,73110,2,0,L|120:204,2,37.5,0|0|8,0:0|0:0|0:0,0:0:0:0:
308,52,73836,5,8,0:0:0:0:
308,52,74078,2,0,P|304:104|292:124,1,75,0|8,0:0|0:0,0:0:0:0:
200,88,74562,1,0,0:0:0:0:
192,184,74804,1,8,0:0:0:0:
192,184,74925,1,0,0:0:0:0:
192,184,75046,2,0,P|248:200|272:192,1,75,0|8,0:0|0:0,0:0:0:0:
344,140,75529,1,0,0:0:0:0:
424,196,75771,2,0,L|376:256,1,75,8|0,0:0|0:0,0:0:0:0:
320,176,76255,2,0,L|256:112,1,75,8|0,0:0|0:0,0:0:0:0:
188,180,76739,2,0,L|152:204,2,37.5,8|0|0,0:0|0:0|0:0,0:0:0:0:
252,252,77223,1,8,0:0:0:0:
392,116,77706,6,0,P|440:160|448:176,1,75,8|0,0:0|0:0,0:0:0:0:
456,264,78190,1,8,0:0:0:0:
368,224,78432,1,0,0:0:0:0:
280,184,78674,2,0,P|236:180|208:200,2,75,8|0|8,0:0|0:0|0:0,0:0:0:0:
264,280,79400,1,0,0:0:0:0:
168,276,79642,2,0,L|136:304,2,37.5,8|0|0,0:0|0:0|0:0,0:0:0:0:
104,200,80125,2,0,L|72:172,2,37.5,8|0|0,0:0|0:0|0:0,0:0:0:0:
192,240,80609,2,0,L|256:168,1,75,8|0,0:0|0:0,0:0:0:0:
320,124,81093,2,0,L|400:180,1,75,8|0,0:0|0:0,0:0:0:0:
424,80,81577,6,0,P|384:56|356:56,2,75,8|0|8,0:0|0:0|0:0,0:0:0:0:
360,152,82302,1,0,0:0:0:0:
324,244,82544,2,0,L|356:264,2,37.5,8|0|0,0:0|0:0|0:0,0:0:0:0:
240,188,83028,2,0,L|164:128,1,75,8|0,0:0|0:0,0:0:0:0:
84,124,83512,2,0,L|156:192,1,75,8|0,0:0|0:0,0:0:0:0:
172,212,83875,1,0,0:0:0:0:
208,244,83996,2,0,L|264:304,1,75,8|0,0:0|0:0,0:0:0:0:
352,268,84479,2,0,P|388:240|408:212,2,75,8|0|12,0:0|0:0|0:0,0:0:0:0:
