osu file format v14

[General]
AudioFilename: audio.mp3
AudioLeadIn: 0
PreviewTime: -1
Countdown: 1
SampleSet: None
StackLeniency: 0.3
Mode: 0
LetterboxInBreaks: 0
WidescreenStoryboard: 1

[Editor]
DistanceSpacing: 1.8
BeatDivisor: 4
GridSize: 32
TimelineZoom: 1

[Metadata]
Title:Now Side By Side (Buta Otome ver.)
TitleUnicode:今並べ(大富豪ver.)
Artist:Buta Otome
ArtistUnicode:豚乙女
Creator:ANuko
Version:Insane
Source:
Tags:
BeatmapID:1756930
BeatmapSetID:839259

[Difficulty]
HPDrainRate:6
CircleSize:4
OverallDifficulty:8
ApproachRate:9
SliderMultiplier:2.8
SliderTickRate:1

[Events]
//Background and Video events
0,0,"__komeiji_satori_touhou_drawn_by_sei_no_ji__dae165ef6d4d6eec134086e79cbcc092.jpg",0,0
//Break Periods
//Storyboard Layer 0 (Background)
//Storyboard Layer 1 (Fail)
//Storyboard Layer 2 (Pass)
//Storyboard Layer 3 (Foreground)
//Storyboard Sound Samples

[TimingPoints]
343,352.941176470588,4,2,0,60,1,0
343,-200,4,2,0,60,0,0
11637,-100,4,2,0,60,0,0
17284,-50,4,2,0,60,0,0
20107,-66.6666666666667,4,2,0,60,0,0
22931,-100,4,2,0,60,0,0
26107,-66.6666666666667,4,2,0,60,0,0
26460,-100,4,2,0,60,0,0
26813,-66.6666666666667,4,2,0,60,0,0
27166,-100,4,2,0,60,0,0
27519,-66.6666666666667,4,2,0,60,0,0
27872,-100,4,2,0,60,0,0
28225,-66.6666666666667,4,2,0,60,0,0
28578,-100,4,2,0,60,0,0
28931,-66.6666666666667,4,2,0,60,0,0
29284,-57.1428571428571,4,2,0,60,0,0
29637,-79.9999999999999,4,2,0,60,0,0
29990,-100,4,2,0,60,0,0
30342,-66.6666666666667,4,2,0,60,0,0
30695,-100,4,2,0,60,0,0
31048,-66.6666666666667,4,2,0,60,0,0
31401,-100,4,2,0,60,0,0
31754,-66.6666666666667,4,2,0,60,0,0
32107,-100,4,2,0,60,0,0
32460,-66.6666666666667,4,2,0,60,0,0
32813,-100,4,2,0,60,0,0
33166,-66.6666666666667,4,2,0,60,0,0
33519,-100,4,2,0,60,0,0
34225,-133.333333333333,4,2,0,60,0,0
45519,-66.6666666666667,4,2,0,60,0,0
50813,-40,4,2,0,60,0,0
51166,-66.6666666666667,4,2,0,60,0,0
56107,-50,4,2,0,60,0,0
58931,-40,4,2,0,60,0,0
59284,-50,4,2,0,60,0,0
66695,-33.3333333333333,4,2,0,60,0,0
68107,-66.6666666666667,4,2,0,60,0,0

[HitObjects]
64,288,343,6,0,L|211:327,7,140
320,288,3166,2,0,L|474:246,7,140
64,192,5990,6,0,L|211:231,7,140
320,192,8813,2,0,L|474:150,7,140
64,96,11637,6,0,L|211:135,1,140
96,128,11901,2,0,L|224:256,1,140
96,160,12166,2,0,L|128:256,1,70
448,96,12342,2,0,L|312:132,1,140
416,128,12606,2,0,L|317:226,1,140
416,160,12871,2,0,L|393:226,1,70
192,320,13048,2,0,B|256:288|256:288|192:224,1,140
320,320,13313,2,0,B|256:288|256:288|320:224,1,140
256,96,13578,2,0,L|256:192,1,70
256,0,13754,2,0,L|256:180,1,140
160,32,14107,2,0,L|128:128,1,70
352,32,14284,2,0,L|384:128,1,70
76,180,14460,6,0,P|99:257|156:333,1,140
180,207,14725,2,0,P|139:279|132:367,1,140
192,314,14990,2,0,P|168:339|141:362,1,70
155,120,15166,2,0,L|143:306,1,140
330,151,15431,2,0,L|333:307,1,140
266,179,15695,2,0,L|259:282,1,70
248,58,15872,2,0,L|241:203,1,140
290,82,16137,2,0,L|286:249,1,140
374,110,16401,2,0,L|359:215,1,70
306,42,16578,2,0,L|286:195,1,140
207,48,16931,2,0,L|218:120,1,70
165,62,17107,2,0,L|183:157,1,70
77,237,17284,6,0,L|284:241,2,140
316,321,17548,2,0,L|486:242,2,140
376,203,17813,2,0,L|218:152,1,140
231,65,17990,2,0,L|375:61,2,140
174,97,18254,2,0,L|360:111,2,140
107,95,18519,2,0,L|127:259,1,140
325,62,18695,2,0,L|332:243,2,140
238,36,18960,2,0,L|266:197,2,140
179,84,19225,2,0,L|190:258,1,140
136,66,19401,2,0,L|158:228,3,140
296,22,19754,2,0,L|271:194,1,140
366,77,19931,2,0,L|356:237,1,140
213,80,20107,6,0,L|184:320,1,210.000008010865
285,73,20372,2,0,L|297:327,1,210.000008010865
260,117,20637,2,0,L|251:257,1,105.000004005432
360,124,20813,2,0,L|348:352,1,210.000008010865
277,141,21078,2,0,L|228:364,1,210.000008010865
190,213,21342,2,0,L|175:352,1,105.000004005432
266,80,21519,2,0,L|235:313,1,210.000008010865
327,114,21784,2,0,L|328:338,1,210.000008010865
325,90,22048,2,0,L|323:234,1,105.000004005432
374,90,22225,2,0,L|390:315,1,210.000008010865
282,108,22578,2,0,L|218:333,1,210.000008010865
213,27,22931,6,0,L|194:232,1,140
143,94,23284,2,0,L|147:278,1,140
318,100,23637,2,0,L|264:295,1,140
359,102,23990,2,0,L|288:297,1,140
218,112,24342,2,0,L|204:298,1,140
266,75,24695,2,0,L|251:182,3,70
205,74,25048,2,0,L|155:263,1,140
236,93,25401,2,0,L|216:192,3,70
188,62,25754,6,0,L|164:240,1,140
308,64,26107,2,0,L|292:200,3,105.000004005432
301,87,26460,2,0,L|280:261,1,140
174,87,26813,2,0,L|169:227,3,105.000004005432
188,62,27166,2,0,L|164:240,1,140
308,64,27519,2,0,L|292:200,3,105.000004005432
301,87,27872,2,0,L|280:261,1,140
174,87,28225,2,0,L|169:227,3,105.000004005432
188,62,28578,6,0,L|164:240,1,140
308,64,28931,2,0,L|292:200,3,105.000004005432
201,134,29284,2,0,L|427:223,3,122.500001168251
174,87,29637,2,0,L|167:193,3,87.5
188,62,29990,2,0,L|164:240,1,140
308,64,30343,2,0,L|292:200,3,105.000004005432
301,87,30696,2,0,L|280:261,1,140
174,87,31049,2,0,L|169:227,3,105.000004005432
188,62,31401,6,0,L|164:240,1,140
308,64,31754,2,0,L|292:200,3,105.000004005432
301,87,32107,2,0,L|280:261,1,140
174,87,32460,2,0,L|169:227,3,105.000004005432
188,62,32813,2,0,L|164:240,1,140
308,64,33166,2,0,L|292:200,3,105.000004005432
301,87,33519,2,0,L|280:261,1,140
194,49,33872,2,0,L|204:231,1,140
220,80,34225,6,0,L|224:169,1,52.5000020027161
327,77,34401,2,0,L|326:207,1,105.000004005432
207,37,34754,2,0,L|171:251,1,210.000008010865
236,182,35637,2,0,L|241:270,1,52.5000020027161
302,84,35813,2,0,L|292:214,1,105.000004005432
329,88,36166,2,0,L|296:334,1,210.000008010865
317,104,37048,6,0,L|309:192,1,52.5000020027161
366,149,37225,2,0,L|365:272,1,105.000004005432
418,167,37578,2,0,L|395:379,1,210.000008010865
249,78,38460,2,0,L|241:140,1,52.5000020027161
316,74,38637,2,0,L|316:190,1,105.000004005432
371,65,38990,2,0,L|346:295,1,210.000008010865
317,104,39872,6,0,L|309:192,1,52.5000020027161
366,149,40049,2,0,L|365:272,1,105.000004005432
418,167,40402,2,0,L|395:379,1,210.000008010865
249,78,41284,2,0,L|241:140,1,52.5000020027161
316,74,41461,2,0,L|316:190,1,105.000004005432
371,65,41814,2,0,L|346:295,1,210.000008010865
317,104,42695,6,0,L|309:192,1,52.5000020027161
366,149,42872,2,0,L|365:272,1,105.000004005432
418,167,43225,2,0,L|395:379,1,210.000008010865
249,78,44107,2,0,L|241:140,1,52.5000020027161
316,74,44284,2,0,L|316:190,1,105.000004005432
371,65,44637,2,0,L|346:295,1,210.000008010865
99,65,45519,6,0,L|-11:102,7,105.000004005432
182,195,46225,2,0,L|250:115,3,105.000004005432
244,291,46578,2,0,L|129:331,3,105.000004005432
344,363,46931,2,0,L|482:390,7,105.000004005432
354,248,47637,2,0,L|260:201,3,105.000004005432
454,166,47990,2,0,L|462:62,1,105.000004005432
361,101,48166,2,0,L|325:2,1,105.000004005432
248,77,48342,6,0,L|148:42,3,105.000004005432
14,158,48695,2,0,L|122:142,1,105.000004005432
238,323,48872,2,0,L|96:339,1,105.000004005432
233,182,49048,2,0,L|360:146,3,105.000004005432
481,261,49401,2,0,L|379:288,3,105.000004005432
196,252,49754,2,0,L|34:221,11,105.000004005432
48,59,50813,2,0,L|223:54,1,175
473,232,50990,2,0,L|298:217,1,175
432,1,51166,6,0,L|456:162,3,105.000004005432
298,217,51519,2,0,L|306:112,1,105.000004005432
411,229,51695,2,0,L|436:392,5,105.000004005432
256,279,52225,2,0,L|274:382,3,105.000004005432
73,275,52578,2,0,L|52:162,3,105.000004005432
160,15,52931,2,0,L|156:120,1,105.000004005432
286,188,53107,2,0,L|292:83,9,105.000004005432
217,61,53990,6,0,L|201:191,3,105.000004005432
299,69,54342,2,0,L|285:189,1,105.000004005432
219,22,54519,2,0,L|216:154,5,105.000004005432
318,72,55048,2,0,L|319:191,3,105.000004005432
297,40,55401,2,0,L|291:210,7,105.000004005432
200,112,56107,2,0,L|211:288,7,140
326,145,56813,6,0,L|329:302,7,140
400,108,57519,2,0,L|372:271,7,140
282,58,58225,2,0,L|196:309,7,140
274,56,58931,2,0,L|237:265,3,175
199,36,59284,2,0,L|124:213,1,140
276,80,59460,2,0,L|230:258,1,140
221,54,59637,6,0,L|192:241,3,140
301,85,59990,2,0,L|256:235,1,140
334,122,60166,2,0,L|289:272,1,140
237,68,60342,2,0,L|183:247,3,140
237,68,60695,2,0,L|183:247,3,140
331,8,61048,2,0,L|261:222,7,140
377,40,61754,2,0,L|340:185,1,140
294,115,61931,2,0,L|255:311,1,140
197,211,62107,2,0,L|186:69,1,140
89,184,62284,2,0,L|45:18,1,140
237,68,62460,6,0,L|183:247,3,140
272,26,62813,2,0,L|255:259,1,140
315,44,62990,2,0,L|285:222,5,140
214,46,63519,2,0,L|199:214,3,140
374,90,63872,2,0,L|363:247,1,140
289,127,64048,2,0,L|273:293,1,140
221,127,64225,2,0,L|213:302,1,140
160,145,64401,2,0,L|160:324,1,140
127,105,64578,2,0,L|131:283,7,140
237,68,65284,6,0,L|183:247,3,140
253,73,65637,2,0,L|227:252,1,140
237,68,65813,2,0,L|183:247,5,140
311,47,66342,2,0,L|274:200,3,140
66,256,66695,6,0,L|348:246,7,210.000008010865
366,77,67401,2,0,L|68:89,3,210.000008010865
93,60,67754,2,0,L|347:45,1,210.000008010865
360,169,67931,2,0,L|129:177,1,210.000008010865
84,236,68107,6,0,L|325:246,1,210.000008010865
