osu file format v14

[General]
AudioFilename: audio.mp3
AudioLeadIn: 0
PreviewTime: 3249
Countdown: 0
SampleSet: Soft
StackLeniency: 0.4
Mode: 0
LetterboxInBreaks: 0
WidescreenStoryboard: 0

[Editor]
Bookmarks: 18684,21721,36902,39938,55119,58155,73336,76372,154980
DistanceSpacing: 1.5
BeatDivisor: 4
GridSize: 8
TimelineZoom: 1.6

[Metadata]
Title:Imaginary Places
TitleUnicode:Imaginary Places
Artist:Busdriver
ArtistUnicode:Busdriver
Creator:Moreon
Version:sbs's just nocliped
Source:
Tags:phoon NeBu Busdriver Rdzeniu Streams Hatiso Moreon Rap sbsonic Andemu Asrasz LukerMaster Chalwa CptSqBany DominiGG AnySense squirrelpascals Fieryrage tem Squishi Soiplox Script
BeatmapID:1343703
BeatmapSetID:632870

[Difficulty]
HPDrainRate:6
CircleSize:3.6
OverallDifficulty:8.2
ApproachRate:9.6
SliderMultiplier:2.1
SliderTickRate:1

[Events]
//Background and Video events
0,0,"BG.jpg",0,0
//Break Periods
//Storyboard Layer 0 (Background)
//Storyboard Layer 1 (Fail)
//Storyboard Layer 2 (Pass)
//Storyboard Layer 3 (Foreground)
//Storyboard Sound Samples

[TimingPoints]
497.668789808917,379.525605095541,4,2,0,65,1,0
8087,-66.6666666666667,4,2,0,65,0,0
9226,-133.333333333333,4,2,0,65,0,0
9606,-66.6666666666667,4,2,0,65,0,0
13781,-100,4,2,0,65,0,0
15299,-66.6666666666667,4,2,0,65,0,0
22035,-100,4,2,0,65,0,0
24787,-66.6666666666667,4,2,0,65,0,0
27823,-100,4,2,0,65,0,0
33895,-66.6666666666667,4,2,0,65,0,0
42625,-100,4,2,0,65,0,0
43194,-66.6666666666667,4,2,0,65,0,0
44143,-100,4,2,0,65,0,0
45661,-66.6666666666667,4,2,0,65,0,0
47179,-100,4,2,0,65,0,0
50215,-66.6666666666667,4,2,0,65,0,0
51733,-50,4,2,0,65,0,0
52113,-66.6666666666667,4,2,0,65,0,0
58565,-100,4,2,0,65,0,0
62739,-66.6666666666667,4,2,0,65,0,0
63878,-100,4,2,0,65,0,0
64257,-66.6666666666667,4,2,0,65,0,0
76794,411.444676258992,4,2,0,65,1,0
80085,-100,4,2,0,20,0,0
80497,-200,4,2,0,20,0,0
116909,-100,4,2,0,20,0,0
122276,369.230769230769,4,2,0,65,1,1
122276,-66.6666666666667,4,2,0,65,0,1
145899,379.625605095541,4,2,0,65,1,0
145899,-100,4,2,0,10,0,0
146468,-100,4,2,0,20,0,0
147227,-100,4,2,0,35,0,0
147986,-100,4,2,0,50,0,0
148746,-100,4,2,0,65,0,0
153491,-66.6666666666667,4,2,0,65,0,0
154630,-100,4,2,0,65,0,0
155199,-66.6666666666667,4,2,0,65,0,0
161107,369.125605095541,4,2,0,20,1,0
187459,426.625605095542,4,2,0,20,1,0

[Colours]
Combo1 : 255,192,0
Combo2 : 0,174,174
Combo3 : 41,101,31
Combo4 : 242,24,57

[HitObjects]
35,162,497,5,0,0:0:0:0:
246,60,687,2,0,P|236:96|220:127,1,52.5
168,187,877,1,0,0:0:0:0:
290,289,1066,1,0,0:0:0:0:
339,300,1160,1,0,0:0:0:0:
381,271,1255,1,0,0:0:0:0:
326,198,1446,6,0,P|336:162|352:131,1,52.5
404,71,1636,1,0,0:0:0:0:
205,96,1826,1,0,0:0:0:0:
155,84,1920,1,0,0:0:0:0:
113,113,2015,1,0,0:0:0:0:
173,262,2205,2,0,L|157:339,2,52.5
290,95,2585,5,0,0:0:0:0:
339,83,2679,1,0,0:0:0:0:
381,112,2774,1,0,0:0:0:0:
326,186,2965,2,0,P|336:222|352:253,1,52.5
404,313,3155,1,0,0:0:0:0:
140,269,3344,6,0,P|115:150|119:127,2,105
267,224,3818,1,0,0:0:0:0:
293,200,3913,2,0,P|292:162|253:94,1,105
167,112,4198,1,0,0:0:0:0:
71,121,4292,2,0,P|92:54|132:28,1,105
220,35,4577,1,0,0:0:0:0:
223,65,4672,2,0,P|288:86|326:73,1,105
359,52,4957,5,0,0:0:0:0:
374,64,5051,1,0,0:0:0:0:
351,110,5145,5,0,0:0:0:0:
357,162,5240,1,0,0:0:0:0:
388,203,5335,1,0,0:0:0:0:
436,222,5430,1,0,0:0:0:0:
400,184,5525,5,0,0:0:0:0:
345,167,5620,1,0,0:0:0:0:
292,184,5715,1,0,0:0:0:0:
256,229,5810,1,0,0:0:0:0:
221,274,5905,5,0,0:0:0:0:
168,291,6000,1,0,0:0:0:0:
113,276,6095,1,0,0:0:0:0:
77,232,6190,2,0,P|84:152|102:121,1,105
131,80,6570,6,0,P|142:140|119:189,1,105
26,226,6854,1,0,0:0:0:0:
31,280,6949,2,0,P|125:286|147:270,1,105
206,231,7234,1,0,0:0:0:0:
240,156,7329,2,0,P|291:228|279:279,1,105
244,330,7613,1,0,0:0:0:0:
328,371,7708,2,0,P|386:370|439:322,1,105
473,282,7993,5,0,0:0:0:0:
495,205,8088,2,0,P|456:236|426:241,1,78.7500030040742
304,160,8278,2,0,P|342:128|373:124,1,78.7500030040742
500,294,8468,2,0,P|455:316|424:313,1,78.7500030040742
296,70,8658,2,0,P|340:47|371:50,1,78.7500030040742
444,136,8847,5,0,0:0:0:0:
412,182,8941,1,0,0:0:0:0:
365,214,9036,1,0,0:0:0:0:
310,227,9131,1,0,0:0:0:0:
253,231,9226,2,0,P|216:218|186:189,1,78.7500030040742
85,119,9606,6,0,P|134:78|166:74,1,78.7500030040742
374,73,9796,1,0,0:0:0:0:
374,92,9890,1,0,0:0:0:0:
373,114,9985,2,0,P|320:128|274:120,1,78.7500030040742
66,206,10175,1,0,0:0:0:0:
74,223,10269,1,0,0:0:0:0:
85,242,10365,2,0,P|138:231|176:203,1,78.7500030040742
399,299,10555,5,0,0:0:0:0:
387,314,10649,1,0,0:0:0:0:
374,331,10744,2,0,B|314:319|303:273|303:273|336:243|337:205,1,157.500006008148
275,176,11029,1,0,0:0:0:0:
275,176,11124,5,0,0:0:0:0:
283,148,11218,1,0,0:0:0:0:
300,125,11313,1,0,0:0:0:0:
324,110,11408,1,0,0:0:0:0:
386,44,11503,5,0,0:0:0:0:
350,26,11597,1,0,0:0:0:0:
314,23,11692,1,0,0:0:0:0:
279,32,11787,1,0,0:0:0:0:
273,128,11883,5,0,0:0:0:0:
227,150,11977,1,0,0:0:0:0:
181,154,12072,1,0,0:0:0:0:
136,143,12167,1,0,0:0:0:0:
108,36,12262,2,0,P|33:152|59:226,1,157.500006008148
75,331,12642,5,0,0:0:0:0:
315,278,12832,2,0,P|235:296|192:285,1,78.7500030040742
158,282,13022,1,0,0:0:0:0:
181,200,13211,2,0,P|261:218|304:207,1,78.7500030040742
341,210,13401,1,0,0:0:0:0:
317,123,13591,2,0,P|237:141|194:130,1,78.7500030040742
85,134,13781,2,0,B|106:118|108:77|108:77|134:64|176:77,1,105
185,82,14065,1,0,0:0:0:0:
224,58,14160,5,0,0:0:0:0:
265,89,14254,1,0,0:0:0:0:
316,97,14349,1,0,0:0:0:0:
365,79,14444,1,0,0:0:0:0:
344,130,14540,5,0,0:0:0:0:
347,181,14634,1,0,0:0:0:0:
378,223,14729,1,0,0:0:0:0:
426,242,14824,1,0,0:0:0:0:
475,257,14918,5,0,0:0:0:0:
499,302,15013,1,0,0:0:0:0:
483,350,15108,1,0,0:0:0:0:
437,372,15203,1,0,0:0:0:0:
389,354,15299,6,0,P|303:374|257:334,1,78.7500030040742
198,242,15488,2,0,P|284:222|330:262,1,78.7500030040742
381,257,15678,1,0,0:0:0:0:
417,41,15868,1,0,0:0:0:0:
451,384,16058,1,0,0:0:0:0:
480,163,16247,1,0,0:0:0:0:
238,41,16437,5,0,0:0:0:0:
227,308,16627,1,0,0:0:0:0:
385,174,16817,1,0,0:0:0:0:
103,190,17007,1,0,0:0:0:0:
420,291,17196,5,0,0:0:0:0:
278,25,17386,1,0,0:0:0:0:
139,290,17576,1,0,0:0:0:0:
446,134,17766,1,0,0:0:0:0:
114,51,17955,5,0,0:0:0:0:
280,336,18145,1,0,0:0:0:0:
255,43,18335,1,0,0:0:0:0:
148,238,18525,1,0,0:0:0:0:
220,84,18714,5,0,0:0:0:0:
275,76,18808,1,0,0:0:0:0:
320,109,18903,1,0,0:0:0:0:
330,163,18998,1,0,0:0:0:0:
321,218,19094,5,0,0:0:0:0:
341,271,19189,1,0,0:0:0:0:
386,305,19284,1,0,0:0:0:0:
440,318,19379,1,0,0:0:0:0:
468,216,19473,5,0,0:0:0:0:
438,172,19568,1,0,0:0:0:0:
388,146,19663,1,0,0:0:0:0:
332,146,19758,1,0,0:0:0:0:
282,172,19853,5,0,0:0:0:0:
293,226,19948,1,0,0:0:0:0:
261,270,20043,1,0,0:0:0:0:
206,277,20138,1,0,0:0:0:0:
151,278,20233,5,0,0:0:0:0:
146,224,20327,1,0,0:0:0:0:
114,179,20422,1,0,0:0:0:0:
70,148,20517,1,0,0:0:0:0:
45,242,20612,5,0,0:0:0:0:
97,269,20707,1,0,0:0:0:0:
150,286,20802,1,0,0:0:0:0:
206,277,20897,1,0,0:0:0:0:
287,340,20992,5,0,0:0:0:0:
332,305,21086,1,0,0:0:0:0:
356,254,21181,1,0,0:0:0:0:
358,199,21276,1,0,0:0:0:0:
319,136,21371,5,0,0:0:0:0:
250,168,21466,1,0,0:0:0:0:
252,243,21561,1,0,0:0:0:0:
184,289,21655,1,0,0:0:0:0:
106,262,21751,6,0,P|135:185|110:108,1,157.500006008148
51,55,22035,1,0,0:0:0:0:
26,135,22130,2,0,P|89:194|121:191,1,105
210,140,22415,1,0,0:0:0:0:
275,63,22510,2,0,P|311:136|296:179,1,105
255,230,22794,1,0,0:0:0:0:
186,300,22889,2,0,B|221:354|304:319,1,105
363,263,23174,1,0,0:0:0:0:
397,174,23269,6,0,P|334:169|309:156,1,52.5
214,105,23458,1,0,0:0:0:0:
260,79,23553,1,0,0:0:0:0:
314,68,23648,2,0,P|342:59|369:41,1,52.5
406,26,23838,1,0,0:0:0:0:
452,48,23932,1,0,0:0:0:0:
486,88,24027,5,0,0:0:0:0:
499,139,24122,1,0,0:0:0:0:
490,190,24217,1,0,0:0:0:0:
461,233,24312,1,0,0:0:0:0:
422,255,24407,2,0,B|387:264|366:254|366:254|346:275|342:300,1,105
250,328,24787,6,0,L|248:171,1,157.500006008148
171,190,25071,1,0,0:0:0:0:
96,216,25166,2,0,P|116:133|179:114,1,157.500006008148
254,92,25451,1,0,0:0:0:0:
265,18,25546,2,0,P|327:66|318:138,1,157.500006008148
244,167,25831,1,0,0:0:0:0:
167,188,25925,2,0,P|232:249|322:191,1,157.500006008148
322,212,26210,1,0,0:0:0:0:
361,226,26305,5,0,0:0:0:0:
394,260,26399,1,0,0:0:0:0:
400,307,26494,1,0,0:0:0:0:
377,349,26589,1,0,0:0:0:0:
307,335,26684,1,0,0:0:0:0:
243,360,26779,1,0,0:0:0:0:
182,330,26874,1,0,0:0:0:0:
121,364,26969,1,0,0:0:0:0:
57,330,27064,6,0,P|101:241|127:221,1,78.7500030040742
304,245,27254,2,0,P|284:297|247:322,1,78.7500030040742
125,130,27443,2,0,P|190:72|259:96,1,157.500006008148
201,147,27823,6,0,P|224:242|245:271,1,105
329,119,28203,2,0,P|306:24|285:-5,1,105
149,21,28487,1,0,0:0:0:0:
77,53,28582,2,0,P|86:153|62:196,1,105
38,227,28867,1,0,0:0:0:0:
32,315,28962,2,0,P|116:358|154:347,1,105
179,332,29246,1,0,0:0:0:0:
252,319,29341,5,0,0:0:0:0:
252,319,29436,1,0,0:0:0:0:
252,319,29531,1,0,0:0:0:0:
252,319,29626,1,0,0:0:0:0:
252,319,29721,5,0,0:0:0:0:
299,339,29815,1,0,0:0:0:0:
351,334,29910,1,0,0:0:0:0:
394,305,30005,1,0,0:0:0:0:
414,258,30100,5,0,0:0:0:0:
395,208,30195,1,0,0:0:0:0:
429,166,30290,1,0,0:0:0:0:
409,114,30385,1,0,0:0:0:0:
438,69,30480,2,0,P|377:61|342:71,1,52.5
306,50,30669,1,0,0:0:0:0:
226,55,30764,1,0,0:0:0:0:
195,125,30859,6,0,P|235:196|223:244,1,105
144,214,31144,1,0,0:0:0:0:
167,273,31238,1,0,0:0:0:0:
224,303,31333,1,0,0:0:0:0:
287,289,31428,1,0,0:0:0:0:
326,238,31523,1,0,0:0:0:0:
317,156,31618,2,0,B|374:174|374:174|429:230,1,105
405,206,31903,5,0,0:0:0:0:
405,206,31998,2,0,P|461:235|506:225,1,105
440,122,32377,5,0,0:0:0:0:
485,146,32471,1,0,0:0:0:0:
508,192,32566,1,0,0:0:0:0:
501,244,32661,1,0,0:0:0:0:
426,210,32757,5,0,0:0:0:0:
404,257,32851,1,0,0:0:0:0:
362,286,32946,1,0,0:0:0:0:
310,288,33041,1,0,0:0:0:0:
338,206,33136,5,0,0:0:0:0:
285,209,33230,1,0,0:0:0:0:
233,205,33325,1,0,0:0:0:0:
182,193,33420,1,0,0:0:0:0:
230,114,33516,5,0,0:0:0:0:
154,101,33610,1,0,0:0:0:0:
94,148,33705,1,0,0:0:0:0:
87,224,33800,1,0,0:0:0:0:
138,280,33895,5,0,0:0:0:0:
94,41,34085,1,0,0:0:0:0:
60,384,34275,1,0,0:0:0:0:
31,163,34464,1,0,0:0:0:0:
273,41,34654,5,0,0:0:0:0:
284,308,34844,1,0,0:0:0:0:
386,162,35034,1,0,0:0:0:0:
131,83,35224,1,0,0:0:0:0:
91,291,35413,5,0,0:0:0:0:
233,25,35603,1,0,0:0:0:0:
372,290,35793,1,0,0:0:0:0:
65,134,35983,1,0,0:0:0:0:
397,51,36172,5,0,0:0:0:0:
231,336,36362,1,0,0:0:0:0:
377,226,36552,1,0,0:0:0:0:
144,25,36742,1,0,0:0:0:0:
293,79,36932,5,0,0:0:0:0:
236,70,37026,1,0,0:0:0:0:
189,105,37121,1,0,0:0:0:0:
178,161,37216,1,0,0:0:0:0:
188,219,37312,5,0,0:0:0:0:
167,274,37407,1,0,0:0:0:0:
120,309,37502,1,0,0:0:0:0:
63,323,37597,1,0,0:0:0:0:
34,217,37691,5,0,0:0:0:0:
66,171,37786,1,0,0:0:0:0:
118,143,37881,1,0,0:0:0:0:
176,143,37976,1,0,0:0:0:0:
228,171,38071,5,0,0:0:0:0:
217,227,38166,1,0,0:0:0:0:
250,273,38261,1,0,0:0:0:0:
308,280,38356,1,0,0:0:0:0:
365,281,38451,5,0,0:0:0:0:
370,225,38545,1,0,0:0:0:0:
404,178,38640,1,0,0:0:0:0:
450,146,38735,1,0,0:0:0:0:
476,244,38830,5,0,0:0:0:0:
421,272,38925,1,0,0:0:0:0:
366,290,39020,1,0,0:0:0:0:
309,280,39115,1,0,0:0:0:0:
223,346,39210,5,0,0:0:0:0:
176,309,39304,1,0,0:0:0:0:
151,256,39399,1,0,0:0:0:0:
149,199,39494,1,0,0:0:0:0:
190,133,39589,5,0,0:0:0:0:
262,166,39684,1,0,0:0:0:0:
279,244,39779,1,0,0:0:0:0:
340,292,39873,1,0,0:0:0:0:
428,272,39969,6,0,P|394:183|423:95,1,157.500006008148
406,124,40252,1,0,0:0:0:0:
406,124,40347,2,0,P|311:101|238:146,1,157.500006008148
134,209,40727,1,0,0:0:0:0:
225,299,40917,1,0,0:0:0:0:
225,299,41012,1,0,0:0:0:0:
225,299,41106,2,0,B|268:322|308:312|308:312|336:277|376:266,1,157.500006008148
408,246,41485,1,0,0:0:0:0:
385,200,41581,5,0,0:0:0:0:
391,148,41676,1,0,0:0:0:0:
422,107,41771,1,0,0:0:0:0:
470,88,41864,1,0,0:0:0:0:
464,181,41959,5,0,0:0:0:0:
402,200,42054,1,0,0:0:0:0:
341,180,42149,1,0,0:0:0:0:
301,129,42244,1,0,0:0:0:0:
261,78,42339,5,0,0:0:0:0:
200,58,42434,1,0,0:0:0:0:
138,76,42529,1,0,0:0:0:0:
90,118,42625,2,0,P|99:202|119:243,1,105
185,315,43004,5,0,0:0:0:0:
110,297,43194,2,0,P|190:315|233:304,1,78.7500030040742
271,243,43384,1,0,0:0:0:0:
196,225,43573,2,0,P|276:243|319:232,1,78.7500030040742
325,159,43763,1,0,0:0:0:0:
250,141,43953,2,0,P|330:159|373:148,1,78.7500030040742
427,134,44143,2,0,B|406:118|404:77|404:77|378:64|336:77,1,105
327,82,44427,1,0,0:0:0:0:
288,58,44522,5,0,0:0:0:0:
247,89,44616,1,0,0:0:0:0:
196,97,44711,1,0,0:0:0:0:
147,79,44806,1,0,0:0:0:0:
168,130,44902,5,0,0:0:0:0:
165,181,44996,1,0,0:0:0:0:
134,223,45091,1,0,0:0:0:0:
86,242,45186,1,0,0:0:0:0:
37,257,45280,5,0,0:0:0:0:
13,302,45375,1,0,0:0:0:0:
29,350,45470,1,0,0:0:0:0:
75,372,45565,1,0,0:0:0:0:
123,354,45661,6,0,P|209:374|255:334,1,78.7500030040742
314,242,45850,2,0,P|228:222|182:262,1,78.7500030040742
256,309,46040,1,0,0:0:0:0:
181,291,46134,1,0,0:0:0:0:
145,224,46229,1,0,0:0:0:0:
171,152,46324,1,0,0:0:0:0:
242,125,46420,6,0,P|331:99|369:67,1,78.7500030040742
423,41,46610,1,0,0:0:0:0:
415,65,46704,1,0,0:0:0:0:
413,92,46799,1,0,0:0:0:0:
418,117,46894,1,0,0:0:0:0:
447,160,46988,1,0,0:0:0:0:
456,211,47083,1,0,0:0:0:0:
446,261,47179,2,0,P|412:303|369:292,1,105
304,242,47463,1,0,0:0:0:0:
321,221,47558,5,0,0:0:0:0:
313,193,47652,1,0,0:0:0:0:
296,170,47747,1,0,0:0:0:0:
272,155,47842,1,0,0:0:0:0:
167,95,47937,5,0,0:0:0:0:
203,77,48033,1,0,0:0:0:0:
239,74,48128,1,0,0:0:0:0:
274,83,48223,1,0,0:0:0:0:
323,173,48317,5,0,0:0:0:0:
369,195,48411,1,0,0:0:0:0:
415,199,48506,1,0,0:0:0:0:
460,188,48601,1,0,0:0:0:0:
408,108,48697,2,0,P|441:55|490:25,1,105
272,60,49076,5,0,0:0:0:0:
128,189,49266,1,0,0:0:0:0:
128,189,49361,1,0,0:0:0:0:
128,189,49456,2,0,P|212:211|249:189,1,105
264,73,49741,1,0,0:0:0:0:
272,60,49835,2,0,P|330:106|346:158,1,105
420,175,50120,1,0,0:0:0:0:
397,188,50215,6,0,P|420:223|466:255,1,78.7500030040742
512,294,50405,2,0,P|489:329|443:361,1,78.7500030040742
380,296,50595,1,0,0:0:0:0:
340,329,50689,1,0,0:0:0:0:
290,345,50784,1,0,0:0:0:0:
238,339,50879,1,0,0:0:0:0:
190,310,50974,6,0,P|120:262|116:254,1,78.7500030040742
76,164,51164,2,0,P|162:166|177:172,1,78.7500030040742
390,265,51354,1,0,0:0:0:0:
390,265,51448,1,0,0:0:0:0:
390,265,51543,1,0,0:0:0:0:
390,265,51638,1,0,0:0:0:0:
390,265,51733,2,0,P|401:188|438:265,1,210
373,104,52113,5,0,0:0:0:0:
417,343,52303,1,0,0:0:0:0:
451,0,52493,1,0,0:0:0:0:
480,221,52682,1,0,0:0:0:0:
238,343,52872,5,0,0:0:0:0:
227,76,53062,1,0,0:0:0:0:
379,279,53251,1,0,0:0:0:0:
88,207,53441,1,0,0:0:0:0:
420,93,53631,5,0,0:0:0:0:
278,359,53821,1,0,0:0:0:0:
139,94,54011,1,0,0:0:0:0:
446,250,54201,1,0,0:0:0:0:
114,333,54390,5,0,0:0:0:0:
280,48,54580,1,0,0:0:0:0:
357,248,54769,1,0,0:0:0:0:
208,149,54959,1,0,0:0:0:0:
295,310,55149,5,0,0:0:0:0:
235,319,55243,1,0,0:0:0:0:
185,283,55338,1,0,0:0:0:0:
174,223,55433,1,0,0:0:0:0:
184,163,55529,5,0,0:0:0:0:
162,105,55624,1,0,0:0:0:0:
113,67,55719,1,0,0:0:0:0:
53,53,55814,1,0,0:0:0:0:
22,165,55908,5,0,0:0:0:0:
55,214,56003,1,0,0:0:0:0:
110,242,56098,1,0,0:0:0:0:
172,242,56193,1,0,0:0:0:0:
227,214,56288,5,0,0:0:0:0:
215,154,56383,1,0,0:0:0:0:
250,106,56478,1,0,0:0:0:0:
311,98,56573,1,0,0:0:0:0:
371,97,56668,5,0,0:0:0:0:
377,156,56762,1,0,0:0:0:0:
412,206,56857,1,0,0:0:0:0:
460,240,56952,1,0,0:0:0:0:
488,137,57047,5,0,0:0:0:0:
430,107,57142,1,0,0:0:0:0:
372,88,57237,1,0,0:0:0:0:
311,98,57332,1,0,0:0:0:0:
221,29,57427,5,0,0:0:0:0:
172,67,57521,1,0,0:0:0:0:
146,123,57616,1,0,0:0:0:0:
143,184,57711,1,0,0:0:0:0:
186,253,57806,5,0,0:0:0:0:
262,218,57901,1,0,0:0:0:0:
260,135,57996,1,0,0:0:0:0:
335,85,58090,1,0,0:0:0:0:
440,106,58186,6,0,P|403:201|434:295,1,157.500006008148
423,361,58470,1,0,0:0:0:0:
315,346,58565,2,0,P|264:333|224:300,1,105
152,200,58850,1,0,0:0:0:0:
47,269,58944,2,0,P|68:336|108:362,1,105
220,349,59229,1,0,0:0:0:0:
223,319,59324,2,0,P|288:298|326:311,1,105
363,331,59609,5,0,0:0:0:0:
374,320,59703,1,0,0:0:0:0:
351,274,59797,5,0,0:0:0:0:
357,222,59892,1,0,0:0:0:0:
388,181,59987,1,0,0:0:0:0:
436,162,60082,1,0,0:0:0:0:
504,243,60177,5,0,0:0:0:0:
442,262,60272,1,0,0:0:0:0:
381,242,60367,1,0,0:0:0:0:
341,191,60462,1,0,0:0:0:0:
257,114,60557,5,0,0:0:0:0:
196,94,60652,1,0,0:0:0:0:
134,112,60747,1,0,0:0:0:0:
93,162,60842,2,0,P|102:252|122:288,1,105
131,304,61222,6,0,P|142:244|119:195,1,105
34,144,61506,1,0,0:0:0:0:
0,49,61601,2,0,P|94:43|116:59,1,105
184,126,61886,1,0,0:0:0:0:
243,225,61981,2,0,P|294:153|282:102,1,105
344,281,62265,1,0,0:0:0:0:
366,285,62360,2,0,P|405:327|459:343,1,105
487,202,62645,5,0,0:0:0:0:
474,127,62740,2,0,P|435:96|405:91,1,78.7500030040742
300,171,62930,2,0,P|338:203|369:207,1,78.7500030040742
473,60,63120,2,0,P|434:27|398:20,1,78.7500030040742
314,247,63310,2,0,P|356:286|401:292,1,78.7500030040742
449,162,63499,5,0,0:0:0:0:
405,97,63593,1,0,0:0:0:0:
341,53,63688,1,0,0:0:0:0:
264,35,63783,1,0,0:0:0:0:
186,41,63878,2,0,B|145:53|124:69|124:69|157:94,1,105
85,265,64258,6,0,P|134:306|166:310,1,78.7500030040742
374,311,64448,1,0,0:0:0:0:
374,292,64542,1,0,0:0:0:0:
373,270,64637,2,0,P|320:256|274:264,1,78.7500030040742
66,178,64827,1,0,0:0:0:0:
74,161,64921,1,0,0:0:0:0:
85,142,65017,2,0,P|138:153|176:181,1,78.7500030040742
399,85,65207,5,0,0:0:0:0:
387,70,65301,1,0,0:0:0:0:
374,53,65396,2,0,B|314:65|303:111|303:111|336:141|337:179,1,157.500006008148
334,162,65681,1,0,0:0:0:0:
275,208,65776,5,0,0:0:0:0:
283,236,65870,1,0,0:0:0:0:
300,259,65965,1,0,0:0:0:0:
324,274,66060,1,0,0:0:0:0:
386,340,66155,5,0,0:0:0:0:
350,358,66249,1,0,0:0:0:0:
314,361,66344,1,0,0:0:0:0:
279,352,66439,1,0,0:0:0:0:
273,256,66535,5,0,0:0:0:0:
227,234,66629,1,0,0:0:0:0:
181,230,66724,1,0,0:0:0:0:
136,241,66819,1,0,0:0:0:0:
108,348,66914,6,0,P|33:232|59:158,1,157.500006008148
48,189,67199,1,0,0:0:0:0:
78,156,67294,2,0,P|115:165|154:158,1,78.7500030040742
343,190,67483,1,0,0:0:0:0:
312,232,67578,1,0,0:0:0:0:
301,286,67673,2,0,P|262:291|224:281,1,78.7500030040742
150,251,67863,5,0,0:0:0:0:
185,206,67957,1,0,0:0:0:0:
238,185,68052,1,0,0:0:0:0:
289,169,68148,1,0,0:0:0:0:
331,132,68242,1,0,0:0:0:0:
346,79,68337,1,0,0:0:0:0:
339,1,68432,2,0,P|264:68|268:141,1,157.500006008148
341,136,68717,1,0,0:0:0:0:
319,211,68812,5,0,0:0:0:0:
274,222,68907,1,0,0:0:0:0:
228,218,69002,1,0,0:0:0:0:
182,196,69096,1,0,0:0:0:0:
176,100,69192,5,0,0:0:0:0:
141,91,69287,1,0,0:0:0:0:
105,94,69382,1,0,0:0:0:0:
69,112,69476,1,0,0:0:0:0:
131,178,69571,5,0,0:0:0:0:
155,193,69666,1,0,0:0:0:0:
172,216,69761,1,0,0:0:0:0:
180,244,69855,1,0,0:0:0:0:
86,261,69950,2,0,P|142:328|228:331,1,157.500006008148
180,244,70330,5,0,0:0:0:0:
95,41,70520,1,0,0:0:0:0:
61,384,70710,1,0,0:0:0:0:
32,163,70899,1,0,0:0:0:0:
274,41,71089,5,0,0:0:0:0:
285,308,71279,1,0,0:0:0:0:
386,215,71468,1,0,0:0:0:0:
142,119,71658,1,0,0:0:0:0:
92,291,71848,5,0,0:0:0:0:
234,25,72038,1,0,0:0:0:0:
373,290,72228,1,0,0:0:0:0:
66,134,72418,1,0,0:0:0:0:
398,51,72607,5,0,0:0:0:0:
232,336,72797,1,0,0:0:0:0:
471,290,72987,1,0,0:0:0:0:
265,154,73176,1,0,0:0:0:0:
298,65,73366,5,0,0:0:0:0:
233,55,73460,1,0,0:0:0:0:
180,94,73555,1,0,0:0:0:0:
168,157,73650,1,0,0:0:0:0:
179,222,73746,5,0,0:0:0:0:
156,284,73841,1,0,0:0:0:0:
103,324,73936,1,0,0:0:0:0:
39,340,74031,1,0,0:0:0:0:
6,220,74125,5,0,0:0:0:0:
41,168,74220,1,0,0:0:0:0:
100,137,74315,1,0,0:0:0:0:
166,137,74410,1,0,0:0:0:0:
225,168,74505,5,0,0:0:0:0:
212,231,74600,1,0,0:0:0:0:
250,283,74695,1,0,0:0:0:0:
314,291,74790,1,0,0:0:0:0:
379,293,74885,5,0,0:0:0:0:
385,229,74979,1,0,0:0:0:0:
422,176,75074,1,0,0:0:0:0:
474,140,75169,1,0,0:0:0:0:
504,250,75264,5,0,0:0:0:0:
442,282,75359,1,0,0:0:0:0:
380,302,75454,1,0,0:0:0:0:
314,291,75549,1,0,0:0:0:0:
219,366,75644,5,0,0:0:0:0:
166,324,75738,1,0,0:0:0:0:
138,264,75833,1,0,0:0:0:0:
136,200,75928,1,0,0:0:0:0:
181,126,76023,5,0,0:0:0:0:
263,163,76118,1,0,0:0:0:0:
260,251,76213,1,0,0:0:0:0:
340,306,76307,1,0,0:0:0:0:
256,192,76592,12,0,80085,0:0:0:0:
167,50,80497,6,0,B|211:50|249:75|257:105|257:147|239:177|222:191|182:206|182:206|208:248|208:299|208:299|160:301|118:340,1,420
167,127,82965,2,0,P|235:124|291:134,1,105
330,82,83788,2,0,P|288:55|262:56,3,52.5
391,129,84611,2,0,P|349:156|323:155,3,52.5
414,53,85434,6,0,B|451:72|468:87|480:116|477:150|463:169|443:186|443:186|424:246|458:267|458:267|486:237|519:239,1,315
512,321,87080,2,0,B|461:382|376:335|376:335|368:286|327:199|327:199|323:283|269:299,1,420
404,203,89548,2,0,P|371:158|310:143,2,105
447,270,90577,2,0,P|470:247|481:210,3,52.5
327,273,91606,2,0,L|328:212,1,52.5
209,113,92017,2,0,L|208:174,1,52.5
92,273,92428,2,0,L|91:212,2,52.5
19,304,93251,6,0,P|45:339|74:350,1,52.5
134,343,93663,2,0,B|186:306|165:233|165:233|197:184|197:184|258:182|279:221|279:221|320:188|382:184|382:184|361:279|445:292|445:292|497:214|436:112|436:112|367:114|308:65|308:65|302:105|284:128|284:128|196:88|141:129|141:129|109:186|79:227|79:227|106:269|87:284,1,1260
19,181,99423,2,0,P|57:118|82:78,2,105
50,21,100452,2,0,P|85:17|114:30,3,52.5
148,106,101480,2,0,P|173:111|199:106,3,52.5
260,37,102303,2,0,P|285:31|311:36,1,52.5
390,97,102715,1,0,0:0:0:0:
390,97,103126,1,0,0:0:0:0:
449,144,103537,6,0,B|421:169|391:172|391:172|433:206|433:206|387:223|387:223|424:251|424:251|390:295|396:343|396:343|309:368|329:271|329:271|296:228|320:190|320:190|309:148|216:173,1,630
223,245,106418,2,0,B|198:239|151:207|162:154|162:154|149:145|149:145|158:130|158:130|103:83|103:83|189:13|254:88|254:88|233:129|233:129|243:148|234:169|234:169|296:167|286:211|286:211|304:216|304:216|294:233|294:233|324:253|306:300|280:329|229:333,1,735
170,306,109709,1,0,0:0:0:0:
103,251,110121,2,0,B|88:143|17:109|17:109|46:42|163:26|163:26|167:60|182:75|182:75|204:45|204:45|217:62|217:62|231:50|231:50|243:58|243:58|256:52|256:52|266:57|266:57|277:55|277:55|330:71|386:67,1,630
432,129,113001,1,0,0:0:0:0:
441,218,113412,2,0,B|411:212|393:219|393:219|402:246|402:246|384:260|384:260|386:276|386:276|377:281|377:281|356:314|291:303|291:303|280:287|280:287|263:293|263:293|246:270|224:261|224:261|187:278|171:307|171:307|101:328|27:279|35:165|84:133|177:91|219:185|219:185|273:178|288:158,1,840
256,192,116909,12,0,122052,0:0:0:0:
162,115,122276,5,0,0:0:0:0:
162,115,122368,1,0,0:0:0:0:
162,115,122460,2,0,P|201:115|258:138,1,78.7500030040742
403,239,122645,1,0,0:0:0:0:
382,294,122737,1,0,0:0:0:0:
331,311,122829,2,0,P|273:311|209:334,1,78.7500030040742
118,345,123014,5,0,0:0:0:0:
120,293,123106,1,0,0:0:0:0:
150,250,123198,1,0,0:0:0:0:
198,230,123290,1,0,0:0:0:0:
249,222,123383,1,0,0:0:0:0:
296,201,123475,1,0,0:0:0:0:
326,158,123567,1,0,0:0:0:0:
329,107,123659,1,0,0:0:0:0:
306,13,123752,5,0,0:0:0:0:
243,16,123844,1,0,0:0:0:0:
188,45,123936,1,0,0:0:0:0:
150,94,124028,1,0,0:0:0:0:
177,181,124122,1,0,0:0:0:0:
144,222,124214,1,0,0:0:0:0:
97,247,124306,1,0,0:0:0:0:
44,249,124398,1,0,0:0:0:0:
51,159,124491,5,0,0:0:0:0:
80,103,124583,1,0,0:0:0:0:
126,61,124675,1,0,0:0:0:0:
184,37,124767,1,0,0:0:0:0:
246,34,124860,1,0,0:0:0:0:
306,52,124952,1,0,0:0:0:0:
356,90,125044,1,0,0:0:0:0:
390,143,125137,1,0,0:0:0:0:
393,241,125229,5,0,0:0:0:0:
353,254,125321,1,0,0:0:0:0:
313,267,125413,1,0,0:0:0:0:
273,280,125505,1,0,0:0:0:0:
239,344,125599,1,0,0:0:0:0:
187,327,125691,1,0,0:0:0:0:
136,310,125783,1,0,0:0:0:0:
85,294,125875,1,0,0:0:0:0:
55,215,125968,5,0,0:0:0:0:
95,202,126060,1,0,0:0:0:0:
135,189,126152,1,0,0:0:0:0:
175,176,126244,1,0,0:0:0:0:
209,112,126338,1,0,0:0:0:0:
261,129,126430,1,0,0:0:0:0:
312,146,126522,1,0,0:0:0:0:
363,162,126614,1,0,0:0:0:0:
392,243,126706,5,0,0:0:0:0:
443,209,126798,1,0,0:0:0:0:
458,150,126890,1,0,0:0:0:0:
427,97,126982,1,0,0:0:0:0:
328,59,127076,1,0,0:0:0:0:
283,75,127168,1,0,0:0:0:0:
231,76,127260,1,0,0:0:0:0:
183,54,127352,1,0,0:0:0:0:
98,13,127445,5,0,0:0:0:0:
46,69,127537,1,0,0:0:0:0:
50,146,127629,1,0,0:0:0:0:
107,196,127721,1,0,0:0:0:0:
184,191,127814,1,0,0:0:0:0:
260,186,127907,1,0,0:0:0:0:
317,236,127999,1,0,0:0:0:0:
321,313,128091,1,0,0:0:0:0:
246,352,128183,5,0,0:0:0:0:
196,339,128275,1,0,0:0:0:0:
169,296,128367,1,0,0:0:0:0:
179,246,128459,1,0,0:0:0:0:
222,218,128552,1,0,0:0:0:0:
201,274,128644,1,0,0:0:0:0:
148,302,128736,1,0,0:0:0:0:
90,288,128828,1,0,0:0:0:0:
51,205,128921,5,0,0:0:0:0:
57,145,129013,1,0,0:0:0:0:
101,104,129105,1,0,0:0:0:0:
158,93,129199,1,0,0:0:0:0:
204,126,129291,1,0,0:0:0:0:
254,140,129383,1,0,0:0:0:0:
306,135,129475,1,0,0:0:0:0:
352,111,129568,1,0,0:0:0:0:
415,37,129660,5,0,0:0:0:0:
451,74,129752,1,0,0:0:0:0:
468,123,129844,1,0,0:0:0:0:
462,175,129936,1,0,0:0:0:0:
372,193,130029,1,0,0:0:0:0:
335,230,130121,1,0,0:0:0:0:
318,279,130213,1,0,0:0:0:0:
324,331,130305,1,0,0:0:0:0:
433,333,130399,5,0,0:0:0:0:
433,295,130491,1,0,0:0:0:0:
433,258,130583,1,0,0:0:0:0:
433,220,130675,1,0,0:0:0:0:
466,190,130768,1,0,0:0:0:0:
466,152,130860,1,0,0:0:0:0:
466,115,130952,1,0,0:0:0:0:
466,77,131045,1,0,0:0:0:0:
468,16,131137,5,0,0:0:0:0:
400,13,131229,1,0,0:0:0:0:
342,46,131321,1,0,0:0:0:0:
310,105,131413,1,0,0:0:0:0:
288,165,131506,1,0,0:0:0:0:
256,224,131598,1,0,0:0:0:0:
197,257,131690,1,0,0:0:0:0:
130,254,131782,1,0,0:0:0:0:
65,237,131875,5,0,0:0:0:0:
32,179,131967,1,0,0:0:0:0:
51,115,132059,1,0,0:0:0:0:
109,83,132152,1,0,0:0:0:0:
173,103,132244,1,0,0:0:0:0:
222,143,132337,1,0,0:0:0:0:
247,205,132429,1,0,0:0:0:0:
298,250,132521,1,0,0:0:0:0:
388,289,132614,5,0,0:0:0:0:
357,322,132706,1,0,0:0:0:0:
316,341,132798,1,0,0:0:0:0:
271,343,132890,1,0,0:0:0:0:
228,320,132983,1,0,0:0:0:0:
185,284,133075,1,0,0:0:0:0:
134,268,133167,1,0,0:0:0:0:
80,271,133259,1,0,0:0:0:0:
39,357,133352,5,0,0:0:0:0:
45,289,133444,1,0,0:0:0:0:
52,219,133536,1,0,0:0:0:0:
61,147,133628,1,0,0:0:0:0:
78,77,133721,1,0,0:0:0:0:
137,27,133813,1,0,0:0:0:0:
214,21,133905,1,0,0:0:0:0:
281,61,133998,1,0,0:0:0:0:
370,45,134091,5,0,0:0:0:0:
368,97,134183,1,0,0:0:0:0:
338,140,134275,1,0,0:0:0:0:
290,160,134367,1,0,0:0:0:0:
239,168,134460,1,0,0:0:0:0:
192,189,134552,1,0,0:0:0:0:
162,232,134644,1,0,0:0:0:0:
159,283,134736,1,0,0:0:0:0:
182,377,134829,5,0,0:0:0:0:
244,374,134921,1,0,0:0:0:0:
299,345,135013,1,0,0:0:0:0:
337,295,135105,1,0,0:0:0:0:
311,209,135199,1,0,0:0:0:0:
344,168,135291,1,0,0:0:0:0:
391,143,135383,1,0,0:0:0:0:
444,141,135475,1,0,0:0:0:0:
437,231,135568,5,0,0:0:0:0:
408,286,135660,1,0,0:0:0:0:
362,329,135752,1,0,0:0:0:0:
304,353,135844,1,0,0:0:0:0:
241,356,135937,1,0,0:0:0:0:
181,337,136029,1,0,0:0:0:0:
131,299,136121,1,0,0:0:0:0:
97,246,136214,1,0,0:0:0:0:
95,149,136306,5,0,0:0:0:0:
138,155,136398,1,0,0:0:0:0:
182,145,136490,1,0,0:0:0:0:
215,110,136582,1,0,0:0:0:0:
249,46,136676,1,0,0:0:0:0:
305,44,136768,1,0,0:0:0:0:
360,60,136860,1,0,0:0:0:0:
403,96,136952,1,0,0:0:0:0:
358,162,137045,5,0,0:0:0:0:
375,217,137137,1,0,0:0:0:0:
347,258,137229,1,0,0:0:0:0:
291,264,137321,1,0,0:0:0:0:
228,184,137415,1,0,0:0:0:0:
239,163,137507,1,0,0:0:0:0:
234,136,137599,1,0,0:0:0:0:
206,116,137691,1,0,0:0:0:0:
96,147,137783,5,0,0:0:0:0:
45,181,137875,1,0,0:0:0:0:
30,240,137967,1,0,0:0:0:0:
61,293,138059,1,0,0:0:0:0:
160,331,138153,1,0,0:0:0:0:
205,315,138245,1,0,0:0:0:0:
257,314,138337,1,0,0:0:0:0:
305,336,138429,1,0,0:0:0:0:
391,333,138522,5,0,0:0:0:0:
434,285,138614,1,0,0:0:0:0:
430,222,138706,1,0,0:0:0:0:
382,180,138798,1,0,0:0:0:0:
319,184,138891,1,0,0:0:0:0:
255,189,138984,1,0,0:0:0:0:
208,147,139076,1,0,0:0:0:0:
205,83,139168,1,0,0:0:0:0:
242,38,139260,5,0,0:0:0:0:
314,46,139352,1,0,0:0:0:0:
357,101,139444,1,0,0:0:0:0:
326,163,139536,1,0,0:0:0:0:
242,176,139629,1,0,0:0:0:0:
284,105,139721,1,0,0:0:0:0:
365,77,139813,1,0,0:0:0:0:
446,109,139905,1,0,0:0:0:0:
466,194,139998,5,0,0:0:0:0:
429,244,140090,1,0,0:0:0:0:
387,286,140182,1,0,0:0:0:0:
330,297,140276,1,0,0:0:0:0:
284,264,140368,1,0,0:0:0:0:
234,250,140460,1,0,0:0:0:0:
182,255,140552,1,0,0:0:0:0:
136,279,140645,1,0,0:0:0:0:
73,353,140737,5,0,0:0:0:0:
36,316,140829,1,0,0:0:0:0:
19,266,140921,1,0,0:0:0:0:
25,215,141013,1,0,0:0:0:0:
116,197,141106,1,0,0:0:0:0:
153,160,141198,1,0,0:0:0:0:
170,111,141290,1,0,0:0:0:0:
164,59,141382,1,0,0:0:0:0:
70,0,141476,5,0,0:0:0:0:
70,37,141568,1,0,0:0:0:0:
70,75,141660,1,0,0:0:0:0:
70,112,141752,1,0,0:0:0:0:
7,175,141845,1,0,0:0:0:0:
7,213,141937,1,0,0:0:0:0:
7,250,142029,1,0,0:0:0:0:
7,288,142122,1,0,0:0:0:0:
20,374,142214,5,0,0:0:0:0:
87,377,142306,1,0,0:0:0:0:
146,343,142398,1,0,0:0:0:0:
177,284,142490,1,0,0:0:0:0:
210,191,142583,1,0,0:0:0:0:
242,132,142675,1,0,0:0:0:0:
301,99,142767,1,0,0:0:0:0:
368,102,142859,1,0,0:0:0:0:
453,174,142952,5,0,0:0:0:0:
411,226,143044,1,0,0:0:0:0:
354,261,143136,1,0,0:0:0:0:
287,272,143228,1,0,0:0:0:0:
222,258,143321,1,0,0:0:0:0:
166,221,143413,1,0,0:0:0:0:
127,166,143505,1,0,0:0:0:0:
111,101,143598,1,0,0:0:0:0:
107,38,143691,5,0,0:0:0:0:
161,35,143783,1,0,0:0:0:0:
212,51,143875,1,0,0:0:0:0:
255,87,143967,1,0,0:0:0:0:
298,111,144060,1,0,0:0:0:0:
343,108,144152,1,0,0:0:0:0:
384,89,144244,1,0,0:0:0:0:
415,56,144336,1,0,0:0:0:0:
449,33,144429,5,0,0:0:0:0:
443,101,144521,1,0,0:0:0:0:
436,171,144613,1,0,0:0:0:0:
427,243,144705,5,0,0:0:0:0:
409,312,144798,1,0,0:0:0:0:
350,362,144890,1,0,0:0:0:0:
273,368,144982,1,0,0:0:0:0:
207,329,145075,1,0,0:0:0:0:
158,266,145168,6,0,P|195:239|208:194,1,78.7500030040742
318,197,145352,2,0,P|360:228|397:274,1,78.7500030040742
218,34,145537,2,0,P|185:57|160:88,1,78.7500030040742
419,140,145722,2,0,P|451:103|463:75,1,78.7500030040742
477,222,145899,5,0,0:0:0:0:
266,324,146089,2,0,P|276:288|292:257,1,52.5
344,197,146279,1,0,0:0:0:0:
222,95,146468,1,0,0:0:0:0:
173,84,146562,1,0,0:0:0:0:
131,113,146657,1,0,0:0:0:0:
186,186,146848,6,0,P|176:222|160:253,1,52.5
108,313,147038,1,0,0:0:0:0:
307,288,147228,1,0,0:0:0:0:
357,300,147322,1,0,0:0:0:0:
399,271,147417,1,0,0:0:0:0:
339,122,147607,2,0,L|355:45,2,52.5
222,289,147987,5,0,0:0:0:0:
173,301,148081,1,0,0:0:0:0:
131,272,148176,1,0,0:0:0:0:
186,198,148367,2,0,P|176:162|160:131,1,52.5
108,71,148557,1,0,0:0:0:0:
372,115,148746,6,0,P|397:234|393:257,2,105
267,76,149220,1,0,0:0:0:0:
219,184,149315,2,0,P|220:222|259:290,1,105
345,272,149600,1,0,0:0:0:0:
441,263,149695,2,0,P|420:330|380:356,1,105
292,349,149979,1,0,0:0:0:0:
238,257,150074,2,0,P|173:236|135:249,1,105
139,246,150454,1,0,0:0:0:0:
70,286,150548,1,0,0:0:0:0:
0,251,150643,1,0,0:0:0:0:
0,171,150738,1,0,0:0:0:0:
46,117,150833,1,0,0:0:0:0:
124,136,150928,1,0,0:0:0:0:
51,124,151023,1,0,0:0:0:0:
36,52,151118,1,0,0:0:0:0:
99,13,151213,1,0,0:0:0:0:
157,59,151308,1,0,0:0:0:0:
232,103,151402,1,0,0:0:0:0:
319,107,151497,1,0,0:0:0:0:
397,70,151593,2,0,P|388:160|368:196,1,105
377,271,151972,6,0,P|366:211|389:162,1,105
468,155,152256,1,0,0:0:0:0:
478,68,152352,2,0,P|384:62|362:78,1,105
325,126,152636,1,0,0:0:0:0:
287,200,152732,2,0,P|236:128|248:77,1,105
359,246,153015,1,0,0:0:0:0:
429,277,153111,2,0,P|390:319|329:319,1,105
201,258,153396,1,0,0:0:0:0:
134,301,153491,6,0,P|173:332|203:337,1,78.7500030040742
270,211,153681,2,0,P|232:179|201:175,1,78.7500030040742
64,279,153871,2,0,P|104:235|135:227,1,78.7500030040742
273,321,154061,2,0,P|255:289|214:264,1,78.7500030040742
128,158,154250,5,0,0:0:0:0:
96,134,154344,1,0,0:0:0:0:
78,102,154439,1,0,0:0:0:0:
90,48,154534,1,0,0:0:0:0:
130,0,154630,2,0,P|180:39|254:49,1,105
54,71,155010,5,0,0:0:0:0:
362,101,155200,2,0,P|282:83|239:94,1,78.7500030040742
145,111,155390,1,0,0:0:0:0:
229,176,155579,2,0,P|309:158|352:169,1,78.7500030040742
446,186,155769,1,0,0:0:0:0:
356,256,155959,2,0,P|276:238|233:249,1,78.7500030040742
192,244,156148,1,0,0:0:0:0:
133,299,156338,1,0,0:0:0:0:
224,326,156528,5,0,0:0:0:0:
265,295,156622,1,0,0:0:0:0:
316,287,156717,1,0,0:0:0:0:
365,305,156812,1,0,0:0:0:0:
302,215,156908,5,0,0:0:0:0:
305,164,157002,1,0,0:0:0:0:
336,122,157097,1,0,0:0:0:0:
384,103,157192,1,0,0:0:0:0:
475,127,157286,5,0,0:0:0:0:
499,82,157381,1,0,0:0:0:0:
483,34,157476,1,0,0:0:0:0:
437,12,157571,1,0,0:0:0:0:
389,30,157667,6,0,P|303:10|257:50,1,78.7500030040742
198,142,157857,2,0,P|284:162|330:122,1,78.7500030040742
421,316,158047,2,0,P|335:296|289:336,1,78.7500030040742
86,322,158236,1,0,0:0:0:0:
86,322,158330,1,0,0:0:0:0:
86,322,158426,2,0,P|139:336|185:328,1,78.7500030040742
388,138,158615,1,0,0:0:0:0:
370,175,158711,1,0,0:0:0:0:
352,215,158806,2,0,P|299:204|261:176,1,78.7500030040742
214,61,158996,5,0,0:0:0:0:
167,97,159089,1,0,0:0:0:0:
127,146,159185,2,0,B|67:134|56:88|56:88|89:58|90:20,1,157.500006008148
95,31,159565,5,0,0:0:0:0:
128,33,159659,1,0,0:0:0:0:
162,36,159754,1,0,0:0:0:0:
195,39,159849,1,0,0:0:0:0:
265,112,159944,5,0,0:0:0:0:
298,114,160039,1,0,0:0:0:0:
332,117,160134,1,0,0:0:0:0:
365,120,160229,1,0,0:0:0:0:
408,212,160324,5,0,0:0:0:0:
352,215,160418,1,0,0:0:0:0:
296,220,160513,1,0,0:0:0:0:
242,225,160608,1,0,0:0:0:0:
138,311,160703,5,0,0:0:0:0:
219,316,160798,1,0,0:0:0:0:
303,324,160893,1,0,0:0:0:0:
384,331,160988,1,0,0:0:0:0:
384,331,161107,6,0,P|439:296|446:244,1,105
448,167,161476,1,0,0:0:0:0:
323,237,161660,1,0,0:0:0:0:
350,123,161845,2,0,P|240:117|209:129,1,105
127,248,162214,5,0,0:0:0:0:
127,122,162398,1,0,0:0:0:0:
236,185,162583,1,0,0:0:0:0:
110,250,162768,5,0,0:0:0:0:
133,105,162952,1,0,0:0:0:0:
245,198,163137,1,0,0:0:0:0:
161,290,163321,2,0,P|232:318|304:316,1,105
362,301,163690,1,0,0:0:0:0:
421,223,163875,1,0,0:0:0:0:
420,121,164060,6,0,P|433:74|469:23,1,105
304,176,164429,2,0,P|291:223|255:274,1,105
124,275,164798,5,0,0:0:0:0:
34,185,164982,1,0,0:0:0:0:
124,96,165167,1,0,0:0:0:0:
213,185,165351,1,0,0:0:0:0:
108,282,165536,5,0,0:0:0:0:
26,169,165720,1,0,0:0:0:0:
139,88,165905,1,0,0:0:0:0:
220,200,166089,1,0,0:0:0:0:
292,312,166274,2,0,P|361:246|355:194,1,105
147,77,166643,2,0,P|100:100|77:146,1,105
184,191,167013,5,0,0:0:0:0:
233,259,167198,1,0,0:0:0:0:
313,234,167382,1,0,0:0:0:0:
313,150,167567,1,0,0:0:0:0:
233,124,167751,2,0,P|247:57|239:17,1,105
289,293,168120,5,0,0:0:0:0:
289,90,168304,1,0,0:0:0:0:
169,255,168489,1,0,0:0:0:0:
363,192,168674,1,0,0:0:0:0:
169,129,168858,2,0,P|128:66|92:33,1,105
53,144,169227,5,0,0:0:0:0:
53,144,169412,1,0,0:0:0:0:
81,273,169596,1,0,0:0:0:0:
81,273,169781,1,0,0:0:0:0:
243,83,169966,6,0,P|292:70|364:78,1,105
319,338,170335,2,0,L|301:217,1,105
80,272,170704,2,0,P|132:266|180:245,1,105
319,301,171073,5,0,0:0:0:0:
193,82,171257,1,0,0:0:0:0:
193,301,171442,5,0,0:0:0:0:
319,82,171627,1,0,0:0:0:0:
130,191,171811,5,0,0:0:0:0:
382,192,171996,1,0,0:0:0:0:
312,318,172180,5,0,0:0:0:0:
199,65,172364,1,0,0:0:0:0:
174,304,172549,5,0,0:0:0:0:
337,79,172734,1,0,0:0:0:0:
118,177,172918,5,0,0:0:0:0:
393,206,173103,1,0,0:0:0:0:
217,75,173288,2,0,P|276:55|334:61,1,105
137,232,173657,5,0,0:0:0:0:
374,151,173842,1,0,0:0:0:0:
459,240,174027,2,0,P|409:255|357:249,1,105
338,318,174395,5,0,0:0:0:0:
236,48,174580,1,0,0:0:0:0:
211,330,174764,1,0,0:0:0:0:
131,117,174949,5,0,0:0:0:0:
356,86,175133,1,0,0:0:0:0:
120,243,175318,1,0,0:0:0:0:
400,204,175502,6,0,P|437:265|483:298,1,105
463,286,175872,1,0,0:0:0:0:
497,188,176056,1,0,0:0:0:0:
293,285,176241,2,0,P|262:219|272:166,1,105
307,116,176610,2,0,P|197:110|166:122,1,105
385,248,176979,5,0,0:0:0:0:
385,122,177163,1,0,0:0:0:0:
276,185,177348,1,0,0:0:0:0:
401,250,177533,5,0,0:0:0:0:
378,105,177717,1,0,0:0:0:0:
266,198,177902,1,0,0:0:0:0:
350,290,178086,2,0,P|303:312|252:320,1,105
150,301,178455,1,0,0:0:0:0:
91,223,178640,1,0,0:0:0:0:
91,120,178825,6,0,P|77:70|47:27,1,105
208,176,179194,2,0,P|222:226|252:269,1,105
388,275,179563,5,0,0:0:0:0:
478,185,179747,1,0,0:0:0:0:
388,96,179932,1,0,0:0:0:0:
299,185,180116,1,0,0:0:0:0:
403,282,180301,5,0,0:0:0:0:
485,169,180485,1,0,0:0:0:0:
372,88,180670,1,0,0:0:0:0:
291,200,180854,1,0,0:0:0:0:
222,313,181039,2,0,P|176:290|153:244,1,105
365,77,181408,2,0,P|411:100|434:146,1,105
336,249,181778,2,0,P|238:236|195:243,1,105
127,136,182147,5,0,0:0:0:0:
127,262,182331,1,0,0:0:0:0:
236,199,182516,1,0,0:0:0:0:
110,133,182701,5,0,0:0:0:0:
133,278,182885,1,0,0:0:0:0:
245,185,183070,1,0,0:0:0:0:
161,94,183254,2,0,P|232:66|304:68,1,105
362,83,183623,1,0,0:0:0:0:
421,161,183808,1,0,0:0:0:0:
420,263,183993,6,0,P|433:310|469:361,1,105
304,208,184362,2,0,P|291:161|255:110,1,105
124,109,184731,5,0,0:0:0:0:
34,199,184915,1,0,0:0:0:0:
124,288,185100,1,0,0:0:0:0:
213,199,185284,1,0,0:0:0:0:
108,101,185469,5,0,0:0:0:0:
26,214,185653,1,0,0:0:0:0:
139,295,185838,1,0,0:0:0:0:
220,183,186022,1,0,0:0:0:0:
292,72,186207,2,0,P|361:138|355:190,1,105
147,307,186576,2,0,P|100:283|77:237,1,105
209,159,186945,5,0,0:0:0:0:
277,287,187130,1,0,0:0:0:0:
385,157,187314,1,0,0:0:0:0:
235,167,187672,5,0,0:0:0:0:
256,192,187885,12,0,193431,0:0:0:0:
