osu file format v14

[General]
AudioFilename: audio.mp3
AudioLeadIn: 0
PreviewTime: 3249
Countdown: 0
SampleSet: Soft
StackLeniency: 0.4
Mode: 0
LetterboxInBreaks: 0
WidescreenStoryboard: 1

[Editor]
Bookmarks: 15678,21751,33896,39968,52113,58186,70331,76783,100245,122276,134091,145899,148936,161107,172918
DistanceSpacing: 0.8
BeatDivisor: 4
GridSize: 4
TimelineZoom: 1.6

[Metadata]
Title:Imaginary Places
TitleUnicode:Imaginary Places
Artist:Busdriver
ArtistUnicode:Busdriver
Creator:Moreon
Version:Skubi's Kawabunga!
Source:
Tags:phoon NeBu Busdriver Rdzeniu Streams Hatiso Moreon Rap sbsonic Andemu Asrasz LukerMaster Chalwa CptSqBany DominiGG AnySense squirrelpascals Fieryrage tem Squishi Soiplox Script
BeatmapID:1354531
BeatmapSetID:632870

[Difficulty]
HPDrainRate:4
CircleSize:7
OverallDifficulty:9
ApproachRate:9.5
SliderMultiplier:2.5
SliderTickRate:1

[Events]
//Background and Video events
0,0,"BG.jpg",0,0
//Break Periods
2,77205,79971
//Storyboard Layer 0 (Background)
//Storyboard Layer 1 (Fail)
//Storyboard Layer 2 (Pass)
//Storyboard Layer 3 (Foreground)
//Storyboard Sound Samples

[TimingPoints]
497.668789808917,379.530647099753,4,2,0,65,1,0
69002,-83.3333333333333,4,2,0,65,0,0
69192,-71.4285714285714,4,2,0,65,0,0
69382,-62.5,4,2,0,65,0,0
69572,-55.5555555555556,4,2,0,65,0,0
69762,-50,4,2,0,65,0,0
74885,-100,4,2,0,65,0,0
76024,-100,4,2,0,65,0,0
76794,411.437975725159,4,2,0,60,1,0
80496,-200,4,2,0,60,0,0
122276,369.230769230769,4,2,0,60,1,0
145899,379.625605095541,4,2,0,60,1,0
161107,369.11719470932,4,2,0,40,1,0
187459,426.621160409556,4,2,0,20,1,0

[Colours]
Combo1 : 255,192,0
Combo2 : 0,174,174
Combo3 : 41,101,31
Combo4 : 242,24,57

[HitObjects]
32,40,497,5,0,0:0:0:0:
152,72,687,5,0,0:0:0:0:
92,84,782,1,0,0:0:0:0:
96,76,877,1,0,0:0:0:0:
216,44,1066,5,0,0:0:0:0:
276,56,1161,1,0,0:0:0:0:
280,48,1256,1,0,0:0:0:0:
152,132,1446,5,0,0:0:0:0:
92,144,1541,1,0,0:0:0:0:
96,136,1636,1,0,0:0:0:0:
216,104,1825,5,0,0:0:0:0:
276,116,1920,1,0,0:0:0:0:
280,108,2015,1,0,0:0:0:0:
152,200,2205,5,0,0:0:0:0:
92,212,2300,1,0,0:0:0:0:
96,204,2395,1,0,0:0:0:0:
216,164,2585,5,0,0:0:0:0:
276,176,2680,1,0,0:0:0:0:
280,168,2775,1,0,0:0:0:0:
152,260,2964,5,0,0:0:0:0:
92,272,3059,1,0,0:0:0:0:
96,264,3154,1,0,0:0:0:0:
216,224,3344,5,0,0:0:0:0:
276,236,3439,1,0,0:0:0:0:
276,236,3533,6,0,P|332:204|328:120,1,125
324,88,3818,1,0,0:0:0:0:
280,132,3913,1,0,0:0:0:0:
341,148,4008,1,0,0:0:0:0:
384,104,4103,1,0,0:0:0:0:
112,32,4292,1,0,0:0:0:0:
104,332,4482,1,0,0:0:0:0:
128,272,4577,1,0,0:0:0:0:
104,212,4672,5,0,0:0:0:0:
96,228,4767,1,0,0:0:0:0:
88,244,4862,1,0,0:0:0:0:
196,360,5051,5,0,0:0:0:0:
252,336,5146,1,0,0:0:0:0:
308,312,5241,1,0,0:0:0:0:
364,288,5336,1,0,0:0:0:0:
476,288,5431,5,0,0:0:0:0:
420,264,5526,1,0,0:0:0:0:
364,240,5621,1,0,0:0:0:0:
308,216,5716,1,0,0:0:0:0:
196,360,5811,5,0,0:0:0:0:
420,264,6000,1,0,0:0:0:0:
252,192,6190,1,0,0:0:0:0:
336,372,6380,1,0,0:0:0:0:
364,108,6569,5,0,0:0:0:0:
315,146,6664,1,0,0:0:0:0:
354,195,6759,1,0,0:0:0:0:
403,155,6854,1,0,0:0:0:0:
280,64,6949,5,0,0:0:0:0:
272,84,7044,1,0,0:0:0:0:
264,104,7139,2,0,P|250:136|268:190,1,62.5
336,372,7329,1,0,0:0:0:0:
252,162,7518,1,0,0:0:0:0:
216,364,7708,5,0,0:0:0:0:
232,356,7803,1,0,0:0:0:0:
248,348,7898,1,0,0:0:0:0:
76,216,8088,5,0,0:0:0:0:
52,272,8183,1,0,0:0:0:0:
137,209,8277,5,0,0:0:0:0:
100,160,8372,1,0,0:0:0:0:
112,265,8467,5,0,0:0:0:0:
173,257,8562,1,0,0:0:0:0:
234,249,8657,1,0,0:0:0:0:
295,241,8752,1,0,0:0:0:0:
356,232,8847,2,0,P|372:204|364:148,1,62.5
292,128,9036,2,0,P|294:158|309:185,1,62.5
412,60,9226,2,0,P|340:48|300:96,1,125
496,116,9606,5,0,0:0:0:0:
373,174,9796,5,0,0:0:0:0:
429,150,9891,1,0,0:0:0:0:
432,160,9985,1,0,0:0:0:0:
236,104,10175,5,0,0:0:0:0:
292,128,10270,1,0,0:0:0:0:
288,136,10364,1,0,0:0:0:0:
120,176,10555,5,0,0:0:0:0:
176,152,10650,1,0,0:0:0:0:
180,164,10744,5,0,0:0:0:0:
172,184,10839,1,0,0:0:0:0:
164,204,10934,1,0,0:0:0:0:
292,72,11124,5,0,0:0:0:0:
340,100,11219,1,0,0:0:0:0:
340,156,11314,1,0,0:0:0:0:
292,184,11409,1,0,0:0:0:0:
244,212,11504,1,0,0:0:0:0:
244,268,11599,1,0,0:0:0:0:
292,296,11694,1,0,0:0:0:0:
340,268,11788,1,0,0:0:0:0:
340,212,11883,6,0,B|312:212|312:212|292:184,1,62.5
392,244,12073,2,0,B|420:244|420:244|440:272,1,62.5
292,365,12263,2,0,B|291:297|291:297|339:268,1,125
176,332,12642,6,0,P|112:312|76:240,1,125
80,208,12927,1,0,0:0:0:0:
155,354,13022,2,0,P|98:318|82:239,1,125
88,204,13306,1,0,0:0:0:0:
129,370,13401,2,0,P|83:320|88:240,1,125
96,200,13686,1,0,0:0:0:0:
100,379,13781,5,0,0:0:0:0:
80,372,13875,1,0,0:0:0:0:
60,364,13970,1,0,0:0:0:0:
224,280,14160,5,0,0:0:0:0:
272,304,14255,1,0,0:0:0:0:
320,280,14350,1,0,0:0:0:0:
368,304,14445,1,0,0:0:0:0:
416,280,14540,1,0,0:0:0:0:
416,223,14635,1,0,0:0:0:0:
368,192,14730,1,0,0:0:0:0:
320,216,14824,1,0,0:0:0:0:
272,184,14919,1,0,0:0:0:0:
272,128,15014,1,0,0:0:0:0:
320,96,15109,1,0,0:0:0:0:
368,128,15204,1,0,0:0:0:0:
416,96,15299,2,0,P|416:56|328:64,1,125
364,324,15678,5,0,0:0:0:0:
401,273,15868,1,0,0:0:0:0:
451,309,16058,1,0,0:0:0:0:
414,359,16248,1,0,0:0:0:0:
108,36,16437,5,0,0:0:0:0:
88,96,16627,1,0,0:0:0:0:
152,80,16817,1,0,0:0:0:0:
44,52,17007,1,0,0:0:0:0:
98,359,17197,5,0,0:0:0:0:
111,273,17387,1,0,0:0:0:0:
148,324,17577,1,0,0:0:0:0:
61,309,17767,1,0,0:0:0:0:
376,24,17956,5,0,0:0:0:0:
364,116,18145,1,0,0:0:0:0:
296,60,18335,1,0,0:0:0:0:
456,52,18525,1,0,0:0:0:0:
216,272,18715,6,0,L|176:344,1,62.5
248,336,18904,1,0,0:0:0:0:
248,336,18998,1,0,0:0:0:0:
246,217,19094,2,0,L|206:289,1,62.5
278,281,19283,1,0,0:0:0:0:
277,280,19379,1,0,0:0:0:0:
276,162,19474,6,0,L|236:234,1,62.5
456,216,19663,2,0,L|425:161,1,62.5
308,226,19853,2,0,L|268:298,1,62.5
424,280,20043,2,0,L|393:225,1,62.5
264,88,20233,5,0,0:0:0:0:
216,104,20328,1,0,0:0:0:0:
168,120,20423,1,0,0:0:0:0:
120,136,20517,1,0,0:0:0:0:
32,184,20612,5,0,0:0:0:0:
84,220,20707,1,0,0:0:0:0:
136,256,20802,1,0,0:0:0:0:
188,292,20897,1,0,0:0:0:0:
312,352,20992,5,0,0:0:0:0:
284,268,21087,1,0,0:0:0:0:
320,348,21182,1,0,0:0:0:0:
300,252,21276,1,0,0:0:0:0:
328,348,21371,1,0,0:0:0:0:
320,240,21466,1,0,0:0:0:0:
336,352,21561,1,0,0:0:0:0:
344,232,21656,1,0,0:0:0:0:
388,328,21751,6,0,P|432:328|400:276,1,125
352,288,22036,1,0,0:0:0:0:
500,360,22130,1,0,0:0:0:0:
492,304,22225,1,0,0:0:0:0:
484,248,22320,2,0,L|475:186,1,62.5
328,48,22510,1,0,0:0:0:0:
296,156,22700,1,0,0:0:0:0:
216,80,22889,5,0,0:0:0:0:
232,72,22984,1,0,0:0:0:0:
248,64,23079,1,0,0:0:0:0:
120,240,23269,5,0,0:0:0:0:
80,200,23364,1,0,0:0:0:0:
40,160,23459,2,0,L|56:92,1,62.5
120,240,23649,2,0,L|104:308,1,62.5
80,200,23838,2,0,L|96:132,1,62.5
160,280,24028,2,0,L|144:348,1,62.5
120,240,24218,2,0,L|136:172,1,62.5
200,320,24408,1,0,0:0:0:0:
160,280,24597,1,0,0:0:0:0:
475,186,24787,5,0,0:0:0:0:
432,370,24977,1,0,0:0:0:0:
408,320,25072,1,0,0:0:0:0:
376,368,25167,2,0,P|350:321|364:284,1,62.5
382,267,25356,2,0,P|435:267|460:298,1,62.5
466,322,25546,1,0,0:0:0:0:
280,328,25736,5,0,0:0:0:0:
285,303,25831,1,0,0:0:0:0:
291,278,25926,1,0,0:0:0:0:
297,254,26021,1,0,0:0:0:0:
56,356,26305,6,0,P|48:320|92:264,1,62.5
84,252,26495,2,0,P|92:216|48:160,1,62.5
60,144,26685,1,0,0:0:0:0:
40,92,26780,1,0,0:0:0:0:
64,40,26875,1,0,0:0:0:0:
116,24,26969,1,0,0:0:0:0:
168,40,27064,6,0,L|240:56,1,62.5
284,68,27254,2,0,L|356:84,1,62.5
400,96,27444,2,0,P|354:140|298:113,1,125
380,40,27823,5,0,0:0:0:0:
420,248,28013,1,0,0:0:0:0:
488,128,28203,1,0,0:0:0:0:
492,156,28298,1,0,0:0:0:0:
496,184,28393,1,0,0:0:0:0:
302,120,28582,5,0,0:0:0:0:
342,328,28772,1,0,0:0:0:0:
412,208,28962,1,0,0:0:0:0:
416,228,29057,1,0,0:0:0:0:
420,248,29152,1,0,0:0:0:0:
256,376,29341,6,0,P|212:360|204:296,1,62.5
184,236,29531,2,0,P|192:282|140:321,1,62.5
148,336,29721,1,0,0:0:0:0:
92,352,29816,1,0,0:0:0:0:
44,324,29911,1,0,0:0:0:0:
20,272,30006,1,0,0:0:0:0:
24,216,30101,2,0,L|96:164,1,62.5
184,236,30290,1,0,0:0:0:0:
144,48,30480,5,0,0:0:0:0:
128,100,30575,1,0,0:0:0:0:
152,56,30670,1,0,0:0:0:0:
148,120,30765,1,0,0:0:0:0:
164,60,30860,6,0,P|216:72|284:12,1,125
273,35,31144,1,0,0:0:0:0:
316,144,31239,2,0,P|264:156|196:96,1,125
206,119,31523,1,0,0:0:0:0:
164,228,31619,2,0,P|216:240|284:180,1,125
274,203,31903,1,0,0:0:0:0:
316,312,31998,5,0,0:0:0:0:
288,308,32093,1,0,0:0:0:0:
260,304,32188,1,0,0:0:0:0:
412,376,32378,5,0,0:0:0:0:
420,328,32473,1,0,0:0:0:0:
428,280,32568,1,0,0:0:0:0:
436,232,32662,1,0,0:0:0:0:
352,152,32757,5,0,0:0:0:0:
360,200,32852,1,0,0:0:0:0:
368,248,32947,1,0,0:0:0:0:
376,296,33041,1,0,0:0:0:0:
480,200,33137,6,0,P|456:180|424:179,1,62.5
312,232,33327,2,0,P|281:230|257:210,1,62.5
228,76,33516,1,0,0:0:0:0:
144,352,33706,1,0,0:0:0:0:
144,352,33896,5,0,0:0:0:0:
44,251,34086,1,0,0:0:0:0:
144,251,34275,1,0,0:0:0:0:
44,351,34465,1,0,0:0:0:0:
424,256,34655,5,0,0:0:0:0:
364,336,34845,1,0,0:0:0:0:
448,312,35034,1,0,0:0:0:0:
320,288,35224,1,0,0:0:0:0:
448,28,35414,5,0,0:0:0:0:
408,132,35604,1,0,0:0:0:0:
368,28,35794,1,0,0:0:0:0:
324,132,35983,1,0,0:0:0:0:
64,28,36173,5,0,0:0:0:0:
104,132,36363,1,0,0:0:0:0:
144,28,36553,1,0,0:0:0:0:
188,132,36742,1,0,0:0:0:0:
192,276,36932,6,0,L|284:252,1,62.5
204,328,37122,1,0,0:0:0:0:
204,328,37217,1,0,0:0:0:0:
131,291,37312,6,0,L|223:267,1,62.5
143,343,37502,1,0,0:0:0:0:
143,343,37597,1,0,0:0:0:0:
70,306,37691,2,0,L|162:282,1,62.5
264,312,37881,2,0,L|172:336,1,62.5
24,268,38071,2,0,L|146:236,1,125
288,360,38355,1,0,0:0:0:0:
288,360,38450,5,0,0:0:0:0:
316,316,38545,1,0,0:0:0:0:
292,272,38640,1,0,0:0:0:0:
244,264,38735,1,0,0:0:0:0:
264,312,38830,5,0,0:0:0:0:
292,272,38925,1,0,0:0:0:0:
276,224,39020,1,0,0:0:0:0:
228,216,39114,1,0,0:0:0:0:
160,304,39209,5,0,0:0:0:0:
144,236,39304,1,0,0:0:0:0:
128,168,39399,2,0,L|108:76,1,62.5
60,257,39589,5,0,0:0:0:0:
144,236,39684,1,0,0:0:0:0:
228,216,39779,2,0,L|341:191,1,62.5
440,168,39968,6,0,P|400:144|352:216,1,125
412,256,40253,1,0,0:0:0:0:
488,200,40348,1,0,0:0:0:0:
492,144,40443,1,0,0:0:0:0:
496,88,40538,1,0,0:0:0:0:
484,256,40727,1,0,0:0:0:0:
496,88,40917,1,0,0:0:0:0:
444,316,41107,5,0,0:0:0:0:
428,324,41202,1,0,0:0:0:0:
412,332,41297,1,0,0:0:0:0:
212,292,41486,6,0,L|228:356,1,62.5
256,268,41676,2,0,P|208:240|168:264,1,62.5
160,276,41866,2,0,P|129:270|108:248,1,62.5
137,163,42056,2,0,L|152:223,1,62.5
88,364,42246,5,0,0:0:0:0:
32,376,42340,1,0,0:0:0:0:
3,328,42435,1,0,0:0:0:0:
40,285,42530,1,0,0:0:0:0:
92,307,42625,1,0,0:0:0:0:
144,329,42720,1,0,0:0:0:0:
181,286,42815,1,0,0:0:0:0:
152,238,42910,1,0,0:0:0:0:
96,250,43005,5,0,0:0:0:0:
108,152,43194,2,0,L|20:128,1,62.5
208,226,43384,1,0,0:0:0:0:
228,104,43574,2,0,L|140:80,1,62.5
320,202,43764,1,0,0:0:0:0:
348,72,43953,2,0,L|260:48,1,62.5
432,178,44144,5,0,0:0:0:0:
440,156,44238,1,0,0:0:0:0:
448,134,44333,1,0,0:0:0:0:
352,284,44523,5,0,0:0:0:0:
308,240,44618,1,0,0:0:0:0:
360,280,44712,1,0,0:0:0:0:
324,216,44807,1,0,0:0:0:0:
368,280,44902,1,0,0:0:0:0:
352,204,44997,1,0,0:0:0:0:
375,284,45092,2,0,P|384:320|376:364,1,62.5
176,284,45282,5,0,0:0:0:0:
192,224,45377,1,0,0:0:0:0:
212,164,45472,1,0,0:0:0:0:
244,324,45661,1,0,0:0:0:0:
148,120,45851,1,0,0:0:0:0:
56,284,46041,5,0,0:0:0:0:
76,136,46231,1,0,0:0:0:0:
88,168,46325,1,0,0:0:0:0:
100,200,46420,1,0,0:0:0:0:
112,232,46515,1,0,0:0:0:0:
124,264,46610,1,0,0:0:0:0:
144,120,46800,1,0,0:0:0:0:
220,336,46990,6,0,L|240:272,1,62.5
256,372,47179,2,0,P|215:387|172:320,1,125
284,172,47559,5,0,0:0:0:0:
345,141,47654,1,0,0:0:0:0:
375,203,47749,1,0,0:0:0:0:
314,233,47844,1,0,0:0:0:0:
216,188,47938,5,0,0:0:0:0:
220,168,48033,1,0,0:0:0:0:
224,148,48128,1,0,0:0:0:0:
228,128,48223,1,0,0:0:0:0:
234,237,48318,2,0,P|202:239|164:180,1,62.5
210,78,48508,2,0,P|240:75|267:91,1,62.5
132,200,48698,2,0,L|164:60,1,125
314,233,49077,5,0,0:0:0:0:
212,305,49267,2,0,L|152:349,1,62.5
314,182,49457,1,0,0:0:0:0:
416,254,49646,2,0,L|476:298,1,62.5
314,131,49836,1,0,0:0:0:0:
212,203,50026,2,0,L|152:247,1,62.5
314,80,50216,5,0,0:0:0:0:
324,68,50311,1,0,0:0:0:0:
334,56,50405,1,0,0:0:0:0:
120,80,50595,5,0,0:0:0:0:
104,128,50690,1,0,0:0:0:0:
88,176,50785,1,0,0:0:0:0:
72,224,50880,1,0,0:0:0:0:
172,356,50975,5,0,0:0:0:0:
156,308,51070,1,0,0:0:0:0:
140,260,51165,1,0,0:0:0:0:
124,212,51260,1,0,0:0:0:0:
56,348,51354,6,0,L|120:348,1,62.5
272,316,51544,2,0,L|208:316,1,62.5
24,368,51734,2,0,L|180:368,1,125
456,268,52113,5,0,0:0:0:0:
388,340,52303,1,0,0:0:0:0:
408,244,52493,1,0,0:0:0:0:
452,368,52683,1,0,0:0:0:0:
472,24,52872,5,0,0:0:0:0:
428,112,53062,1,0,0:0:0:0:
372,28,53252,1,0,0:0:0:0:
472,24,53442,1,0,0:0:0:0:
168,352,53631,5,0,0:0:0:0:
108,272,53821,1,0,0:0:0:0:
104,372,54011,1,0,0:0:0:0:
172,300,54201,1,0,0:0:0:0:
76,36,54391,5,0,0:0:0:0:
140,112,54580,1,0,0:0:0:0:
40,128,54770,1,0,0:0:0:0:
76,36,54960,1,0,0:0:0:0:
320,176,55150,5,0,0:0:0:0:
287,130,55245,1,0,0:0:0:0:
233,148,55340,1,0,0:0:0:0:
233,204,55435,1,0,0:0:0:0:
287,222,55529,1,0,0:0:0:0:
287,278,55624,1,0,0:0:0:0:
233,296,55719,1,0,0:0:0:0:
200,250,55814,1,0,0:0:0:0:
364,244,55909,6,0,L|352:316,1,62.5
464,220,56098,2,0,L|453:158,1,62.5
384,136,56288,2,0,L|372:208,1,62.5
483,330,56478,2,0,L|472:268,1,62.5
372,56,56668,5,0,0:0:0:0:
352,60,56763,1,0,0:0:0:0:
332,64,56857,1,0,0:0:0:0:
316,68,56952,1,0,0:0:0:0:
312,120,57047,5,0,0:0:0:0:
280,112,57142,1,0,0:0:0:0:
248,104,57237,1,0,0:0:0:0:
216,96,57332,1,0,0:0:0:0:
96,108,57427,5,0,0:0:0:0:
140,84,57522,1,0,0:0:0:0:
144,136,57617,1,0,0:0:0:0:
100,112,57712,1,0,0:0:0:0:
96,164,57806,1,0,0:0:0:0:
140,140,57901,1,0,0:0:0:0:
144,192,57996,1,0,0:0:0:0:
100,168,58091,1,0,0:0:0:0:
100,224,58186,6,0,P|160:244|197:198,1,125
40,148,58470,1,0,0:0:0:0:
40,148,58565,1,0,0:0:0:0:
32,196,58660,1,0,0:0:0:0:
24,244,58755,1,0,0:0:0:0:
148,344,58945,1,0,0:0:0:0:
28,344,59135,1,0,0:0:0:0:
88,324,59230,1,0,0:0:0:0:
148,344,59324,5,0,0:0:0:0:
168,336,59419,1,0,0:0:0:0:
188,328,59514,1,0,0:0:0:0:
376,344,59704,6,0,L|356:264,1,62.5
256,228,59894,2,0,L|276:148,1,62.5
384,352,60083,2,0,L|364:272,1,62.5
252,220,60273,2,0,L|272:140,1,62.5
300,236,60463,5,0,0:0:0:0:
264,272,60558,1,0,0:0:0:0:
216,260,60653,1,0,0:0:0:0:
200,212,60748,1,0,0:0:0:0:
267,159,60843,2,0,L|252:220,1,62.5
360,120,61032,2,0,L|344:59,1,62.5
267,159,61222,5,0,0:0:0:0:
176,72,61412,5,0,0:0:0:0:
172,80,61507,1,0,0:0:0:0:
232,108,61602,1,0,0:0:0:0:
109,78,61792,5,0,0:0:0:0:
110,87,61887,1,0,0:0:0:0:
172,80,61981,1,0,0:0:0:0:
50,115,62171,5,0,0:0:0:0:
55,122,62266,1,0,0:0:0:0:
110,87,62361,1,0,0:0:0:0:
68,56,62456,1,0,0:0:0:0:
20,68,62550,1,0,0:0:0:0:
75,335,62740,5,0,0:0:0:0:
146,303,62835,1,0,0:0:0:0:
125,355,62930,1,0,0:0:0:0:
95,283,63025,1,0,0:0:0:0:
69,337,63120,5,0,0:0:0:0:
153,300,63215,1,0,0:0:0:0:
127,361,63310,1,0,0:0:0:0:
93,276,63405,1,0,0:0:0:0:
62,339,63499,6,0,P|35:316|24:272,1,62.5
54,217,63689,2,0,P|87:205|131:217,1,62.5
163,271,63879,2,0,P|156:305|123:337,1,62.5
93,276,64069,1,0,0:0:0:0:
296,48,64258,6,0,L|432:24,1,125
409,100,64543,1,0,0:0:0:0:
409,100,64638,2,0,L|295:47,1,125
285,121,64922,1,0,0:0:0:0:
285,121,65017,2,0,L|408:99,1,125
398,173,65302,1,0,0:0:0:0:
398,173,65397,5,0,0:0:0:0:
340,148,65492,1,0,0:0:0:0:
285,121,65587,1,0,0:0:0:0:
72,208,65776,5,0,0:0:0:0:
80,164,65871,1,0,0:0:0:0:
88,120,65966,1,0,0:0:0:0:
96,76,66061,1,0,0:0:0:0:
124,148,66156,5,0,0:0:0:0:
132,192,66251,1,0,0:0:0:0:
140,236,66346,1,0,0:0:0:0:
148,280,66441,1,0,0:0:0:0:
176,204,66536,5,0,0:0:0:0:
184,160,66631,1,0,0:0:0:0:
192,116,66726,1,0,0:0:0:0:
200,72,66821,1,0,0:0:0:0:
221,189,66915,6,0,P|204:244|152:244,1,93.75
84,228,67105,1,0,0:0:0:0:
72,276,67200,1,0,0:0:0:0:
60,324,67295,6,0,P|96:320|120:292,1,62.5
124,288,67484,1,0,0:0:0:0:
128,268,67579,1,0,0:0:0:0:
160,328,67674,2,0,P|196:324|220:296,1,62.5
224,292,67863,1,0,0:0:0:0:
228,272,67958,1,0,0:0:0:0:
272,324,68054,6,0,P|320:344|340:276,1,125
340,276,68338,1,0,0:0:0:0:
400,364,68433,1,0,0:0:0:0:
404,344,68528,1,0,0:0:0:0:
408,324,68623,1,0,0:0:0:0:
348,92,68813,6,0,L|264:60,1,62.5
277,118,69002,2,0,L|348:90,1,74.9999977111817
358,149,69192,2,0,L|265:113,1,87.499997329712
264,184,69382,2,0,L|373:142,1,100
369,224,69572,2,0,L|259:182,1,112.499996566773
252,268,69762,2,0,L|393:213,1,125
376,312,69951,5,0,0:0:0:0:
236,360,70141,1,0,0:0:0:0:
56,48,70331,5,0,0:0:0:0:
84,116,70521,1,0,0:0:0:0:
56,48,70710,1,0,0:0:0:0:
84,116,70900,1,0,0:0:0:0:
64,352,71090,5,0,0:0:0:0:
84,280,71280,1,0,0:0:0:0:
156,304,71469,1,0,0:0:0:0:
136,376,71659,1,0,0:0:0:0:
360,32,71849,5,0,0:0:0:0:
340,104,72039,1,0,0:0:0:0:
360,32,72228,1,0,0:0:0:0:
340,104,72418,1,0,0:0:0:0:
376,376,72608,5,0,0:0:0:0:
356,304,72798,1,0,0:0:0:0:
428,280,72987,1,0,0:0:0:0:
448,352,73177,1,0,0:0:0:0:
168,332,73367,5,0,0:0:0:0:
132,320,73462,1,0,0:0:0:0:
132,282,73557,1,0,0:0:0:0:
168,271,73652,1,0,0:0:0:0:
190,301,73747,1,0,0:0:0:0:
226,290,73842,1,0,0:0:0:0:
226,252,73937,1,0,0:0:0:0:
190,240,74032,1,0,0:0:0:0:
168,271,74126,5,0,0:0:0:0:
121,255,74221,1,0,0:0:0:0:
121,207,74316,1,0,0:0:0:0:
168,192,74411,1,0,0:0:0:0:
196,231,74506,1,0,0:0:0:0:
243,216,74601,1,0,0:0:0:0:
243,168,74696,1,0,0:0:0:0:
196,152,74791,1,0,0:0:0:0:
168,192,74885,5,0,0:0:0:0:
148,184,74980,1,0,0:0:0:0:
128,176,75075,2,0,L|100:104,1,62.5
208,32,75265,5,0,0:0:0:0:
212,52,75360,1,0,0:0:0:0:
268,88,75454,1,0,0:0:0:0:
264,68,75549,1,0,0:0:0:0:
192,20,75644,2,0,L|204:96,1,62.5
284,108,75834,2,0,L|274:46,1,62.5
244,160,76024,6,0,B|307:201|352:140|348:112|348:112|388:52|388:52|404:120|404:120|380:96,1,312.5
488,360,80496,6,0,B|68:360|68:360|120:324|120:324|64:324|64:324|116:288|116:288|68:288|68:288|112:248|112:248|72:248|72:248|149:210|110:111|33:109|-20:164|-2:209|21:241|21:241|56:196|56:196|56:136|56:136|104:92|104:92|104:28|104:28|80:56|41:55|16:28|16:28|16:92|16:92|56:136|56:136|132:136|132:136|163:175|150:221|150:221|164:240|156:264|156:264|166:281|160:301|160:301|175:314|175:314|403:314|403:314|312:216|312:216|418:103|418:103|515:195|515:195|430:275|430:275|376:216|376:216|420:172|420:172|446:197|446:197|401:197,1,2750
480,28,90371,6,0,B|41:28|41:28|41:75|41:75|98:75|98:75|98:124|98:124|152:124|152:124|152:76|152:76|480:76|480:76|480:132|480:132|456:172|456:172|408:172|408:172|384:132|384:132|336:132|336:132|308:172|308:172|260:172|260:172|232:132|232:132|136:176|48:336|196:376|232:308|232:308|256:360|360:356|368:208|240:228|240:228|284:204|376:220|378:344|294:368|232:335|232:335|144:384|100:286|100:286|60:368|60:368|20:284|20:284|56:228|56:228|56:280,1,2750
88,80,100245,6,0,B|51:87|-101:143|-25:312|16:340|102:366|160:340|160:340|125:343|100:328|100:328|131:330|160:320|160:320|130:321|108:308|108:308|134:311|156:300|156:300|134:303|116:292|116:292|56:276|8:224|40:124|144:92|189:191|189:191|148:248|148:248|205:249|205:249|236:204|236:204|296:204|296:204|260:256|260:256|320:256|320:256|352:208|352:208|304:312|388:368|388:368|416:320|416:320|440:368|440:368|536:320|476:197|476:197|448:216|440:256|440:256|368:128|448:28|448:28|496:84|480:136|480:136|448:120|448:120|408:136|408:136|368:120|368:120|328:136|328:136|288:120|288:120|234:136|234:136|192:80|144:72|120:76,1,2750
256,16,110120,6,0,B|468:360|468:360|488:288|488:288|449:244|449:244|436:201|436:201|408:176|408:176|392:132|392:132|360:100|360:100|312:22|312:22|304:60|280:84|230:67|230:67|204:24|204:24|168:8|124:24|124:24|152:84|152:84|116:112|72:100|72:100|44:40|44:40|0:32|-32:64|-32:64|0:136|0:136|105:138|160:184|136:328|32:320|32:320|84:280|144:240|80:152|4:160|4:160|128:220|4:328|4:328|88:344|144:332|160:216|152:188|152:188|208:116|208:116|280:152|280:152|337:248,1,2718.75
100,56,122276,5,0,0:0:0:0:
104,76,122368,1,0,0:0:0:0:
184,96,122460,5,0,0:0:0:0:
180,76,122552,1,0,0:0:0:0:
136,116,122645,5,0,0:0:0:0:
140,136,122737,1,0,0:0:0:0:
220,156,122829,5,0,0:0:0:0:
216,136,122921,1,0,0:0:0:0:
172,176,123014,5,0,0:0:0:0:
176,196,123106,1,0,0:0:0:0:
180,216,123199,1,0,0:0:0:0:
184,236,123291,1,0,0:0:0:0:
188,256,123383,1,0,0:0:0:0:
192,276,123476,1,0,0:0:0:0:
196,296,123568,1,0,0:0:0:0:
200,316,123660,1,0,0:0:0:0:
296,352,123752,5,0,0:0:0:0:
304,336,123845,1,0,0:0:0:0:
264,268,123937,5,0,0:0:0:0:
256,284,124030,1,0,0:0:0:0:
316,288,124122,5,0,0:0:0:0:
324,272,124215,1,0,0:0:0:0:
284,204,124307,5,0,0:0:0:0:
276,220,124400,1,0,0:0:0:0:
332,220,124491,5,0,0:0:0:0:
340,204,124584,1,0,0:0:0:0:
348,188,124676,1,0,0:0:0:0:
356,172,124768,1,0,0:0:0:0:
364,156,124860,1,0,0:0:0:0:
372,140,124952,1,0,0:0:0:0:
380,124,125045,1,0,0:0:0:0:
388,108,125137,1,0,0:0:0:0:
376,44,125229,5,0,0:0:0:0:
356,44,125322,1,0,0:0:0:0:
336,44,125414,1,0,0:0:0:0:
316,44,125506,1,0,0:0:0:0:
292,88,125599,5,0,0:0:0:0:
272,88,125692,1,0,0:0:0:0:
252,88,125784,1,0,0:0:0:0:
232,88,125876,1,0,0:0:0:0:
216,44,125968,5,0,0:0:0:0:
196,44,126061,1,0,0:0:0:0:
176,44,126153,1,0,0:0:0:0:
156,44,126245,1,0,0:0:0:0:
136,44,126337,1,0,0:0:0:0:
116,44,126429,1,0,0:0:0:0:
96,44,126522,1,0,0:0:0:0:
76,44,126614,1,0,0:0:0:0:
28,92,126706,5,0,0:0:0:0:
24,112,126799,1,0,0:0:0:0:
24,132,126891,1,0,0:0:0:0:
28,152,126983,1,0,0:0:0:0:
100,168,127076,5,0,0:0:0:0:
104,188,127169,1,0,0:0:0:0:
104,208,127261,1,0,0:0:0:0:
100,228,127353,1,0,0:0:0:0:
28,256,127445,5,0,0:0:0:0:
24,276,127538,1,0,0:0:0:0:
24,296,127630,1,0,0:0:0:0:
28,316,127722,1,0,0:0:0:0:
40,336,127814,1,0,0:0:0:0:
64,352,127906,1,0,0:0:0:0:
100,360,127999,1,0,0:0:0:0:
144,348,128091,1,0,0:0:0:0:
180,316,128183,5,0,0:0:0:0:
184,292,128276,1,0,0:0:0:0:
256,268,128368,5,0,0:0:0:0:
252,292,128461,1,0,0:0:0:0:
212,240,128552,5,0,0:0:0:0:
216,216,128645,1,0,0:0:0:0:
288,192,128737,5,0,0:0:0:0:
284,216,128830,1,0,0:0:0:0:
248,160,128922,5,0,0:0:0:0:
252,136,129015,1,0,0:0:0:0:
256,112,129106,1,0,0:0:0:0:
260,88,129199,1,0,0:0:0:0:
280,76,129291,1,0,0:0:0:0:
304,68,129383,1,0,0:0:0:0:
328,60,129476,1,0,0:0:0:0:
352,52,129568,1,0,0:0:0:0:
440,84,129660,5,0,0:0:0:0:
436,108,129752,1,0,0:0:0:0:
352,144,129845,5,0,0:0:0:0:
356,120,129937,1,0,0:0:0:0:
408,156,130029,5,0,0:0:0:0:
404,180,130121,1,0,0:0:0:0:
320,216,130214,5,0,0:0:0:0:
324,192,130306,1,0,0:0:0:0:
372,220,130399,5,0,0:0:0:0:
368,244,130491,1,0,0:0:0:0:
364,268,130583,1,0,0:0:0:0:
360,292,130676,1,0,0:0:0:0:
336,296,130768,1,0,0:0:0:0:
312,300,130860,1,0,0:0:0:0:
288,304,130952,1,0,0:0:0:0:
264,308,131045,1,0,0:0:0:0:
192,300,131137,5,0,0:0:0:0:
184,276,131229,1,0,0:0:0:0:
176,252,131322,1,0,0:0:0:0:
168,228,131414,1,0,0:0:0:0:
104,240,131506,5,0,0:0:0:0:
112,216,131598,1,0,0:0:0:0:
120,192,131691,1,0,0:0:0:0:
128,168,131783,1,0,0:0:0:0:
196,188,131876,5,0,0:0:0:0:
188,164,131968,1,0,0:0:0:0:
180,140,132061,1,0,0:0:0:0:
172,116,132153,1,0,0:0:0:0:
164,92,132245,1,0,0:0:0:0:
156,68,132337,1,0,0:0:0:0:
148,44,132429,1,0,0:0:0:0:
140,20,132522,1,0,0:0:0:0:
216,56,132614,5,0,0:0:0:0:
240,64,132706,1,0,0:0:0:0:
264,64,132799,1,0,0:0:0:0:
288,56,132891,1,0,0:0:0:0:
336,24,132983,5,0,0:0:0:0:
360,16,133075,1,0,0:0:0:0:
384,16,133168,1,0,0:0:0:0:
408,24,133260,1,0,0:0:0:0:
448,56,133352,5,0,0:0:0:0:
460,80,133445,1,0,0:0:0:0:
464,108,133537,1,0,0:0:0:0:
460,136,133629,1,0,0:0:0:0:
444,164,133722,1,0,0:0:0:0:
428,196,133814,1,0,0:0:0:0:
428,240,133906,1,0,0:0:0:0:
444,288,133999,1,0,0:0:0:0:
492,316,134091,6,0,P|512:296|504:228,1,62.5
388,276,134276,2,0,P|368:296|376:364,1,62.5
495,287,134460,2,0,P|502:260|461:205,1,62.5
384,304,134645,2,0,P|377:332|418:386,1,62.5
400,252,134829,5,0,0:0:0:0:
368,248,134922,1,0,0:0:0:0:
336,244,135014,1,0,0:0:0:0:
304,240,135106,1,0,0:0:0:0:
272,236,135199,1,0,0:0:0:0:
240,232,135291,1,0,0:0:0:0:
208,228,135383,1,0,0:0:0:0:
176,224,135476,1,0,0:0:0:0:
88,224,135568,6,0,P|72:272|96:312,1,62.5
176,336,135752,2,0,P|192:288|168:248,1,62.5
65,253,135937,2,0,P|76:303|116:325,1,62.5
198,306,136121,2,0,P|187:256|147:234,1,62.5
220,360,136306,5,0,0:0:0:0:
236,332,136399,1,0,0:0:0:0:
252,304,136491,1,0,0:0:0:0:
268,276,136583,1,0,0:0:0:0:
284,248,136676,1,0,0:0:0:0:
300,220,136768,1,0,0:0:0:0:
316,192,136860,1,0,0:0:0:0:
332,164,136952,1,0,0:0:0:0:
392,104,137045,6,0,L|408:188,1,62.5
464,240,137229,2,0,L|448:324,1,62.5
380,96,137414,2,0,L|396:180,1,62.5
472,252,137598,2,0,L|456:336,1,62.5
352,312,137783,5,0,0:0:0:0:
324,300,137876,1,0,0:0:0:0:
292,300,137968,1,0,0:0:0:0:
264,316,138060,1,0,0:0:0:0:
232,324,138152,1,0,0:0:0:0:
204,308,138245,1,0,0:0:0:0:
200,276,138337,1,0,0:0:0:0:
220,252,138429,1,0,0:0:0:0:
284,248,138522,5,0,0:0:0:0:
276,216,138614,1,0,0:0:0:0:
268,184,138706,1,0,0:0:0:0:
260,152,138799,1,0,0:0:0:0:
188,184,138891,5,0,0:0:0:0:
196,152,138983,1,0,0:0:0:0:
204,120,139075,1,0,0:0:0:0:
212,88,139168,1,0,0:0:0:0:
280,52,139260,5,0,0:0:0:0:
312,44,139352,1,0,0:0:0:0:
344,52,139445,1,0,0:0:0:0:
368,72,139537,1,0,0:0:0:0:
388,104,139629,1,0,0:0:0:0:
424,132,139722,1,0,0:0:0:0:
472,124,139814,1,0,0:0:0:0:
500,76,139906,1,0,0:0:0:0:
484,20,139999,6,0,P|444:57|446:96,1,62.5
416,216,140183,2,0,P|456:179|454:140,1,62.5
430,16,140368,2,0,P|414:68|435:100,1,62.5
469,219,140552,2,0,P|485:167|464:135,1,62.5
368,232,140737,5,0,0:0:0:0:
332,236,140829,1,0,0:0:0:0:
296,240,140922,1,0,0:0:0:0:
260,244,141014,1,0,0:0:0:0:
224,248,141106,1,0,0:0:0:0:
188,252,141199,1,0,0:0:0:0:
152,256,141291,1,0,0:0:0:0:
116,260,141383,1,0,0:0:0:0:
44,260,141476,6,0,B|40:228|40:228|76:176,1,62.5
176,300,141660,2,0,B|180:332|180:332|144:384,1,62.5
62,229,141845,2,0,B|75:199|75:199|132:172,1,62.5
157,330,142029,2,0,B|144:360|144:360|87:387,1,62.5
116,260,142214,5,0,0:0:0:0:
140,232,142306,1,0,0:0:0:0:
164,204,142399,1,0,0:0:0:0:
188,176,142491,1,0,0:0:0:0:
212,148,142583,1,0,0:0:0:0:
236,120,142676,1,0,0:0:0:0:
260,92,142768,1,0,0:0:0:0:
284,64,142860,1,0,0:0:0:0:
368,20,142952,6,0,L|392:108,1,62.5
300,196,143137,2,0,L|276:108,1,62.5
380,8,143322,2,0,L|404:96,1,62.5
288,208,143506,2,0,L|264:120,1,62.5
424,184,143691,5,0,0:0:0:0:
424,220,143783,1,0,0:0:0:0:
412,256,143876,1,0,0:0:0:0:
384,280,143968,1,0,0:0:0:0:
368,312,144060,1,0,0:0:0:0:
376,348,144152,1,0,0:0:0:0:
412,364,144245,1,0,0:0:0:0:
448,348,144337,1,0,0:0:0:0:
488,288,144429,5,0,0:0:0:0:
484,252,144522,1,0,0:0:0:0:
480,216,144614,1,0,0:0:0:0:
476,180,144706,1,0,0:0:0:0:
432,112,144799,5,0,0:0:0:0:
428,148,144891,1,0,0:0:0:0:
424,184,144983,1,0,0:0:0:0:
420,220,145076,1,0,0:0:0:0:
356,288,145168,5,0,0:0:0:0:
324,308,145260,1,0,0:0:0:0:
289,297,145352,1,0,0:0:0:0:
275,262,145445,1,0,0:0:0:0:
288,220,145536,1,0,0:0:0:0:
276,172,145629,1,0,0:0:0:0:
224,152,145721,1,0,0:0:0:0:
176,192,145813,1,0,0:0:0:0:
192,252,145899,5,0,0:0:0:0:
100,360,146088,5,0,0:0:0:0:
80,336,146183,1,0,0:0:0:0:
112,331,146278,1,0,0:0:0:0:
320,252,146468,5,0,0:0:0:0:
320,252,146563,1,0,0:0:0:0:
320,252,146658,1,0,0:0:0:0:
400,360,146847,5,0,0:0:0:0:
428,325,146942,1,0,0:0:0:0:
383,318,147037,1,0,0:0:0:0:
192,132,147227,5,0,0:0:0:0:
192,132,147322,1,0,0:0:0:0:
192,132,147417,1,0,0:0:0:0:
100,32,147606,5,0,0:0:0:0:
57,84,147701,1,0,0:0:0:0:
124,96,147796,1,0,0:0:0:0:
320,132,147986,5,0,0:0:0:0:
320,132,148081,1,0,0:0:0:0:
320,132,148176,1,0,0:0:0:0:
432,16,148365,5,0,0:0:0:0:
496,94,148460,1,0,0:0:0:0:
396,104,148555,1,0,0:0:0:0:
256,328,148746,5,0,0:0:0:0:
192,104,148936,6,0,L|316:60,1,125
309,145,149220,1,0,0:0:0:0:
309,145,149315,2,0,L|185:101,1,125
191,186,149600,1,0,0:0:0:0:
191,186,149695,2,0,L|315:142,1,125
308,227,149979,1,0,0:0:0:0:
308,227,150074,5,0,0:0:0:0:
249,206,150168,1,0,0:0:0:0:
190,185,150263,1,0,0:0:0:0:
80,340,150454,5,0,0:0:0:0:
64,296,150549,1,0,0:0:0:0:
88,336,150644,1,0,0:0:0:0:
80,280,150739,1,0,0:0:0:0:
96,336,150834,1,0,0:0:0:0:
104,272,150929,1,0,0:0:0:0:
103,338,151023,1,0,0:0:0:0:
128,276,151118,1,0,0:0:0:0:
156,360,151213,5,0,0:0:0:0:
200,348,151308,1,0,0:0:0:0:
244,340,151403,1,0,0:0:0:0:
288,328,151498,1,0,0:0:0:0:
344,288,151593,6,0,P|348:348|364:360,1,62.5
428,340,151783,2,0,P|424:280|408:268,1,62.5
376,232,151973,5,0,0:0:0:0:
216,256,152162,5,0,0:0:0:0:
164,232,152257,1,0,0:0:0:0:
160,176,152352,1,0,0:0:0:0:
168,156,152447,1,0,0:0:0:0:
176,136,152542,1,0,0:0:0:0:
256,40,152732,2,0,P|288:100|280:124,1,62.5
212,200,152922,2,0,P|218:169|239:146,1,62.5
373,159,153111,5,0,0:0:0:0:
343,168,153205,1,0,0:0:0:0:
313,161,153300,1,0,0:0:0:0:
440,112,153491,5,0,0:0:0:0:
470,142,153586,1,0,0:0:0:0:
439,172,153681,1,0,0:0:0:0:
469,202,153776,1,0,0:0:0:0:
438,232,153871,1,0,0:0:0:0:
468,262,153966,1,0,0:0:0:0:
437,292,154061,1,0,0:0:0:0:
467,322,154156,1,0,0:0:0:0:
404,352,154250,5,0,0:0:0:0:
360,328,154345,1,0,0:0:0:0:
308,328,154440,1,0,0:0:0:0:
268,356,154535,1,0,0:0:0:0:
196,360,154630,2,0,B|232:308|232:308|180:232,1,125
44,220,155010,6,0,P|120:220|168:160,1,125
180,148,155294,1,0,0:0:0:0:
128,312,155389,2,0,L|168:188,1,125
180,148,155674,1,0,0:0:0:0:
228,312,155769,2,0,L|188:188,1,125
180,148,156053,1,0,0:0:0:0:
312,220,156148,5,0,0:0:0:0:
288,216,156242,1,0,0:0:0:0:
264,212,156337,1,0,0:0:0:0:
420,100,156528,5,0,0:0:0:0:
424,120,156623,1,0,0:0:0:0:
384,168,156718,5,0,0:0:0:0:
364,172,156813,1,0,0:0:0:0:
316,132,156908,5,0,0:0:0:0:
312,112,157003,1,0,0:0:0:0:
352,64,157097,5,0,0:0:0:0:
372,60,157192,1,0,0:0:0:0:
420,100,157287,5,0,0:0:0:0:
424,120,157382,1,0,0:0:0:0:
428,140,157477,1,0,0:0:0:0:
432,160,157572,1,0,0:0:0:0:
444,224,157667,6,0,L|455:285,1,62.5
372,229,157857,2,0,L|383:167,1,62.5
376,312,158047,6,0,L|220:308,1,125
224,264,158331,1,0,0:0:0:0:
348,267,158426,2,0,L|192:263,1,125
196,219,158710,1,0,0:0:0:0:
320,222,158806,2,0,L|164:218,1,125
168,174,159090,1,0,0:0:0:0:
292,177,159185,5,0,0:0:0:0:
229,175,159279,1,0,0:0:0:0:
167,173,159374,1,0,0:0:0:0:
348,140,159565,5,0,0:0:0:0:
278,44,159660,1,0,0:0:0:0:
390,81,159755,1,0,0:0:0:0:
278,117,159850,1,0,0:0:0:0:
348,22,159945,1,0,0:0:0:0:
364,20,160040,1,0,0:0:0:0:
380,18,160134,1,0,0:0:0:0:
396,16,160229,1,0,0:0:0:0:
468,56,160324,6,0,L|456:156,1,62.5
452,192,160514,2,0,L|440:292,1,62.5
436,324,160704,2,0,P|364:352|416:292,1,187.5
492,296,161107,5,0,0:0:0:0:
