osu file format v14

[General]
AudioFilename: audio.mp3
AudioLeadIn: 0
PreviewTime: 3249
Countdown: 0
SampleSet: Soft
StackLeniency: 0.4
Mode: 0
LetterboxInBreaks: 0
WidescreenStoryboard: 0

[Editor]
Bookmarks: 15678,16247,16437,17196,17576,17766,17955,19473,20233,20992,26305,34654,35034,35224,35319,35414,35603,35793,35983,36173,37691,38450,52113,52682,52872,53631,54010,54200,54390,55149,55908,56667,70899,71089,71468,71658,71753,71848,72228,72417,72607,72987,73081,73176,122829,123014,123752,124491,125229,125599,125691,125968,126706,127445,128183,128368,128737,128922,129014,129660,130399,131137,131506,131599,131876,132614,133352,134091,134276,134645,134829,134922,135568,136306,137045,137414,137506,137783,138522,139260,139999,140183,140552,140737,140829,141476,142214,142952,143322,143414,143691,144429,145168
DistanceSpacing: 0.1
BeatDivisor: 1
GridSize: 32
TimelineZoom: 1.6

[Metadata]
Title:Imaginary Places
TitleUnicode:Imaginary Places
Artist:Busdriver
ArtistUnicode:Busdriver
Creator:Moreon
Version:Script's bhop lessons
Source:
Tags:phoon NeBu Busdriver Rdzeniu Streams Hatiso Moreon Rap sbsonic Andemu Asrasz LukerMaster Chalwa CptSqBany DominiGG AnySense squirrelpascals Fieryrage tem Squishi Soiplox Script
BeatmapID:1395957
BeatmapSetID:632870

[Difficulty]
HPDrainRate:6
CircleSize:4
OverallDifficulty:7.8
ApproachRate:9
SliderMultiplier:1.8
SliderTickRate:1

[Events]
//Background and Video events
0,0,"BG.jpg",0,0
//Break Periods
2,76602,79074
2,116080,118572
2,146014,148146
//Storyboard Layer 0 (Background)
//Storyboard Layer 1 (Fail)
//Storyboard Layer 2 (Pass)
//Storyboard Layer 3 (Foreground)
//Storyboard Sound Samples

[TimingPoints]
497.668789808917,379.525605095541,4,2,0,60,1,0
18714,-100,4,2,0,60,0,1
21751,-100,4,2,0,60,0,0
33516,-133.333333333333,4,2,0,60,0,0
33895,-100,4,2,0,60,0,0
36932,-100,4,2,0,60,0,1
39968,-100,4,2,0,60,0,0
51733,-133.333333333333,4,2,0,60,0,0
52113,-121.951219512195,4,2,0,60,0,0
54769,-117.647058823529,4,2,0,60,0,0
55149,-100,4,2,0,60,0,0
55149,-100,4,2,0,60,0,1
58185,-100,4,2,0,60,0,0
69950,-133.333333333333,4,2,0,60,0,0
70330,-100,4,2,0,60,0,0
73366,-100,4,2,0,60,0,1
76402,-100,4,2,0,60,0,0
76794,411.444676258992,4,2,0,60,1,0
79674,-133.333333333333,4,2,0,40,0,0
89548,-200,4,2,0,40,0,0
90371,-133.333333333333,4,2,0,40,0,0
99423,-200,4,2,0,40,0,0
100246,-133.333333333333,4,2,0,40,0,0
109298,-200,4,2,0,40,0,0
110121,-133.333333333333,4,2,0,40,0,0
122276,369.230769230769,4,2,0,70,1,0
122276,-90.9090909090909,4,2,0,70,0,1
145899,379.625605095541,4,2,0,60,1,0
145906,-100,4,2,0,60,0,0
158806,-100,4,2,0,60,0,1
160704,-133.333333333333,4,2,0,60,0,0
160704,-133.333333333333,4,2,0,60,0,0
161107,369.125605095541,4,2,0,40,1,0
161107,-133.333333333333,4,2,0,40,0,0
164060,-153.846153846153,4,2,0,40,0,0
187459,426.625605095542,4,2,0,20,1,0

[Colours]
Combo1 : 255,192,0
Combo2 : 0,174,174
Combo3 : 41,101,31
Combo4 : 242,24,57

[HitObjects]
149,65,497,5,8,0:0:0:0:
63,133,687,2,0,L|50:206,2,45
177,239,1066,1,0,0:0:0:0:
177,239,1161,1,0,0:0:0:0:
177,239,1256,5,8,0:0:0:0:
286,335,1446,2,0,L|274:379,2,45
319,202,1826,1,0,0:0:0:0:
442,126,2015,5,8,0:0:0:0:
260,20,2395,1,8,0:0:0:0:
417,228,2774,1,8,0:0:0:0:
185,228,3154,1,8,0:0:0:0:
122,101,3344,6,0,P|69:142|46:192,1,90
0,299,3723,1,0,0:0:0:0:
138,375,3913,1,0,0:0:0:0:
138,375,4008,1,0,0:0:0:0:
138,375,4103,1,0,0:0:0:0:
201,146,4292,2,0,P|210:89|169:33,1,90,8|0,0:0|0:0,0:0:0:0:
172,32,4577,1,0,0:0:0:0:
91,16,4672,2,0,L|33:4,2,45
102,227,5051,6,0,L|157:225,2,45
285,220,5431,2,0,L|340:281,1,45
398,348,5621,2,0,L|414:286,1,45
450,132,5811,2,0,L|403:79,1,45,8|0,0:0|0:0,0:0:0:0:
350,16,6000,2,0,L|291:30,1,45
150,112,6190,2,0,L|25:141,1,90
34,288,6570,6,0,L|142:263,1,90
271,285,6949,1,0,0:0:0:0:
271,285,7044,1,0,0:0:0:0:
271,285,7139,1,0,0:0:0:0:
370,95,7329,2,0,B|396:186,1,90,8|0,0:0|0:0,0:0:0:0:
405,218,7613,1,0,0:0:0:0:
426,298,7708,2,0,L|467:331,2,45
199,360,8088,6,0,L|164:332,2,45
44,233,8467,2,0,L|39:178,1,45
30,56,8657,2,0,L|71:92,1,45
182,189,8847,2,0,L|232:169,1,45,8|0,0:0|0:0,0:0:0:0:
341,136,9036,2,0,L|392:170,1,45
433,257,9226,2,0,L|516:307,1,90
322,331,9606,6,0,L|244:284,1,90
85,311,9985,1,0,0:0:0:0:
85,311,10080,1,0,0:0:0:0:
85,311,10175,1,0,0:0:0:0:
246,120,10365,2,0,P|306:132|360:108,1,90,8|0,0:0|0:0,0:0:0:0:
369,107,10649,1,0,0:0:0:0:
438,61,10744,2,0,L|461:15,2,45
496,204,11124,6,0,L|468:250,2,45
407,350,11503,2,0,L|345:352,1,45
247,352,11693,2,0,L|278:297,1,45
349,172,11883,2,0,L|333:101,1,45,8|0,0:0|0:0,0:0:0:0:
312,20,12073,2,0,L|249:0,1,45
163,46,12262,2,0,L|60:16,1,90
117,155,12642,6,0,L|117:263,1,90
52,352,13022,1,0,0:0:0:0:
52,352,13116,1,0,0:0:0:0:
52,352,13211,1,0,0:0:0:0:
236,245,13401,2,0,P|296:233|350:257,1,90,8|0,0:0|0:0,0:0:0:0:
356,257,13686,1,0,0:0:0:0:
417,313,13781,2,0,L|445:354,2,45
470,155,14160,6,0,L|444:117,2,45
370,7,14540,2,0,L|295:17,1,45
204,31,14729,2,0,L|245:75,1,45
354,183,14919,2,0,L|342:237,1,45,8|0,0:0|0:0,0:0:0:0:
316,337,15109,2,0,L|266:350,1,45
158,329,15299,2,0,L|45:360,1,90
153,199,15678,5,0,0:0:0:0:
208,140,15868,1,0,0:0:0:0:
246,211,16058,1,0,0:0:0:0:
377,134,16247,1,0,0:0:0:0:
384,317,16437,1,8,0:0:0:0:
436,377,16627,1,0,0:0:0:0:
496,331,16817,1,0,0:0:0:0:
449,268,17007,1,0,0:0:0:0:
248,303,17196,5,0,0:0:0:0:
248,303,17386,1,0,0:0:0:0:
62,252,17576,1,0,0:0:0:0:
62,252,17766,1,0,0:0:0:0:
306,167,17955,1,8,0:0:0:0:
373,66,18145,1,0,0:0:0:0:
445,168,18335,2,0,L|480:210,2,45
387,288,18714,6,0,L|387:341,3,45,8|0|0|0,0:0|0:0|0:0|0:0,0:0:0:0:
317,285,19094,6,0,L|276:243,3,45
215,195,19473,6,0,L|180:237,3,45,8|0|0|0,0:0|0:0|0:0|0:0,0:0:0:0:
134,282,19853,6,0,L|85:245,3,45
110,151,20233,6,0,L|64:130,3,45,8|0|0|0,0:0|0:0|0:0|0:0,0:0:0:0:
165,95,20612,2,0,L|122:59,3,45,8|0|0|0,0:0|0:0|0:0|0:0,0:0:0:0:
234,58,20992,2,0,L|199:11,3,45,8|0|0|0,0:0|0:0|0:0|0:0,0:0:0:0:
315,45,21371,2,0,L|294:-5,3,45,8|0|0|0,0:0|0:0|0:0|0:0,0:0:0:0:
410,24,21751,6,0,L|453:131,1,90
406,244,22130,1,0,0:0:0:0:
406,244,22225,1,0,0:0:0:0:
406,244,22320,1,0,0:0:0:0:
183,290,22510,2,0,P|128:313|103:355,1,90,8|0,0:0|0:0,0:0:0:0:
100,366,22794,1,0,0:0:0:0:
184,373,22889,2,0,L|243:389,2,45
163,195,23269,6,0,L|119:183,2,45
9,167,23648,2,0,L|6:105,1,45
3,0,23838,2,0,L|76:30,1,45
211,85,24028,2,0,L|211:131,1,45,8|0,0:0|0:0,0:0:0:0:
217,260,24218,2,0,L|268:276,1,45
345,348,24407,2,0,L|451:382,1,90
444,203,24787,6,0,L|444:97,1,90
510,13,25166,1,0,0:0:0:0:
510,13,25261,1,0,0:0:0:0:
510,13,25356,1,0,0:0:0:0:
250,61,25546,2,0,L|148:82,1,90,8|0,0:0|0:0,0:0:0:0:
121,86,25831,1,0,0:0:0:0:
49,125,25925,2,0,L|19:169,2,45
94,299,26305,6,0,L|119:261,2,45
210,175,26684,2,0,L|233:228,1,45
280,342,26874,2,0,L|337:277,1,45
411,178,27064,2,0,L|386:108,1,45,8|0,0:0|0:0,0:0:0:0:
358,14,27254,2,0,L|289:0,1,45
209,48,27443,2,0,L|85:25,1,90
19,119,27823,5,0,0:0:0:0:
19,119,28013,1,0,0:0:0:0:
0,262,28203,1,0,0:0:0:0:
0,262,28297,1,0,0:0:0:0:
0,262,28392,1,0,0:0:0:0:
215,130,28582,2,0,P|261:104|318:102,1,90,8|0,0:0|0:0,0:0:0:0:
336,107,28867,1,0,0:0:0:0:
407,148,28962,2,0,L|447:167,2,45
461,341,29341,6,0,L|421:322,2,45
283,283,29721,2,0,L|229:297,1,45
116,318,29910,2,0,L|151:255,1,45
226,124,30100,2,0,L|321:100,1,90,8|0,0:0|0:0,0:0:0:0:
406,14,30480,2,0,L|414:69,1,45
445,138,30669,2,0,L|453:193,1,45
468,281,30859,6,0,B|419:262|419:262|379:273,1,90
234,357,31239,1,0,0:0:0:0:
234,357,31334,1,0,0:0:0:0:
234,357,31429,1,0,0:0:0:0:
312,119,31618,2,0,P|299:73|256:44,1,90,8|0,0:0|0:0,0:0:0:0:
231,33,31903,1,0,0:0:0:0:
150,34,31998,2,0,L|100:41,2,45
19,183,32377,6,0,L|63:176,2,45
206,160,32757,2,0,L|261:225,1,45
319,289,32947,2,0,L|342:239,1,45
410,85,33136,2,0,L|449:127,1,45,8|0,0:0|0:0,0:0:0:0:
509,192,33326,2,0,L|512:264,1,45
444,317,33516,2,0,L|443:390,1,67.5000025749208
246,281,33895,5,0,0:0:0:0:
166,281,34085,1,0,0:0:0:0:
207,215,34275,1,0,0:0:0:0:
284,215,34465,1,0,0:0:0:0:
141,99,34654,1,8,0:0:0:0:
141,99,34844,1,0,0:0:0:0:
69,215,35034,1,0,0:0:0:0:
135,347,35224,1,0,0:0:0:0:
135,347,35319,1,0,0:0:0:0:
134,369,35414,5,0,0:0:0:0:
207,215,35603,1,0,0:0:0:0:
142,55,35793,1,0,0:0:0:0:
142,55,35983,1,0,0:0:0:0:
304,125,36173,2,0,L|391:161,1,90,8|0,0:0|0:0,0:0:0:0:
412,172,36457,1,0,0:0:0:0:
428,179,36552,1,0,0:0:0:0:
472,288,36742,1,0,0:0:0:0:
370,375,36932,6,0,L|325:381,3,45,8|0|0|0,0:0|0:0|0:0|0:0,0:0:0:0:
256,349,37311,2,0,L|211:355,3,45
98,280,37691,6,0,L|143:274,3,45,8|0|0|0,0:0|0:0|0:0|0:0,0:0:0:0:
207,214,38070,2,0,L|250:224,3,45
113,150,38450,6,0,L|68:150,3,45,8|0|0|0,0:0|0:0|0:0|0:0,0:0:0:0:
149,77,38829,2,0,L|105:66,3,45,8|0|0|0,0:0|0:0|0:0|0:0,0:0:0:0:
219,31,39209,2,0,L|178:10,3,45,8|0|0|0,0:0|0:0|0:0|0:0,0:0:0:0:
247,135,39588,2,0,L|287:155,1,45,8|0,0:0|0:0,0:0:0:0:
347,261,39778,2,0,L|387:281,1,45
443,379,39968,6,0,P|482:344|494:290,1,90
450,138,40347,1,0,0:0:0:0:
450,138,40442,1,0,0:0:0:0:
450,138,40537,1,0,0:0:0:0:
263,331,40727,2,0,P|214:345|166:333,1,90,8|0,0:0|0:0,0:0:0:0:
142,316,41012,1,0,0:0:0:0:
93,251,41106,2,0,L|66:208,2,45
99,64,41486,6,0,L|122:102,2,45
191,219,41865,2,0,L|245:225,1,45
386,233,42055,2,0,L|347:188,1,45
241,59,42245,2,0,L|295:45,1,45,8|0,0:0|0:0,0:0:0:0:
418,18,42435,2,0,L|432:82,1,45
490,183,42625,2,0,L|510:278,1,90
246,326,43004,6,0,L|354:333,1,90
483,384,43384,1,0,0:0:0:0:
483,384,43478,1,0,0:0:0:0:
483,384,43573,1,0,0:0:0:0:
301,171,43763,2,0,P|269:128|272:72,1,90,8|0,0:0|0:0,0:0:0:0:
277,56,44048,1,0,0:0:0:0:
341,6,44143,2,0,L|387:-1,2,45
158,20,44522,6,0,L|86:34,1,45
24,98,44712,2,0,L|31:161,1,45
45,242,44902,2,0,L|91:274,1,45
190,335,45091,2,0,L|189:287,1,45
181,138,45281,2,0,L|241:120,1,45,8|0,0:0|0:0,0:0:0:0:
345,95,45471,2,0,L|407:115,1,45
471,191,45661,2,0,L|594:229,1,90
474,323,46040,6,0,L|388:296,1,90
231,334,46420,1,0,0:0:0:0:
231,334,46515,1,0,0:0:0:0:
231,334,46610,1,0,0:0:0:0:
339,127,46799,2,0,P|346:87|314:38,1,90,8|0,0:0|0:0,0:0:0:0:
287,26,47084,1,0,0:0:0:0:
206,18,47179,2,0,L|152:37,2,45
65,160,47558,6,0,L|107:145,2,45
222,106,47938,2,0,L|259:142,1,45
342,217,48128,2,0,L|290:235,1,45
118,294,48317,2,0,L|193:338,1,45,8|0,0:0|0:0,0:0:0:0:
260,371,48507,2,0,L|325:354,1,45
416,377,48697,2,0,L|524:348,1,90
509,230,49076,6,0,L|404:192,1,90
312,105,49456,1,0,0:0:0:0:
312,105,49551,1,0,0:0:0:0:
312,105,49646,1,0,0:0:0:0:
232,327,49835,2,0,L|180:243,1,90,8|0,0:0|0:0,0:0:0:0:
161,216,50120,1,0,0:0:0:0:
120,145,50215,2,0,L|71:127,2,45
186,17,50595,6,0,L|245:41,1,45
309,67,50784,2,0,L|308:132,1,45
310,235,50974,2,0,L|365:212,1,45
473,166,51164,2,0,L|439:226,1,45,8|0,0:0|0:0,0:0:0:0:
374,349,51354,2,0,L|322:333,1,45
210,291,51543,2,0,L|210:231,1,45
147,150,51733,2,0,L|147:60,1,67.5000025749208
267,151,52113,5,0,0:0:0:0:
344,152,52302,1,0,0:0:0:0:
421,153,52492,1,0,0:0:0:0:
381,244,52682,1,0,0:0:0:0:
274,28,52872,1,8,0:0:0:0:
199,28,53061,1,0,0:0:0:0:
125,88,53251,2,0,L|30:88,1,73.8000011260987
53,260,53631,5,0,0:0:0:0:
53,260,53821,1,0,0:0:0:0:
255,194,54010,1,0,0:0:0:0:
255,194,54200,1,0,0:0:0:0:
152,352,54390,1,8,0:0:0:0:
154,257,54580,1,0,0:0:0:0:
105,179,54769,2,0,L|105:100,1,76.5000014591217
261,102,55149,6,0,L|316:102,3,45,8|0|0|0,0:0|0:0|0:0|0:0,0:0:0:0:
367,50,55528,2,0,L|421:50,3,45
364,167,55908,6,0,L|364:212,3,45,8|0|0|0,0:0|0:0|0:0|0:0,0:0:0:0:
432,258,56287,2,0,L|432:304,3,45
296,303,56667,6,0,L|252:303,3,45,8|0|0|0,0:0|0:0|0:0|0:0,0:0:0:0:
175,304,57046,2,0,L|126:304,3,45,8|0|0|0,0:0|0:0|0:0|0:0,0:0:0:0:
53,304,57426,2,0,L|6:304,3,45,8|0|0|0,0:0|0:0|0:0|0:0,0:0:0:0:
115,384,57806,2,0,L|183:384,3,45,8|0|0|0,0:0|0:0|0:0|0:0,0:0:0:0:
117,212,58185,6,0,L|117:102,1,90
45,0,58565,1,0,0:0:0:0:
45,0,58659,1,0,0:0:0:0:
45,0,58754,1,0,0:0:0:0:
286,142,58944,2,0,P|331:157|389:142,1,90,8|0,0:0|0:0,0:0:0:0:
409,131,59229,1,0,0:0:0:0:
462,69,59324,2,0,L|483:27,2,45
512,213,59703,6,0,L|491:253,2,45
440,369,60083,2,0,L|372:369,1,45
254,369,60272,2,0,L|301:310,1,45
393,190,60462,2,0,L|331:163,1,45,8|0,0:0|0:0,0:0:0:0:
248,129,60652,2,0,L|180:129,1,45
107,189,60842,2,0,L|10:189,1,90
125,328,61221,6,0,L|215:328,1,90
355,257,61601,1,0,0:0:0:0:
355,257,61696,1,0,0:0:0:0:
355,257,61791,1,0,0:0:0:0:
108,172,61980,2,0,P|42:147|14:93,1,90,8|0,0:0|0:0,0:0:0:0:
22,93,62265,1,0,0:0:0:0:
103,89,62360,2,0,L|143:37,2,45
294,31,62739,6,0,L|266:66,2,45
190,166,63119,2,0,L|179:237,1,45
164,335,63309,2,0,L|242:307,1,45
377,260,63498,2,0,L|392:188,1,45,8|0,0:0|0:0,0:0:0:0:
414,92,63688,2,0,L|353:83,1,45
242,32,63878,2,0,L|132:18,1,90
10,138,64257,6,0,L|99:149,1,90
259,109,64637,1,0,0:0:0:0:
259,109,64732,1,0,0:0:0:0:
259,109,64827,1,0,0:0:0:0:
329,346,65017,2,0,L|367:221,1,90,8|0,0:0|0:0,0:0:0:0:
368,222,65301,1,0,0:0:0:0:
392,144,65396,2,0,L|383:100,2,45
276,0,65776,6,0,L|285:44,2,45
308,160,66155,2,0,L|275:225,1,45
224,321,66345,2,0,L|212:261,1,45
176,76,66535,2,0,L|119:105,1,45,8|0,0:0|0:0,0:0:0:0:
25,150,66724,2,0,L|36:218,1,45
3,296,66914,2,0,L|20:391,1,90
131,261,67294,6,0,L|115:172,1,90
17,66,67673,1,0,0:0:0:0:
17,66,67768,1,0,0:0:0:0:
17,66,67863,1,0,0:0:0:0:
310,155,68053,2,0,P|362:163|419:127,1,90,8|0,0:0|0:0,0:0:0:0:
428,127,68337,1,0,0:0:0:0:
481,64,68432,2,0,L|497:17,2,45
512,201,68812,6,0,L|497:243,2,45
460,352,69191,2,0,L|406:356,1,45
285,364,69381,2,0,L|310:301,1,45
363,140,69571,2,0,L|301:162,1,45,8|0,0:0|0:0,0:0:0:0:
202,192,69761,2,0,L|192:239,1,45
119,318,69950,2,0,L|103:397,1,67.5000025749208
32,295,70330,5,0,0:0:0:0:
65,223,70520,1,0,0:0:0:0:
34,153,70709,1,0,0:0:0:0:
92,102,70899,1,0,0:0:0:0:
255,188,71089,1,8,0:0:0:0:
332,212,71279,1,0,0:0:0:0:
403,179,71468,1,0,0:0:0:0:
456,120,71658,1,0,0:0:0:0:
456,120,71753,1,0,0:0:0:0:
456,120,71848,5,0,0:0:0:0:
512,177,72038,1,0,0:0:0:0:
459,236,72228,1,0,0:0:0:0:
512,295,72417,1,0,0:0:0:0:
277,327,72607,1,8,0:0:0:0:
202,353,72797,1,0,0:0:0:0:
140,319,72987,1,0,0:0:0:0:
140,319,73081,1,0,0:0:0:0:
140,319,73176,1,0,0:0:0:0:
212,206,73366,6,0,L|212:148,3,45,8|0|0|0,0:0|0:0|0:0|0:0,0:0:0:0:
310,148,73746,2,0,L|264:105,3,45
391,221,74125,6,0,L|423:251,3,45,8|0|0|0,0:0|0:0|0:0|0:0,0:0:0:0:
456,151,74505,2,0,L|500:151,3,45
443,58,74884,2,0,L|394:58,2,45,12|0|0,0:0|0:0|0:0,0:0:0:0:
284,56,75264,6,0,L|223:55,1,45,4|0,0:0|0:0,0:0:0:0:
131,17,75453,2,0,L|82:16,1,45
3,110,75643,2,0,L|1:216,1,90,4|0,0:0|0:0,0:0:0:0:
75,342,76023,2,0,P|168:313|261:354,1,180,4|0,0:0|0:0,0:0:0:0:
256,193,79674,5,8,0:0:0:0:
201,298,80497,2,0,P|289:309|201:86,1,472.500018024445
145,96,82142,2,0,L|145:170,1,67.5000025749208
144,258,82554,2,0,B|144:337|144:337|376:278|376:278|376:174,1,405.000015449525
453,82,83994,6,0,L|359:82,1,67.5000025749208
295,24,84405,2,0,L|199:24,1,67.5000025749208
135,87,84817,2,0,L|54:87,1,67.5000025749208
5,172,85228,2,0,P|52:277|174:227,1,270.000010299683
244,296,86257,6,0,P|322:360|431:316,1,202.500007724762,8|0,0:0|0:0,0:0:0:0:
466,239,87080,2,0,L|309:83,1,202.500007724762
182,76,87903,6,0,L|319:224,1,202.500007724762,8|0,0:0|0:0,0:0:0:0:
401,314,88725,2,0,L|310:314,1,67.5000025749208
232,355,89137,2,0,L|158:355,1,67.5000025749208
235,259,89548,6,0,L|145:259,1,90,8|0,0:0|0:0,0:0:0:0:
55,147,90371,2,0,B|122:101|122:101|166:145|166:145|233:145,1,202.500007724762
301,55,91194,6,0,B|379:148|303:239|303:239|369:228|369:228|369:379|464:379|464:221,1,540.000020599366,8|0,0:0|0:0,0:0:0:0:
475,76,93251,6,0,P|447:18|379:22,1,135.000005149842
301,55,93868,2,0,P|233:50|187:104,1,135.000005149842
272,147,94486,6,0,P|297:189|235:186,1,135.000005149842,8|0,0:0|0:0,0:0:0:0:
107,130,95103,2,0,B|36:100|36:100|37:198|37:198|99:226|99:226|99:285,1,270.000010299683
20,327,96131,6,0,B|98:364|98:364|204:311,1,202.500007724762,8|0,0:0|0:0,0:0:0:0:
296,338,96954,2,0,B|416:276|416:276|416:203,1,202.500007724762
512,199,97777,6,0,P|442:120|352:136,1,202.500007724762,8|0,0:0|0:0,0:0:0:0:
263,199,98600,2,0,P|147:183|134:109,1,202.500007724762
240,27,99423,6,0,L|143:27,1,90,8|0,0:0|0:0,0:0:0:0:
57,108,100246,2,0,B|28:206|28:206|67:318,1,202.500007724762
163,331,101069,6,0,B|134:244|134:244|152:172|152:172|247:404|303:170|384:353|384:353|406:304,1,540.000020599366,8|0,0:0|0:0,0:0:0:0:
459,209,103126,2,0,B|519:209|519:209|447:149,1,135.000005149842
378,96,103743,2,0,L|293:87,1,67.5000025749208
214,137,104155,2,0,L|129:128,1,67.5000025749208
67,63,104566,2,0,L|-18:54,1,67.5000025749208
0,168,104977,2,0,B|-28:244|76:325|150:253|150:253|150:310,1,270.000010299683,8|0,0:0|0:0,0:0:0:0:
239,332,106006,6,0,B|239:229|239:229|343:181,1,202.500007724762
441,204,106829,2,0,P|402:108|301:82,1,202.500007724762
194,37,107652,6,0,L|253:259,1,202.500007724762,8|0,0:0|0:0,0:0:0:0:
273,343,108475,2,0,L|56:304,1,202.500007724762
14,196,109298,6,0,L|113:216,1,90,8|0,0:0|0:0,0:0:0:0:
57,99,110121,2,0,B|120:115|120:115|152:32|230:64,1,202.500007724762
215,170,110943,6,0,P|294:153|325:81,1,135.000005149842,8|0,0:0|0:0,0:0:0:0:
366,23,111561,2,0,B|507:89|508:-42|378:-31|384:87|434:147,1,270.000010299683
499,213,112589,6,0,P|430:223|369:279,1,135.000005149842,8|0,0:0|0:0,0:0:0:0:
255,376,113412,2,0,L|255:284,1,67.5000025749208
193,221,113824,2,0,L|193:141,1,67.5000025749208
137,46,114235,2,0,L|207:46,1,67.5000025749208
307,98,114646,2,0,P|374:63|344:243,1,405.000015449525
256,192,119172,12,0,122052,0:0:0:0:
151,111,122276,6,0,L|238:99,3,49.5000015106202,8|0|0|0,0:0|0:0|0:0|0:0,0:0:0:0:
310,90,122645,2,0,L|321:152,1,49.5000015106202
451,195,122829,2,0,L|369:208,1,49.5000015106202
223,233,123014,2,0,L|173:242,3,49.5000015106202,8|0|0|0,0:0|0:0|0:0|0:0,0:0:0:0:
109,317,123383,2,0,L|58:329,3,49.5000015106202
127,148,123752,6,0,L|126:97,3,49.5000015106202,8|0|0|0,0:0|0:0|0:0|0:0,0:0:0:0:
211,49,124122,2,0,L|211:-4,3,49.5000015106202
211,234,124491,2,0,L|211:293,1,49.5000015106202,8|0,0:0|0:0,0:0:0:0:
282,329,124676,2,0,L|281:380,1,49.5000015106202
389,322,124860,2,0,L|389:273,1,49.5000015106202
473,225,125045,2,0,L|473:176,1,49.5000015106202
333,125,125229,6,0,L|259:125,3,49.5000015106202,8|0|0|0,0:0|0:0|0:0|0:0,0:0:0:0:
168,51,125599,1,0,0:0:0:0:
139,80,125691,1,0,0:0:0:0:
128,116,125783,5,0,0:0:0:0:
142,151,125876,1,0,0:0:0:0:
206,222,125968,2,0,L|257:240,1,49.5000015106202,8|0,0:0|0:0,0:0:0:0:
325,311,126152,2,0,L|389:333,1,49.5000015106202
468,242,126337,2,0,L|488:190,3,49.5000015106202
437,68,126706,6,0,L|390:50,3,49.5000015106202,8|0|0|0,0:0|0:0|0:0|0:0,0:0:0:0:
283,86,127076,2,0,L|236:68,3,49.5000015106202
40,83,127445,2,0,L|105:104,1,49.5000015106202,8|0,0:0|0:0,0:0:0:0:
209,193,127629,2,0,L|142:207,1,49.5000015106202
77,294,127814,2,0,L|30:307,3,49.5000015106202
208,334,128183,6,0,L|266:318,1,49.5000015106202,8|0,0:0|0:0,0:0:0:0:
334,196,128368,2,0,L|296:162,3,49.5000015106202
172,50,128737,2,0,L|263:65,1,49.5000015106202
392,5,128922,1,0,0:0:0:0:
377,40,129014,1,8,0:0:0:0:
391,80,129106,2,0,L|434:122,1,49.5000015106202
489,230,129291,2,0,L|489:293,3,49.5000015106202
362,348,129660,6,0,L|287:376,3,49.5000015106202,8|0|0|0,0:0|0:0|0:0|0:0,0:0:0:0:
216,334,130029,2,0,L|141:362,3,49.5000015106202
377,268,130399,2,0,L|290:240,1,49.5000015106202,8|0,0:0|0:0,0:0:0:0:
216,218,130583,2,0,L|153:197,1,49.5000015106202
90,120,130768,2,0,L|67:72,3,49.5000015106202
224,41,131137,6,0,L|248:99,3,49.5000015106202,8|0|0|0,0:0|0:0|0:0|0:0,0:0:0:0:
296,215,131506,1,0,0:0:0:0:
317,246,131599,1,0,0:0:0:0:
350,262,131691,5,0,0:0:0:0:
391,255,131783,1,0,0:0:0:0:
458,199,131876,2,0,L|470:144,1,49.5000015106202,8|0,0:0|0:0,0:0:0:0:
417,57,132060,2,0,L|433:-5,1,49.5000015106202
270,47,132245,2,0,L|289:-24,3,49.5000015106202
120,65,132614,6,0,L|59:41,3,49.5000015106202,8|0|0|0,0:0|0:0|0:0|0:0,0:0:0:0:
46,138,132983,2,0,L|-15:114,3,49.5000015106202
242,197,133352,2,0,L|171:226,1,49.5000015106202,8|0,0:0|0:0,0:0:0:0:
69,274,133537,2,0,L|141:297,1,49.5000015106202
242,327,133722,2,0,L|242:400,3,49.5000015106202
339,156,134091,6,0,L|365:205,1,49.5000015106202,8|0,0:0|0:0,0:0:0:0:
441,333,134276,2,0,L|467:377,3,49.5000015106202
493,192,134645,2,0,L|516:138,1,49.5000015106202
419,0,134829,1,0,0:0:0:0:
397,34,134922,1,8,0:0:0:0:
400,72,135014,2,0,L|421:116,1,49.5000015106202
428,249,135199,2,0,L|358:285,3,49.5000015106202
262,326,135568,6,0,L|297:391,3,49.5000015106202,8|0|0|0,0:0|0:0|0:0|0:0,0:0:0:0:
277,206,135937,2,0,L|253:162,3,49.5000015106202
77,24,136306,2,0,L|102:86,1,49.5000015106202,8|0,0:0|0:0,0:0:0:0:
138,171,136491,2,0,L|160:223,1,49.5000015106202
162,337,136676,2,0,L|147:392,3,49.5000015106202
322,296,137045,6,0,L|395:322,3,49.5000015106202,8|0|0|0,0:0|0:0|0:0|0:0,0:0:0:0:
264,187,137414,1,0,0:0:0:0:
274,149,137506,1,0,0:0:0:0:
302,120,137599,5,0,0:0:0:0:
341,109,137691,1,0,0:0:0:0:
426,147,137783,2,0,L|462:193,1,49.5000015106202,8|0,0:0|0:0,0:0:0:0:
476,293,137968,2,0,L|476:346,1,49.5000015106202
349,384,138152,2,0,L|275:383,3,49.5000015106202
162,337,138522,6,0,L|108:312,3,49.5000015106202,8|0|0|0,0:0|0:0|0:0|0:0,0:0:0:0:
164,222,138891,2,0,L|164:163,3,49.5000015106202
28,92,139260,2,0,L|93:80,1,49.5000015106202,8|0,0:0|0:0,0:0:0:0:
197,62,139445,2,0,L|274:50,1,49.5000015106202
376,95,139629,2,0,L|442:128,3,49.5000015106202
475,265,139999,6,0,L|398:229,1,49.5000015106202,8|0,0:0|0:0,0:0:0:0:
280,179,140183,2,0,L|224:152,3,49.5000015106202
201,31,140552,2,0,L|150:54,1,49.5000015106202
60,123,140737,1,0,0:0:0:0:
83,157,140829,1,8,0:0:0:0:
86,200,140922,2,0,L|67:247,1,49.5000015106202
23,339,141106,2,0,L|4:384,3,49.5000015106202
171,298,141476,6,0,L|254:297,3,49.5000015106202,8|0|0|0,0:0|0:0|0:0|0:0,0:0:0:0:
308,362,141845,2,0,L|392:362,3,49.5000015106202
303,208,142214,2,0,L|278:147,3,49.5000015106202,8|0|0|0,0:0|0:0|0:0|0:0,0:0:0:0:
372,107,142583,2,0,L|347:46,3,49.5000015106202
226,23,142952,6,0,L|146:23,3,49.5000015106202,8|0|0|0,0:0|0:0|0:0|0:0,0:0:0:0:
89,94,143322,1,0,0:0:0:0:
78,132,143414,1,0,0:0:0:0:
66,174,143506,2,0,L|39:257,1,49.5000015106202
165,384,143691,1,8,0:0:0:0:
178,340,143783,1,0,0:0:0:0:
191,298,143876,1,0,0:0:0:0:
204,258,143968,1,0,0:0:0:0:
218,216,144060,2,0,L|272:198,3,49.5000015106202
401,160,144429,6,0,L|420:102,3,49.5000015106202,8|0|0|0,0:0|0:0|0:0|0:0,0:0:0:0:
324,66,144799,2,0,L|343:8,3,49.5000015106202,8|0|0|0,0:0|0:0|0:0|0:0,0:0:0:0:
164,32,145168,2,0,L|144:78,1,49.5000015106202,8|0,0:0|0:0,0:0:0:0:
45,100,145352,2,0,L|63:146,1,49.5000015106202,8|0,0:0|0:0,0:0:0:0:
36,260,145537,2,0,L|81:279,1,49.5000015106202,8|0,0:0|0:0,0:0:0:0:
153,349,145722,2,0,L|199:330,1,49.5000015106202,8|0,0:0|0:0,0:0:0:0:
316,199,148746,5,0,0:0:0:0:
175,297,148936,2,0,L|296:311,1,90
396,380,149315,1,0,0:0:0:0:
396,380,149410,1,0,0:0:0:0:
396,380,149505,1,0,0:0:0:0:
459,133,149695,2,0,P|461:78|436:49,1,90,8|0,0:0|0:0,0:0:0:0:
412,27,149979,1,0,0:0:0:0:
332,11,150074,2,0,L|282:25,2,45
135,155,150454,6,0,L|178:142,2,45
288,110,150834,2,0,L|333:146,1,45
421,214,151023,2,0,L|356:235,1,45
199,281,151213,2,0,L|265:324,1,45,8|0,0:0|0:0,0:0:0:0:
332,373,151403,2,0,L|388:358,1,45
483,286,151593,2,0,L|586:258,1,90
472,129,151973,6,0,L|385:152,1,90
233,119,152352,1,0,0:0:0:0:
233,119,152447,1,0,0:0:0:0:
233,119,152542,1,0,0:0:0:0:
134,338,152732,2,0,L|112:238,1,90
108,209,153016,1,0,0:0:0:0:
88,130,153111,2,0,L|76:83,2,45
253,189,153491,6,0,L|264:232,2,45
291,340,153871,2,0,L|350:359,1,45
455,384,154060,2,0,L|455:322,1,45
452,166,154250,2,0,L|392:141,1,45,8|0,0:0|0:0,0:0:0:0:
290,106,154440,2,0,L|223:119,1,45
164,203,154630,2,0,L|60:222,1,90
0,72,155010,6,0,L|88:55,1,90
235,0,155389,1,0,0:0:0:0:
235,0,155484,1,0,0:0:0:0:
235,0,155579,1,0,0:0:0:0:
274,235,155769,2,0,P|288:272|347:308,1,90,8|0,0:0|0:0,0:0:0:0:
363,311,156053,1,0,0:0:0:0:
441,289,156148,2,0,L|435:359,2,45
453,167,156528,6,0,L|427:116,1,45
377,41,156718,2,0,L|326:30,1,45
228,13,156908,2,0,L|168:45,1,45
66,93,157097,2,0,L|142:122,1,45
288,171,157287,2,0,L|214:203,1,45,8|0,0:0|0:0,0:0:0:0:
128,231,157477,2,0,L|66:231,1,45
0,314,157667,2,0,L|-101:314,1,90
89,384,158047,6,0,L|208:383,1,90
331,333,158426,1,8,0:0:0:0:
331,333,158521,1,0,0:0:0:0:
331,333,158616,1,0,0:0:0:0:
147,119,158806,2,0,P|125:58|144:22,1,90,8|0,0:0|0:0,0:0:0:0:
165,12,159090,1,0,0:0:0:0:
247,0,159185,2,0,L|296:17,2,45,8|0|0,0:0|0:0|0:0,0:0:0:0:
424,45,159565,6,0,L|374:88,1,45,8|0,0:0|0:0,0:0:0:0:
303,139,159755,2,0,L|299:211,1,45
293,290,159945,2,0,L|353:334,1,45,8|0,0:0|0:0,0:0:0:0:
428,380,160134,2,0,L|444:318,1,45
474,166,160324,2,0,L|425:129,1,45,8|0,0:0|0:0,0:0:0:0:
332,59,160514,2,0,L|248:59,1,45,8|0,0:0|0:0,0:0:0:0:
163,97,160704,2,0,L|66:97,1,67.5000025749208,8|0,0:0|0:0,0:0:0:0:
13,184,161084,6,0,P|-14:252|21:332,1,135.000005149842
105,252,161845,1,8,0:0:0:0:
240,337,162583,6,0,P|306:313|381:345,1,135.000005149842
452,256,163321,1,8,0:0:0:0:
422,71,164060,6,0,L|323:136,1,116.999994644165
187,117,164798,2,0,L|301:47,1,116.999994644165,8|0,0:0|0:0,0:0:0:0:
176,0,165536,6,0,L|46:0,3,116.999994644165
8,105,167013,5,0,0:0:0:0:
56,225,167382,2,0,L|80:290,2,58.4999973220826,0|0|8,0:0|0:0|0:0,0:0:0:0:
204,331,168120,2,0,L|272:331,2,58.4999973220826
377,383,168858,5,0,0:0:0:0:
327,232,169227,2,0,B|374:202|374:202|439:202,1,116.999994644165,8|0,0:0|0:0,0:0:0:0:
512,137,169966,2,0,B|512:55|512:55|465:18,1,116.999994644165
332,25,170704,6,0,P|356:89|336:142,1,116.999994644165,8|0,0:0|0:0,0:0:0:0:
253,85,171442,2,0,B|195:53|125:70|99:117|110:182|142:214|201:220|233:173|233:173|304:274|233:329|233:329|196:272|89:317,1,584.999973220826
