osu file format v14

[General]
AudioFilename: audio.mp3
AudioLeadIn: 0
PreviewTime: 3249
Countdown: 0
SampleSet: Normal
StackLeniency: 0.7
Mode: 0
LetterboxInBreaks: 0
WidescreenStoryboard: 0

[Editor]
Bookmarks: -6,6160,18495,26085,39938,52083,53061,73336,76467,122228,124369,124461,146818,147197,147956,165905
DistanceSpacing: 1.4
BeatDivisor: 4
GridSize: 8
TimelineZoom: 3.099999

[Metadata]
Title:Imaginary Places
TitleUnicode:Imaginary Places
Artist:Busdriver
ArtistUnicode:Busdriver
Creator:Moreon
Version:Rdzeniu's too much for ztrot
Source:
Tags:phoon NeBu Busdriver Rdzeniu Streams Hatiso Moreon Rap sbsonic Andemu Asrasz LukerMaster Chalwa CptSqBany DominiGG AnySense squirrelpascals Fieryrage tem Squishi Soiplox Script
BeatmapID:1343293
BeatmapSetID:632870

[Difficulty]
HPDrainRate:6
CircleSize:4
OverallDifficulty:8
ApproachRate:9.6
SliderMultiplier:1.4
SliderTickRate:1

[Events]
//Background and Video events
0,0,"BG.jpg",0,0
//Break Periods
//Storyboard Layer 0 (Background)
//Storyboard Layer 1 (Fail)
//Storyboard Layer 2 (Pass)
//Storyboard Layer 3 (Foreground)
//Storyboard Sound Samples

[TimingPoints]
497.668789808917,379.525605095541,4,1,0,66,1,0
597.668789808917,-66.6666666666667,4,1,0,20,0,0
1256,-66.6666666666667,4,1,0,30,0,0
2015,-66.6666666666667,4,1,0,40,0,0
2205,-66.6666666666667,4,1,0,50,0,0
2395,-66.6666666666667,4,1,0,60,0,0
2585,-66.6666666666667,4,1,0,70,0,0
2774,-66.6666666666667,4,1,0,80,0,0
2964,-66.6666666666667,4,1,0,85,0,0
3154,-66.6666666666667,4,1,0,100,0,0
3344,-200,4,1,0,100,0,0
3533,-66.6666666666667,4,1,0,100,0,0
4862,-50,4,1,0,100,0,0
6190,-100,4,1,0,100,0,0
6380,-50,4,1,0,100,0,0
7424,-66.6666666666667,4,1,0,100,0,0
12642,-50,4,1,0,100,0,0
14160,-66.6666666666667,4,1,0,100,0,0
23269,-50,4,1,0,100,0,0
33895,-50,4,1,0,100,0,0
39968,-50,4,1,0,80,0,0
69950,-66.6666666666667,4,1,0,80,0,0
70330,-50,4,1,0,80,0,0
75928,-50,4,1,0,80,0,0
76794,411.444676258992,3,1,0,60,1,0
77925,-200,4,1,0,60,0,0
80291,-166.666666666667,4,1,0,60,0,0
88623,-133.333333333333,4,1,0,60,0,0
89651,-83.3333333333333,4,1,0,60,0,0
90371,-125,4,1,0,60,0,0
95103,-200,4,1,0,60,0,0
100246,-200,4,1,0,60,0,0
108063,-100,4,1,0,60,0,0
109298,-83.3333333333333,4,1,0,60,0,0
110121,-200,4,1,0,60,0,0
120818,-100,4,1,0,60,0,0
122052,-200,4,1,0,60,0,0
122258,-50,4,1,0,60,0,1
122276,369.225605095541,3,1,0,90,1,1
145899,379.625605095541,4,1,0,80,1,1
146088,-100,4,1,0,5,0,0
146468,-100,4,1,0,20,0,0
146848,-100,4,1,0,40,0,0
147227,-100,4,1,0,60,0,0
147607,-100,4,1,0,80,0,0
147986,-100,4,1,0,100,0,0
148746,-100,4,1,0,100,0,0
155199,-50,4,1,0,100,0,0
161084,-100,4,1,0,65,0,0
161107,369.125605095541,4,1,0,75,1,0
187459,426.625605095542,4,1,0,60,1,0

[HitObjects]
484,204,497,6,0,L|420:236,1,70
384,252,782,1,0,0:0:0:0:
348,268,877,1,0,0:0:0:0:
432,80,1066,1,4,0:0:0:0:
116,340,1256,6,0,L|220:280,1,105.000004005432
240,268,1541,1,0,0:0:0:0:
276,248,1636,1,0,0:0:0:0:
52,212,1825,1,4,0:0:0:0:
440,184,2015,5,8,0:0:0:0:
96,152,2205,1,0,0:0:0:0:
440,184,2395,1,8,0:0:0:0:
96,152,2585,1,0,0:0:0:0:
332,332,2774,1,8,0:0:0:0:
188,80,2964,1,8,0:0:0:0:
172,348,3154,1,12,0:0:0:0:
411,59,3344,1,0,0:0:0:0:
428,163,3533,6,0,L|409:44,1,105.000004005432
411,59,3818,1,0,0:0:0:0:
411,59,3913,1,0,0:0:0:0:
96,288,4103,1,0,0:0:0:0:
100,296,4198,1,0,0:0:0:0:
100,296,4292,2,0,L|76:172,1,105.000004005432
256,356,4672,1,4,0:0:0:0:
416,68,4862,1,4,0:0:0:0:
84,192,5051,5,0,0:0:0:0:
62,219,5145,1,0,0:0:0:0:
51,252,5240,1,0,0:0:0:0:
53,286,5335,1,0,0:0:0:0:
67,318,5430,1,0,0:0:0:0:
92,343,5525,1,0,0:0:0:0:
124,357,5620,1,0,0:0:0:0:
160,344,5716,1,0,0:0:0:0:
182,317,5810,1,0,0:0:0:0:
214,304,5905,1,0,0:0:0:0:
252,300,6000,2,4,L|312:232,1,70
484,32,6190,2,4,L|432:104,1,70
416,300,6570,6,0,L|500:364,2,70
380,272,6854,1,0,0:0:0:0:
344,240,6949,1,0,0:0:0:0:
188,324,7139,1,0,0:0:0:0:
84,64,7329,1,0,0:0:0:0:
388,76,7518,1,0,0:0:0:0:
312,328,7708,1,0,0:0:0:0:
84,64,7898,1,12,0:0:0:0:
144,220,8088,5,0,0:0:0:0:
178,206,8182,1,0,0:0:0:0:
206,183,8277,1,0,0:0:0:0:
226,153,8372,1,0,0:0:0:0:
239,118,8467,1,0,0:0:0:0:
242,82,8562,1,0,0:0:0:0:
233,46,8657,1,0,0:0:0:0:
206,23,8752,1,0,0:0:0:0:
171,29,8847,5,0,0:0:0:0:
148,56,8942,1,0,0:0:0:0:
132,84,9036,2,2,L|96:156,1,52.5000020027161
64,232,9225,2,2,L|92:172,1,52.5000020027161
96,152,9415,2,2,L|160:192,1,52.5000020027161
408,340,9606,6,8,L|293:265,1,105.000004005432
273,251,9890,1,8,0:0:0:0:
223,219,9985,1,8,0:0:0:0:
96,40,10175,1,0,0:0:0:0:
144,72,10270,1,0,0:0:0:0:
192,104,10365,1,0,0:0:0:0:
164,304,10555,2,8,L|148:400,2,52.5000020027161
208,32,10934,1,4,0:0:0:0:
344,168,11124,5,0,0:0:0:0:
336,224,11219,1,0,0:0:0:0:
300,268,11314,1,0,0:0:0:0:
248,288,11409,1,0,0:0:0:0:
192,284,11503,1,0,0:0:0:0:
140,260,11598,1,0,0:0:0:0:
112,212,11693,1,0,0:0:0:0:
100,156,11788,1,0,0:0:0:0:
112,100,11883,1,0,0:0:0:0:
148,56,11978,1,0,0:0:0:0:
204,40,12073,2,4,L|264:40,1,52.5000020027161
476,48,12262,1,4,0:0:0:0:
256,340,12452,1,0,0:0:0:0:
56,44,12642,5,12,0:0:0:0:
228,180,12831,1,0,0:0:0:0:
264,204,12927,2,0,L|322:242,1,70
384,56,13212,2,0,L|315:40,2,70
388,336,13591,2,0,L|258:308,1,70
28,256,13781,1,0,0:0:0:0:
252,32,13970,1,0,0:0:0:0:
464,152,14160,6,0,L|432:220,2,52.5000020027161
476,104,14445,1,0,0:0:0:0:
436,62,14539,1,0,0:0:0:0:
389,75,14634,1,0,0:0:0:0:
371,129,14729,1,0,0:0:0:0:
352,184,14824,1,0,0:0:0:0:
310,221,14919,1,0,0:0:0:0:
257,204,15014,1,0,0:0:0:0:
220,160,15109,1,0,0:0:0:0:
180,120,15204,1,0,0:0:0:0:
144,160,15299,2,4,P|120:216|148:264,1,105.000004005432
272,40,15678,5,8,0:0:0:0:
372,304,15868,1,8,0:0:0:0:
272,40,16058,1,8,0:0:0:0:
484,196,16247,1,8,0:0:0:0:
108,280,16437,1,8,0:0:0:0:
272,40,16627,1,8,0:0:0:0:
472,32,16817,2,4,P|414:30|356:52,1,105.000004005432
480,112,17196,5,8,0:0:0:0:
32,180,17386,1,8,0:0:0:0:
480,180,17576,1,8,0:0:0:0:
32,112,17766,1,8,0:0:0:0:
256,280,17955,1,8,0:0:0:0:
256,40,18145,1,8,0:0:0:0:
480,192,18335,1,8,0:0:0:0:
116,348,18525,1,12,0:0:0:0:
104,64,18714,5,0,0:0:0:0:
112,110,18808,1,0,0:0:0:0:
139,147,18903,1,0,0:0:0:0:
181,169,18998,1,0,0:0:0:0:
227,169,19094,5,0,0:0:0:0:
269,147,19189,1,0,0:0:0:0:
296,110,19284,1,0,0:0:0:0:
304,64,19378,1,0,0:0:0:0:
352,64,19473,5,0,0:0:0:0:
360,110,19567,1,0,0:0:0:0:
387,147,19662,1,0,0:0:0:0:
428,164,19757,1,0,0:0:0:0:
400,200,19853,5,0,0:0:0:0:
359,217,19948,1,0,0:0:0:0:
332,254,20043,1,0,0:0:0:0:
324,300,20137,1,0,0:0:0:0:
320,344,20233,6,4,L|284:304,1,52.5000020027161
228,236,20422,2,4,L|176:172,1,52.5000020027161
104,84,20612,2,4,L|148:144,1,52.5000020027161
228,236,20802,2,4,L|176:172,1,52.5000020027161
200,32,20992,2,4,L|240:92,1,52.5000020027161
336,204,21181,2,4,L|292:148,1,52.5000020027161
56,152,21371,2,4,L|132:152,1,52.5000020027161
400,152,21561,2,4,L|336:152,1,52.5000020027161
56,152,21751,6,8,L|116:152,1,52.5000020027161
347,152,21940,2,8,L|431:152,2,52.5000020027161
444,328,22320,2,0,P|360:336|336:324,1,105.000004005432
128,256,22699,1,0,0:0:0:0:
180,220,22794,1,0,0:0:0:0:
228,180,22889,1,4,0:0:0:0:
36,308,23079,1,4,0:0:0:0:
276,32,23269,5,0,0:0:0:0:
315,46,23363,1,0,0:0:0:0:
349,71,23458,1,0,0:0:0:0:
375,103,23553,1,0,0:0:0:0:
393,141,23648,1,0,0:0:0:0:
400,182,23743,1,0,0:0:0:0:
395,224,23838,1,0,0:0:0:0:
381,263,23933,1,0,0:0:0:0:
356,297,24028,1,0,0:0:0:0:
324,324,24122,1,0,0:0:0:0:
286,341,24217,1,0,0:0:0:0:
244,348,24312,1,0,0:0:0:0:
200,344,24407,2,4,P|152:288|144:216,1,140
160,32,24787,5,4,0:0:0:0:
380,232,24977,1,0,0:0:0:0:
386,246,25071,1,0,0:0:0:0:
393,261,25166,1,0,0:0:0:0:
400,276,25261,1,0,0:0:0:0:
408,296,25356,1,0,0:0:0:0:
396,324,25451,1,0,0:0:0:0:
368,348,25546,1,0,0:0:0:0:
328,352,25641,1,0,0:0:0:0:
296,328,25736,1,0,0:0:0:0:
292,284,25831,1,0,0:0:0:0:
296,232,25925,2,0,L|302:162,1,70
68,64,26305,5,0,0:0:0:0:
56,124,26400,1,0,0:0:0:0:
64,184,26495,1,0,0:0:0:0:
120,208,26590,1,0,0:0:0:0:
168,168,26684,1,0,0:0:0:0:
208,120,26779,1,0,0:0:0:0:
240,64,26874,1,0,0:0:0:0:
272,120,26969,1,0,0:0:0:0:
312,168,27064,1,0,0:0:0:0:
376,184,27158,1,0,0:0:0:0:
436,208,27253,1,0,0:0:0:0:
440,272,27348,1,0,0:0:0:0:
432,336,27443,2,4,P|352:336|296:304,1,140
349,71,27823,6,8,P|351:135|288:144,1,140
232,128,28107,1,10,0:0:0:0:
175,135,28203,2,0,P|114:142|136:200,1,140
136,256,28487,1,10,0:0:0:0:
180,288,28582,2,0,P|240:295|219:352,1,140
164,352,28866,1,10,0:0:0:0:
96,344,28962,2,0,P|117:286|56:279,1,140
448,64,29341,5,0,0:0:0:0:
454,98,29435,1,0,0:0:0:0:
451,132,29530,1,0,0:0:0:0:
438,165,29625,1,0,0:0:0:0:
417,192,29720,1,0,0:0:0:0:
388,212,29815,1,0,0:0:0:0:
355,223,29910,1,0,0:0:0:0:
320,224,30005,1,0,0:0:0:0:
287,215,30100,1,0,0:0:0:0:
104,104,30290,1,0,0:0:0:0:
104,104,30480,6,2,L|104:184,1,70
16,248,30669,6,2,L|104:208,1,70
200,244,30859,6,2,L|112:204,1,70
372,240,31049,1,0,0:0:0:0:
420,252,31144,1,0,0:0:0:0:
468,236,31239,1,0,0:0:0:0:
152,48,31429,1,0,0:0:0:0:
104,32,31524,1,0,0:0:0:0:
56,44,31619,1,0,0:0:0:0:
164,236,31808,2,0,P|152:280|184:312,1,70
212,320,31998,1,0,0:0:0:0:
284,64,32188,1,4,0:0:0:0:
416,284,32377,5,0,0:0:0:0:
420,276,32472,1,0,0:0:0:0:
428,268,32567,1,0,0:0:0:0:
432,260,32662,1,0,0:0:0:0:
444,240,32757,1,0,0:0:0:0:
452,216,32852,1,0,0:0:0:0:
452,192,32947,1,0,0:0:0:0:
440,168,33041,1,0,0:0:0:0:
412,152,33136,5,0,0:0:0:0:
380,156,33230,1,0,0:0:0:0:
344,172,33326,1,0,0:0:0:0:
308,176,33420,1,0,0:0:0:0:
272,156,33515,1,0,0:0:0:0:
256,124,33611,1,0,0:0:0:0:
236,80,33706,2,0,P|156:52|96:88,1,140
304,320,34085,5,8,0:0:0:0:
404,64,34275,1,8,0:0:0:0:
120,64,34465,1,8,0:0:0:0:
304,320,34654,1,8,0:0:0:0:
124,64,34844,1,8,0:0:0:0:
112,320,35034,1,8,0:0:0:0:
320,72,35224,1,8,0:0:0:0:
108,296,35414,2,4,P|64:224|68:148,1,140
400,352,35793,5,8,0:0:0:0:
280,24,35983,1,8,0:0:0:0:
140,352,36173,1,8,0:0:0:0:
448,36,36362,1,8,0:0:0:0:
116,120,36552,1,8,0:0:0:0:
304,336,36742,1,0,0:0:0:0:
440,208,36932,1,0,0:0:0:0:
448,152,37027,1,0,0:0:0:0:
432,97,37121,1,0,0:0:0:0:
387,63,37216,1,0,0:0:0:0:
330,63,37311,1,0,0:0:0:0:
286,98,37406,1,0,0:0:0:0:
271,153,37501,5,0,0:0:0:0:
316,192,37596,1,0,0:0:0:0:
301,246,37691,1,0,0:0:0:0:
256,281,37786,1,0,0:0:0:0:
200,282,37881,1,0,0:0:0:0:
154,247,37976,1,0,0:0:0:0:
139,193,38070,1,0,0:0:0:0:
88,168,38165,1,0,0:0:0:0:
103,113,38259,5,0,0:0:0:0:
148,79,38354,1,0,0:0:0:0:
205,79,38449,1,0,0:0:0:0:
249,114,38544,1,0,0:0:0:0:
264,169,38639,1,0,0:0:0:0:
300,212,38734,1,0,0:0:0:0:
315,157,38829,1,0,0:0:0:0:
360,123,38923,1,0,0:0:0:0:
417,123,39018,5,0,0:0:0:0:
468,152,39114,1,0,0:0:0:0:
476,213,39209,1,0,0:0:0:0:
472,272,39304,1,8,0:0:0:0:
408,300,39398,1,8,0:0:0:0:
339,312,39493,1,8,0:0:0:0:
269,307,39588,1,8,0:0:0:0:
203,286,39683,1,8,0:0:0:0:
143,249,39778,1,8,0:0:0:0:
94,199,39873,1,8,0:0:0:0:
52,144,39968,6,4,L|160:84,1,70
232,32,40158,2,4,L|268:124,1,70
308,224,40347,2,4,L|196:208,1,70
68,56,40537,1,8,0:0:0:0:
104,320,40727,1,4,0:0:0:0:
344,284,40917,2,0,L|424:152,1,140
136,48,41296,1,4,0:0:0:0:
152,292,41486,5,0,0:0:0:0:
215,313,41580,1,0,0:0:0:0:
269,272,41675,1,0,0:0:0:0:
266,205,41770,1,0,0:0:0:0:
209,169,41865,1,0,0:0:0:0:
144,192,41960,1,0,0:0:0:0:
87,157,42055,1,0,0:0:0:0:
84,90,42150,1,0,0:0:0:0:
137,49,42245,5,0,0:0:0:0:
201,70,42339,1,0,0:0:0:0:
264,96,42435,1,0,0:0:0:0:
324,128,42530,1,0,0:0:0:0:
384,160,42625,1,0,0:0:0:0:
436,204,42719,1,0,0:0:0:0:
476,256,42814,2,0,L|384:272,1,70
60,316,43004,5,0,0:0:0:0:
316,332,43194,1,0,0:0:0:0:
340,284,43289,1,0,0:0:0:0:
340,228,43384,1,0,0:0:0:0:
151,216,43573,1,0,0:0:0:0:
148,271,43668,1,0,0:0:0:0:
164,326,43763,1,0,0:0:0:0:
282,313,43953,1,0,0:0:0:0:
286,253,44048,1,0,0:0:0:0:
260,198,44143,1,0,0:0:0:0:
112,32,44332,1,4,0:0:0:0:
336,116,44522,5,0,0:0:0:0:
368,148,44616,1,0,0:0:0:0:
336,172,44711,1,0,0:0:0:0:
366,207,44806,1,0,0:0:0:0:
338,234,44901,5,0,0:0:0:0:
363,267,44996,1,0,0:0:0:0:
343,300,45091,1,0,0:0:0:0:
304,320,45186,1,0,0:0:0:0:
235,320,45280,5,8,0:0:0:0:
180,278,45375,1,8,0:0:0:0:
140,224,45471,1,8,0:0:0:0:
140,152,45565,1,8,0:0:0:0:
177,96,45660,1,8,0:0:0:0:
480,32,45850,1,4,0:0:0:0:
472,344,46040,5,0,0:0:0:0:
280,244,46230,2,2,L|192:208,1,70
24,140,46420,1,8,0:0:0:0:
144,312,46610,2,2,L|244:284,1,70
440,232,46799,1,8,0:0:0:0:
268,120,46989,1,0,0:3:0:0:
214,132,47084,1,0,0:3:0:0:
166,155,47179,1,0,0:3:0:0:
476,64,47369,1,4,0:0:0:0:
168,40,47558,5,0,0:0:0:0:
128,67,47652,1,0,0:0:0:0:
99,106,47747,1,0,0:0:0:0:
85,153,47842,1,0,0:0:0:0:
88,202,47937,1,0,0:0:0:0:
120,220,48033,1,0,0:0:0:0:
139,169,48127,1,0,0:0:0:0:
184,138,48222,1,0,0:0:0:0:
239,140,48317,5,0,0:0:0:0:
288,164,48412,1,0,0:0:0:0:
316,212,48507,1,0,0:0:0:0:
312,268,48602,1,0,0:0:0:0:
276,312,48697,2,2,L|208:330,1,70
56,356,48887,1,4,0:0:0:0:
480,312,49076,6,2,L|340:344,1,140
176,56,49456,1,4,0:0:0:0:
404,120,49646,1,0,0:0:0:0:
348,80,49741,1,0,0:0:0:0:
284,68,49835,1,0,0:0:0:0:
484,208,50025,1,4,0:0:0:0:
140,332,50215,2,2,L|288:272,1,140
364,120,50595,5,0,0:0:0:0:
344,68,50689,1,0,0:0:0:0:
292,48,50784,1,0,0:0:0:0:
240,68,50879,1,0,0:0:0:0:
220,120,50974,5,0,0:0:0:0:
240,172,51069,1,0,0:0:0:0:
292,196,51164,1,0,0:0:0:0:
344,172,51259,1,0,0:0:0:0:
384,208,51354,1,0,0:0:0:0:
368,260,51448,1,0,0:0:0:0:
328,300,51543,1,0,0:0:0:0:
272,304,51638,1,0,0:0:0:0:
220,280,51733,1,0,0:0:0:0:
32,80,51923,1,0,0:0:0:0:
216,348,52113,5,0,0:0:0:0:
440,68,52302,1,0,0:0:0:0:
48,228,52492,1,0,0:0:0:0:
436,308,52682,1,0,0:0:0:0:
176,40,52872,1,0,0:0:0:0:
316,360,53061,1,0,0:0:0:0:
344,40,53251,1,0,0:0:0:0:
64,272,53440,1,0,0:0:0:0:
368,348,53631,5,0,0:0:0:0:
262,24,53821,1,0,0:0:0:0:
157,348,54010,1,0,0:0:0:0:
432,147,54200,1,0,0:0:0:0:
92,148,54390,1,0,0:0:0:0:
368,348,54580,1,0,0:0:0:0:
262,24,54770,1,0,0:0:0:0:
157,348,54959,1,0,0:0:0:0:
276,108,55149,5,0,0:0:0:0:
320,88,55243,1,0,0:0:0:0:
364,96,55338,1,0,0:0:0:0:
396,132,55433,1,0,0:0:0:0:
396,180,55528,1,0,0:0:0:0:
360,212,55623,1,0,0:0:0:0:
312,216,55717,1,0,0:0:0:0:
272,188,55812,1,0,0:0:0:0:
268,140,55908,5,0,0:0:0:0:
224,120,56002,1,0,0:0:0:0:
180,128,56097,1,0,0:0:0:0:
148,164,56192,1,0,0:0:0:0:
148,212,56287,1,0,0:0:0:0:
184,244,56382,1,0,0:0:0:0:
232,248,56476,1,0,0:0:0:0:
272,220,56571,1,0,0:0:0:0:
300,260,56667,5,0,0:0:0:0:
344,280,56761,1,0,0:0:0:0:
388,272,56856,1,0,0:0:0:0:
420,236,56951,1,0,0:0:0:0:
420,188,57046,1,0,0:0:0:0:
384,156,57141,1,0,0:0:0:0:
336,152,57235,1,0,0:0:0:0:
296,180,57330,1,0,0:0:0:0:
264,136,57425,5,8,0:0:0:0:
220,104,57520,1,8,0:0:0:0:
168,92,57615,1,8,0:0:0:0:
120,116,57710,1,8,0:0:0:0:
96,164,57805,1,8,0:0:0:0:
104,216,57900,1,8,0:0:0:0:
144,252,57994,1,8,0:0:0:0:
196,264,58089,1,8,0:0:0:0:
248,260,58185,6,4,L|320:220,1,70
416,108,58375,2,0,L|460:48,2,70
416,336,58755,2,0,P|332:344|272:308,1,140
88,120,59134,2,0,L|20:60,2,70
284,319,59513,1,0,0:0:0:0:
252,160,59703,5,0,0:0:0:0:
241,127,59797,1,0,0:0:0:0:
264,105,59892,1,0,0:0:0:0:
294,120,59987,1,0,0:0:0:0:
301,153,60082,1,0,0:0:0:0:
282,181,60177,1,0,0:0:0:0:
249,192,60272,1,0,0:0:0:0:
216,183,60367,1,0,0:0:0:0:
195,156,60462,5,0,0:0:0:0:
195,121,60556,1,0,0:0:0:0:
213,92,60651,1,0,0:0:0:0:
242,72,60746,1,0,0:0:0:0:
276,66,60841,1,0,0:0:0:0:
310,72,60936,1,0,0:0:0:0:
340,88,61032,2,0,B|340:108|360:92|292:168,1,70
132,316,61221,5,0,0:0:0:0:
104,108,61411,1,0,0:0:0:0:
136,80,61506,1,0,0:0:0:0:
176,68,61601,1,0,0:0:0:0:
392,268,61791,1,0,0:0:0:0:
408,224,61886,1,0,0:0:0:0:
400,176,61980,1,0,0:0:0:0:
120,304,62170,2,0,L|176:244,1,70
212,204,62360,1,0,0:0:0:0:
60,44,62550,1,4,0:0:0:0:
348,196,62739,5,0,0:0:0:0:
385,225,62833,1,0,0:0:0:0:
388,272,62928,1,0,0:0:0:0:
354,305,63023,1,0,0:0:0:0:
306,301,63118,1,0,0:0:0:0:
264,280,63214,1,0,0:0:0:0:
301,250,63309,1,0,0:0:0:0:
304,203,63403,1,0,0:0:0:0:
270,170,63498,5,0,0:0:0:0:
222,174,63593,1,0,0:0:0:0:
176,192,63688,1,0,0:0:0:0:
128,196,63783,1,0,0:0:0:0:
94,163,63878,1,0,0:0:0:0:
97,116,63973,1,0,0:0:0:0:
134,87,64067,1,0,0:0:0:0:
364,324,64257,6,2,P|412:292|428:276,1,70
216,276,64447,2,10,L|112:356,2,70
72,108,64827,1,0,0:0:0:0:
46,149,64922,1,0,0:0:0:0:
38,197,65017,1,0,0:0:0:0:
248,344,65206,2,0,L|328:252,1,70
432,136,65396,1,0,0:0:0:0:
112,80,65586,1,4,0:0:0:0:
292,76,65776,5,0,0:0:0:0:
320,116,65870,1,0,0:0:0:0:
336,164,65965,1,0,0:0:0:0:
328,212,66060,1,0,0:0:0:0:
300,252,66155,1,0,0:0:0:0:
260,280,66250,1,0,0:0:0:0:
212,284,66344,1,0,0:0:0:0:
164,272,66439,1,0,0:0:0:0:
188,224,66534,5,0,0:0:0:0:
196,172,66630,1,0,0:0:0:0:
176,124,66724,1,0,0:0:0:0:
144,84,66819,1,0,0:0:0:0:
100,60,66914,1,0,0:0:0:0:
52,68,67009,1,0,0:0:0:0:
12,100,67104,2,0,L|96:184,1,70
260,332,67294,2,0,L|196:272,1,70
108,200,67483,6,0,L|192:272,1,70
304,284,67673,2,0,L|220:212,1,70
152,148,67863,2,0,L|208:196,2,70
16,352,68242,1,0,0:0:0:0:
32,296,68337,1,0,0:0:0:0:
64,248,68432,1,0,0:0:0:0:
332,44,68622,1,4,0:0:0:0:
96,136,68812,5,0,0:0:0:0:
85,142,68906,1,0,0:0:0:0:
77,151,69001,1,0,0:0:0:0:
69,161,69096,1,0,0:0:0:0:
63,174,69191,1,0,0:0:0:0:
57,196,69286,1,0,0:0:0:0:
56,224,69380,1,0,0:0:0:0:
72,256,69475,1,0,0:0:0:0:
104,280,69570,1,0,0:0:0:0:
148,280,69666,5,4,0:0:0:0:
196,268,69760,1,4,0:0:0:0:
236,232,69855,1,4,0:0:0:0:
220,172,69950,2,0,L|308:172,1,52.5000020027161
336,176,70140,2,0,P|320:124|256:112,1,105.000004005432
104,256,70520,5,12,0:0:0:0:
380,336,70709,1,12,0:0:0:0:
456,100,70899,1,12,0:0:0:0:
200,28,71089,1,12,0:0:0:0:
104,256,71279,1,12,0:0:0:0:
420,216,71468,1,12,0:0:0:0:
200,28,71658,1,12,0:0:0:0:
192,328,71848,2,4,P|300:312|324:276,1,140
108,84,72228,5,12,0:0:0:0:
420,160,72417,1,12,0:0:0:0:
76,312,72607,1,12,0:0:0:0:
364,180,72797,1,12,0:0:0:0:
200,28,72987,1,12,0:0:0:0:
76,312,73176,1,12,0:0:0:0:
372,312,73366,5,0,0:0:0:0:
417,294,73460,1,0,0:0:0:0:
452,260,73555,1,0,0:0:0:0:
472,216,73650,1,0,0:0:0:0:
474,167,73745,1,0,0:0:0:0:
457,122,73840,1,0,0:0:0:0:
424,86,73935,1,0,0:0:0:0:
380,65,74030,1,0,0:0:0:0:
364,128,74125,5,0,0:0:0:0:
338,169,74219,1,0,0:0:0:0:
301,200,74314,1,0,0:0:0:0:
255,217,74409,1,0,0:0:0:0:
206,218,74504,1,0,0:0:0:0:
160,203,74599,1,0,0:0:0:0:
121,173,74694,1,0,0:0:0:0:
95,132,74789,1,0,0:0:0:0:
136,80,74884,5,0,0:0:0:0:
166,42,74978,1,0,0:0:0:0:
212,30,75073,1,0,0:0:0:0:
257,48,75168,1,0,0:0:0:0:
282,90,75263,1,0,0:0:0:0:
312,144,75359,5,0,0:0:0:0:
305,89,75453,1,0,0:0:0:0:
334,43,75548,1,0,0:0:0:0:
387,26,75643,1,0,0:0:0:0:
437,46,75738,1,0,0:0:0:0:
464,95,75833,1,0,0:0:0:0:
453,148,75928,1,0,0:0:0:0:
424,192,76023,2,8,B|392:232|348:216|348:216|308:284|260:288|210:281|180:224,1,280
256,192,76497,12,0,78028,0:0:0:0:
256,192,78131,12,0,79056,0:0:0:0:
60,316,79262,6,2,P|76:284|92:272,1,52.5
140,136,79674,2,2,P|184:132|212:152,1,70
144,288,80291,1,0,0:0:0:0:
376,152,80497,2,0,P|360:232|312:288,1,146.999995513916
216,304,81525,2,0,L|160:284,1,41.9999987182618
168,124,81937,1,8,0:0:0:0:
316,124,82142,1,8,0:0:0:0:
104,248,82348,1,8,0:0:0:0:
384,248,82554,1,8,0:0:0:0:
252,72,82759,2,0,P|336:76|388:136,1,167.999994873047
148,304,83994,5,0,0:0:0:0:
128,172,84200,1,0,0:0:0:0:
272,320,84405,1,0,0:0:0:0:
244,100,84611,1,0,0:0:0:0:
412,340,84817,1,0,0:0:0:0:
344,48,85022,1,0,0:0:0:0:
112,236,85228,2,0,P|192:236|392:148,1,293.999991027832
224,120,87080,2,0,P|280:56|364:52,1,167.999994873047
400,240,88314,1,0,0:0:0:0:
244,328,88520,6,0,P|220:312|224:268,1,70
316,148,89137,2,0,P|316:88|356:64,1,105.000004005432
376,240,89960,2,2,P|332:288|284:304,1,83.9999974365235
104,300,90371,6,0,P|160:252|176:208,1,112
264,92,90988,1,0,0:0:0:0:
376,212,91194,1,0,0:0:0:0:
96,88,91606,5,0,0:0:0:0:
152,280,91811,1,0,0:0:0:0:
292,140,92017,1,0,0:0:0:0:
416,88,92428,5,0,0:0:0:0:
360,280,92633,1,0,0:0:0:0:
220,140,92839,1,0,0:0:0:0:
360,280,93251,6,0,L|320:216,1,56
220,80,93663,1,0,0:0:0:0:
64,220,93868,2,0,P|100:236|140:240,1,56
224,320,94280,2,0,P|292:312|300:308,1,56
412,256,94691,2,0,P|440:216|444:192,1,56
340,96,95103,2,0,B|296:140|296:140|228:148|176:108,1,175
88,288,96749,1,0,0:0:0:0:
320,288,96954,6,0,P|376:260|412:188,1,140
192,212,98394,1,0,0:0:0:0:
352,160,98600,2,0,P|348:112|328:112,1,70
184,96,99217,1,0,0:0:0:0:
368,232,99423,2,0,P|332:272|276:288,1,105
144,84,100246,6,0,P|128:208|136:228,1,140
260,296,101274,2,0,L|296:264,1,35
288,72,101686,1,0,0:0:0:0:
196,288,101892,1,0,0:0:0:0:
384,172,102097,1,0,0:0:0:0:
172,156,102303,1,0,0:0:0:0:
364,312,102509,2,0,P|392:280|392:240,1,70
140,116,103126,6,0,B|104:144|116:188|116:188,1,70
208,296,103743,1,0,0:0:0:0:
256,136,103949,1,0,0:0:0:0:
320,300,104155,1,0,0:0:0:0:
376,104,104360,1,0,0:0:0:0:
440,300,104566,1,0,0:0:0:0:
480,64,104772,1,0,0:0:0:0:
212,80,104977,6,0,B|156:112|156:112|224:172|172:288,1,245
80,316,106623,1,0,0:0:0:0:
96,152,106829,2,0,B|152:160|152:160|156:80|192:88,1,140
352,84,108063,2,0,B|432:136|432:136|339:171|339:171|416:235|416:235|360:315|360:315|304:308,1,420
176,304,109503,1,0,0:0:0:0:
148,112,109709,2,0,P|100:156|88:184,1,83.9999974365235
264,316,110121,6,0,B|312:328|312:328|296:264|364:176,1,210
240,72,111561,1,0,0:0:0:0:
184,252,111766,1,0,0:0:0:0:
80,72,111972,1,0,0:0:0:0:
184,252,112178,1,0,0:0:0:0:
268,80,112383,2,0,B|324:80|324:80|304:156|344:200,1,175
196,304,113618,5,0,0:0:0:0:
120,204,113824,1,0,0:0:0:0:
72,316,114029,1,0,0:0:0:0:
200,220,114235,1,0,0:0:0:0:
300,116,114441,1,0,0:0:0:0:
136,88,114646,1,0,0:0:0:0:
412,160,114852,2,0,P|400:228|304:284,1,175
120,100,116292,2,0,B|136:148|136:148|184:136|184:136|212:200|236:208|260:204,1,210
424,104,117938,2,0,B|440:136|440:136|380:136|380:136|376:184|328:164|328:164|372:232|300:304|192:284|152:272|136:180,1,490
332,96,122052,1,0,0:0:0:0:
184,196,122276,5,0,0:0:0:0:
176,246,122368,1,0,0:0:0:0:
132,269,122460,1,0,0:0:0:0:
86,247,122552,1,0,0:0:0:0:
77,197,122645,1,0,0:0:0:0:
112,161,122737,1,0,0:0:0:0:
78,126,122829,1,0,0:0:0:0:
85,75,122921,1,0,0:0:0:0:
129,52,123013,5,0,0:0:0:0:
180,56,123105,1,0,0:0:0:0:
216,92,123198,1,0,0:0:0:0:
232,140,123290,1,0,0:0:0:0:
220,188,123383,1,0,0:0:0:0:
185,224,123475,1,0,0:0:0:0:
194,274,123568,1,0,0:0:0:0:
240,296,123660,1,0,0:0:0:0:
292,288,123752,5,0,0:0:0:0:
336,260,123844,1,0,0:0:0:0:
344,208,123937,1,0,0:0:0:0:
328,160,124029,1,0,0:0:0:0:
296,120,124121,1,0,0:0:0:0:
304,68,124213,1,0,0:0:0:0:
344,32,124306,1,0,0:0:0:0:
396,24,124398,1,0,0:0:0:0:
432,60,124491,5,0,0:0:0:0:
404,104,124583,1,0,0:0:0:0:
404,156,124676,1,0,0:0:0:0:
424,204,124768,1,0,0:0:0:0:
464,240,124860,1,0,0:0:0:0:
452,292,124952,1,8,0:0:0:0:
412,324,125045,1,8,0:0:0:0:
364,304,125137,1,8,0:0:0:0:
340,260,125229,6,0,L|328:200,1,35
324,56,125414,2,2,L|284:112,1,35
152,296,125599,2,2,L|192:256,1,35
392,136,125783,2,2,L|340:164,1,35
88,172,125968,2,2,L|152:180,1,35
432,292,126153,2,2,L|380:268,1,35
156,36,126337,2,2,L|184:76,1,35
344,328,126522,2,2,L|320:268,1,35
288,32,126707,6,2,L|260:80,1,35
96,360,126891,2,2,L|128:320,1,35
156,296,127075,1,0,0:0:0:0:
196,264,127168,1,0,0:0:0:0:
240,236,127260,1,0,0:0:0:0:
283,266,127352,1,0,0:0:0:0:
325,297,127444,1,0,0:0:0:0:
367,302,127537,1,0,0:0:0:0:
392,256,127629,1,4,0:0:0:0:
401,206,127721,1,4,0:0:0:0:
389,155,127814,1,4,0:0:0:0:
363,110,127906,1,4,0:0:0:0:
323,77,127998,1,4,0:0:0:0:
273,60,128091,1,4,0:0:0:0:
224,76,128183,6,2,L|180:100,1,35
32,200,128368,2,2,L|96:188,1,35
328,160,128552,2,2,L|276:160,1,35
44,64,128737,2,2,L|96:88,1,35
304,292,128922,2,2,L|256:264,1,35
168,36,129106,2,2,L|172:104,1,35
132,328,129291,2,2,L|148:272,1,35
304,40,129475,2,2,L|272:88,1,35
104,208,129660,5,0,0:0:0:0:
88,236,129752,1,0,0:0:0:0:
72,264,129845,2,0,L|52:304,1,35
196,268,130029,5,0,0:0:0:0:
200,224,130122,1,0,0:0:0:0:
204,188,130214,2,0,L|208:152,1,35
88,84,130398,5,0,0:0:0:0:
84,116,130491,1,0,0:0:0:0:
76,148,130583,2,0,L|80:188,1,35
144,320,130768,6,0,L|128:276,1,35
76,148,130952,2,0,L|80:188,1,35
144,320,131137,6,0,L|128:276,1,35
84,152,131322,2,0,L|96:196,1,35
148,320,131506,2,0,L|208:304,1,35
276,288,131691,2,0,L|336:256,1,35
384,204,131875,2,0,L|392:156,1,35
360,68,132060,2,0,P|344:52|312:48,1,35
216,40,132245,2,0,L|168:56,1,35
56,112,132429,2,0,L|64:152,1,35
72,176,132614,5,0,0:0:0:0:
82,209,132706,1,0,0:0:0:0:
105,235,132798,1,0,0:0:0:0:
136,249,132890,1,0,0:0:0:0:
171,249,132983,5,0,0:0:0:0:
203,235,133075,1,0,0:0:0:0:
240,256,133168,1,0,0:0:0:0:
263,282,133260,1,0,0:0:0:0:
293,299,133352,5,0,0:0:0:0:
327,305,133444,1,0,0:0:0:0:
362,299,133537,1,0,0:0:0:0:
392,283,133629,1,0,0:0:0:0:
416,257,133721,1,0,0:0:0:0:
430,225,133814,1,0,0:0:0:0:
440,192,133906,2,4,P|440:168|432:128,1,35
396,64,134091,6,0,L|356:48,1,35
300,52,134276,2,0,L|260:84,1,35
220,112,134460,2,0,L|196:160,1,35
184,200,134645,2,0,L|192:256,1,35
220,288,134829,2,0,L|272:328,1,35
308,324,135014,2,0,L|364:312,1,35
400,304,135199,2,0,L|436:272,1,35
452,228,135383,2,0,L|452:168,1,35
428,136,135568,2,0,L|392:104,1,35
344,88,135753,2,0,L|292:76,1,35
268,120,135937,6,0,L|304:160,1,35
288,200,136122,2,0,L|224:192,1,35
216,232,136306,2,0,L|232:280,1,35
248,320,136491,2,0,L|188:352,1,35
156,344,136676,2,0,L|116:292,1,35
128,260,136860,2,0,L|84:224,1,35
56,200,137045,6,0,L|88:168,1,35
112,140,137229,1,0,0:0:0:0:
140,96,137321,1,0,0:0:0:0:
190,81,137413,1,0,0:0:0:0:
242,82,137505,1,0,0:0:0:0:
292,99,137597,1,0,0:0:0:0:
340,120,137691,1,0,0:0:0:0:
382,150,137783,1,0,0:0:0:0:
414,191,137875,5,0,0:0:0:0:
433,240,137967,1,0,0:0:0:0:
437,292,138060,1,0,0:0:0:0:
424,348,138152,2,0,L|360:348,1,35
336,348,138336,2,0,L|280:348,1,35
248,348,138521,2,0,L|204:316,1,35
192,284,138705,2,0,L|180:228,1,35
144,52,138890,2,0,L|156:112,1,35
96,276,139075,2,0,L|132:224,1,35
248,40,139259,2,0,L|228:104,1,35
168,320,139444,2,0,L|200:272,1,35
216,232,139629,1,0,0:0:0:0:
248,176,139721,1,4,0:0:0:0:
284,124,139814,1,4,0:0:0:0:
320,72,139906,1,4,0:0:0:0:
376,72,139998,5,0,0:0:0:0:
409,96,140090,1,0,0:0:0:0:
432,131,140182,1,0,0:0:0:0:
441,172,140274,1,0,0:0:0:0:
435,214,140367,1,0,0:0:0:0:
414,250,140459,1,0,0:0:0:0:
384,280,140552,1,0,0:0:0:0:
344,288,140644,1,0,0:0:0:0:
312,256,140737,5,0,0:0:0:0:
301,222,140829,1,0,0:0:0:0:
278,196,140921,1,0,0:0:0:0:
247,182,141013,1,0,0:0:0:0:
212,181,141106,1,0,0:0:0:0:
180,195,141198,1,0,0:0:0:0:
157,221,141290,1,0,0:0:0:0:
144,256,141383,1,0,0:0:0:0:
168,288,141475,5,0,0:0:0:0:
202,283,141567,1,0,0:0:0:0:
235,293,141659,1,0,0:0:0:0:
263,314,141751,1,0,0:0:0:0:
297,319,141845,1,0,0:0:0:0:
330,309,141937,1,0,0:0:0:0:
358,288,142029,1,0,0:0:0:0:
368,248,142121,1,0,0:0:0:0:
344,216,142214,5,0,0:0:0:0:
360,185,142306,1,0,0:0:0:0:
349,153,142398,1,0,0:0:0:0:
319,137,142490,1,0,0:0:0:0:
287,147,142583,1,0,0:0:0:0:
270,177,142675,1,0,0:0:0:0:
281,209,142767,1,0,0:0:0:0:
311,225,142859,1,0,0:0:0:0:
343,215,142952,5,0,0:0:0:0:
376,200,143044,1,0,0:0:0:0:
456,152,143137,2,0,L|392:176,1,35
36,272,143322,2,0,L|96:240,1,35
252,168,143506,2,0,L|188:168,1,35
32,164,143691,2,0,L|88:192,1,35
260,284,143876,2,0,L|216:240,1,35
92,72,144060,2,0,L|112:120,1,35
148,336,144245,2,0,L|160:276,1,35
180,184,144429,6,2,L|228:148,1,35
400,40,144614,2,2,L|376:88,1,35
252,304,144799,2,2,L|248:240,1,35
432,256,144983,2,2,L|384:216,1,35
220,68,145168,2,2,L|280:88,1,35
460,132,145352,2,6,L|420:148,1,35
372,168,145537,1,0,0:0:0:0:
312,192,145629,1,4,0:0:0:0:
256,216,145721,1,4,0:0:0:0:
200,240,145813,1,4,0:0:0:0:
108,48,146088,5,0,0:0:0:0:
133,59,146182,1,0,0:0:0:0:
159,70,146277,1,0,0:0:0:0:
124,336,146468,5,0,0:0:0:0:
157,326,146562,1,0,0:0:0:0:
184,320,146658,1,0,0:0:0:0:
412,208,146848,5,0,0:0:0:0:
387,197,146942,1,0,0:0:0:0:
361,186,147037,1,0,0:0:0:0:
40,116,147227,5,0,0:0:0:0:
73,125,147321,1,0,0:0:0:0:
100,132,147417,1,0,0:0:0:0:
232,328,147607,5,0,0:0:0:0:
232,300,147701,1,0,0:0:0:0:
232,276,147796,1,0,0:0:0:0:
336,40,147986,5,0,0:0:0:0:
336,72,148082,1,0,0:0:0:0:
336,100,148176,1,0,0:0:0:0:
176,312,148746,6,0,P|144:284|160:248,1,70
272,40,149125,2,0,L|320:36,2,35
72,200,149505,1,0,0:0:0:0:
72,248,149600,1,0,0:0:0:0:
88,292,149695,1,0,0:0:0:0:
352,104,149885,2,0,L|388:64,1,35
408,44,150074,1,0,0:0:0:0:
120,324,150264,1,4,0:0:0:0:
456,168,150454,5,0,0:0:0:0:
467,225,150548,1,0,0:0:0:0:
450,281,150643,1,0,0:0:0:0:
407,323,150738,1,0,0:0:0:0:
351,339,150833,1,0,0:0:0:0:
293,326,150928,1,0,0:0:0:0:
249,287,151023,1,0,0:0:0:0:
229,231,151118,1,0,0:0:0:0:
237,173,151213,5,0,0:0:0:0:
273,126,151308,1,0,0:0:0:0:
328,112,151403,1,0,0:0:0:0:
384,120,151498,1,0,0:0:0:0:
432,152,151593,1,0,0:0:0:0:
448,208,151688,1,0,0:0:0:0:
440,264,151783,1,0,0:0:0:0:
112,336,151973,5,0,0:0:0:0:
128,80,152162,1,0,0:0:0:0:
160,44,152257,1,0,0:0:0:0:
204,24,152352,1,0,0:0:0:0:
288,340,152542,1,0,0:0:0:0:
328,312,152637,1,0,0:0:0:0:
352,268,152732,1,0,0:0:0:0:
64,340,152922,2,0,L|100:292,1,35
212,120,153111,1,8,0:0:0:0:
484,272,153301,1,4,0:0:0:0:
212,120,153491,5,0,0:0:0:0:
223,166,153585,1,0,0:0:0:0:
261,196,153680,1,0,0:0:0:0:
309,195,153775,1,0,0:0:0:0:
346,164,153870,1,0,0:0:0:0:
355,117,153965,1,0,0:0:0:0:
333,74,154060,1,0,0:0:0:0:
290,55,154155,1,0,0:0:0:0:
260,92,154250,5,0,0:0:0:0:
220,64,154344,1,0,0:0:0:0:
182,34,154439,1,0,0:0:0:0:
134,35,154534,1,0,0:0:0:0:
97,66,154629,1,0,0:0:0:0:
88,113,154724,1,0,0:0:0:0:
110,156,154819,1,0,0:0:0:0:
412,336,155010,1,0,0:0:0:0:
460,48,155199,6,0,L|356:164,1,140
128,360,155579,1,0,0:0:0:0:
100,44,155769,2,0,P|156:116|204:140,1,140
236,140,156053,1,0,0:0:0:0:
284,120,156148,1,8,0:0:0:0:
32,220,156338,1,4,0:0:0:0:
424,136,156528,5,0,0:0:0:0:
414,191,156622,1,0,0:0:0:0:
380,233,156717,1,0,0:0:0:0:
326,228,156812,1,0,0:0:0:0:
289,188,156907,1,0,0:0:0:0:
267,136,157002,1,0,0:0:0:0:
241,87,157097,1,0,0:0:0:0:
196,55,157192,1,0,0:0:0:0:
142,59,157287,5,0,0:0:0:0:
104,99,157382,1,0,0:0:0:0:
89,153,157477,1,0,0:0:0:0:
88,209,157571,1,0,0:0:0:0:
116,256,157667,2,0,P|212:284|272:272,1,140
468,84,158047,2,0,P|372:56|308:56,1,140
280,60,158331,1,0,0:0:0:0:
232,88,158426,1,0,0:0:0:0:
112,320,158616,1,0,0:0:0:0:
160,340,158711,1,0,0:0:0:0:
208,324,158806,1,0,0:0:0:0:
376,88,158996,2,0,L|336:20,2,70
488,344,159375,1,4,0:0:0:0:
144,252,159565,5,8,0:0:0:0:
107,193,159659,1,8,0:0:0:0:
106,124,159754,1,8,0:0:0:0:
142,65,159849,1,8,0:0:0:0:
204,33,159944,1,8,0:0:0:0:
272,39,160039,1,8,0:0:0:0:
328,80,160134,1,8,0:0:0:0:
354,144,160229,1,8,0:0:0:0:
342,212,160324,1,8,0:0:0:0:
80,268,160514,6,0,P|36:184|40:124,1,140
380,124,160894,1,4,0:0:0:0:
376,132,161084,6,6,B|344:172|344:172|420:172|428:256|428:292|392:320|364:320|332:308,1,280
168,244,162029,1,0,0:0:0:0:
168,244,162214,1,0,0:0:0:0:
168,244,162398,1,0,0:0:0:0:
168,244,162583,1,0,0:0:0:0:
164,128,162768,1,0,0:0:0:0:
164,128,162952,1,0,0:0:0:0:
168,244,163137,1,0,0:0:0:0:
164,128,163321,1,0,0:0:0:0:
168,244,163506,6,0,P|228:240|244:216,1,70
292,152,163875,1,0,0:0:0:0:
376,80,164060,1,0,0:0:0:0:
464,152,164244,1,0,0:0:0:0:
376,252,164429,1,0,0:0:0:0:
228,272,164613,1,0,0:0:0:0:
100,208,164798,2,0,P|100:164|128:128,1,70
252,64,165167,2,0,P|296:60|340:84,1,70
448,196,165536,2,0,P|445:240|414:279,1,70
80,228,165905,2,0,P|82:183|113:144,1,70
360,64,166274,6,0,L|360:140,1,70
228,200,166643,1,0,0:0:0:0:
308,268,166828,1,0,0:0:0:0:
216,312,167013,1,0,0:0:0:0:
116,100,167197,1,0,0:0:0:0:
272,120,167382,2,0,P|320:136|344:164,1,70
128,196,167751,2,0,P|172:220|224:220,1,70
400,296,168120,2,0,P|348:316|316:320,1,70
112,308,168489,2,0,P|164:300|204:280,1,70
316,192,168858,2,0,B|376:132,1,70
136,104,169227,6,0,B|92:160|92:160|108:264|204:288|260:252,1,280
240,92,170150,2,0,B|324:83|324:84|324:84|320:172|408:200,1,210
152,268,170888,2,0,B|80:260|80:260|64:220|72:180|104:156,1,175
224,128,171442,2,0,B|272:68|272:68|300:104|300:104|432:52|500:128|500:228|444:336|296:272|296:272|272:316|272:316|220:248,1,700
120,224,173472,1,0,0:0:0:0:
116,108,173657,1,4,0:0:0:0:
296,96,174026,1,0,0:0:0:0:
352,196,174210,1,0,0:0:0:0:
300,288,174395,1,4,0:0:0:0:
104,280,174764,1,0,0:0:0:0:
52,168,174949,1,0,0:0:0:0:
144,64,175133,6,4,B|208:64|208:64|184:164|264:216|344:160,1,280
192,284,176241,1,0,0:0:0:0:
148,236,176425,1,0,0:0:0:0:
208,228,176610,1,4,0:0:0:0:
328,96,176979,1,0,0:0:0:0:
388,104,177164,1,0,0:0:0:0:
344,152,177348,1,4,0:0:0:0:
164,92,177717,1,0,0:0:0:0:
156,264,177902,1,0,0:0:0:0:
428,316,178086,6,4,B|361:363|281:311|305:211|305:211|241:211,1,280
132,132,179194,1,0,0:0:0:0:
168,288,179378,1,0,0:0:0:0:
344,304,179563,1,4,0:0:0:0:
356,124,179932,1,0,0:0:0:0:
232,68,180116,1,0,0:0:0:0:
108,120,180301,1,4,0:0:0:0:
192,320,180670,6,0,P|260:308|280:296,1,70
404,232,181039,1,8,0:0:0:0:
280,56,181224,2,0,P|216:64|196:88,1,70
88,176,181593,1,8,0:0:0:0:
204,304,181778,2,0,P|268:312|296:296,1,70
360,228,182147,1,0,0:0:0:0:
364,104,182331,1,0,0:0:0:0:
272,164,182516,1,8,0:0:0:0:
184,92,182700,1,8,0:0:0:0:
184,224,182885,1,8,0:0:0:0:
292,288,183069,6,4,P|336:264|360:224,1,70
296,92,183623,1,0,0:0:0:0:
136,116,183808,1,0,0:0:0:0:
120,272,183992,6,4,B|184:300|184:300|204:252|244:216|300:216|360:260,1,280
352,120,185100,1,0,0:0:0:0:
220,120,185284,1,0,0:0:0:0:
88,156,185469,1,4,0:0:0:0:
104,288,185838,1,0,0:0:0:0:
256,264,186022,1,0,0:0:0:0:
376,192,186207,1,4,0:0:0:0:
288,64,186576,1,0,0:0:0:0:
160,144,186761,1,0,0:0:0:0:
376,144,186945,2,4,B|316:184|316:184|332:248|280:288|212:288|192:212,1,280
256,192,187778,12,0,193645,0:0:0:0:
