osu file format v14

[General]
AudioFilename: audio.mp3
AudioLeadIn: 0
PreviewTime: 3249
Countdown: 0
SampleSet: Soft
StackLeniency: 0.4
Mode: 0
LetterboxInBreaks: 0
WidescreenStoryboard: 0

[Editor]
Bookmarks: 5021,5781,13751,15648,17166,18684,21721,36902,38420,39179,39938,52083,70300,75993,81701,90341,91576,159535
DistanceSpacing: 0.8
BeatDivisor: 4
GridSize: 8
TimelineZoom: 1.6

[Metadata]
Title:Imaginary Places
TitleUnicode:Imaginary Places
Artist:Busdriver
ArtistUnicode:Busdriver
Creator:Moreon
Version:NeBu's Speed Demon
Source:
Tags:phoon NeBu Busdriver Rdzeniu Streams Hatiso Moreon Rap sbsonic Andemu Asrasz LukerMaster Chalwa CptSqBany DominiGG AnySense squirrelpascals Fieryrage tem Squishi Soiplox Script
BeatmapID:1343292
BeatmapSetID:632870

[Difficulty]
HPDrainRate:5
CircleSize:4
OverallDifficulty:8.3
ApproachRate:9.7
SliderMultiplier:2.1
SliderTickRate:1

[Events]
//Background and Video events
0,0,"BG.jpg",0,0
//Break Periods
2,76752,79119
//Storyboard Layer 0 (Background)
//Storyboard Layer 1 (Fail)
//Storyboard Layer 2 (Pass)
//Storyboard Layer 3 (Foreground)
//Storyboard Sound Samples

[TimingPoints]
497.668789808917,379.525605095541,4,2,0,65,1,0
21751,-90.9090909090909,4,2,0,65,0,0
39968,-83.3333333333333,4,2,0,65,0,0
58185,-76.9230769230769,4,2,0,65,0,0
76794,411.444676258992,4,2,0,60,1,0
80497,-133.333333333333,4,2,0,60,0,0
122276,369.230769230769,4,2,0,60,1,0
145899,379.625605095541,4,2,0,10,1,1
146088,-100,4,2,0,15,0,1
146468,-100,4,2,0,20,0,1
146848,-100,4,2,0,25,0,1
147227,-100,4,2,0,30,0,1
147607,-100,4,2,0,35,0,1
147986,-100,4,2,0,40,0,1
148366,-100,4,2,0,45,0,1
148746,-100,4,2,0,50,0,1
148936,-66.6666666666667,4,2,0,50,0,1
161107,369.125605095541,4,2,0,40,1,0
161107,-200,4,2,0,40,0,0
187459,426.625605095542,4,2,0,20,1,0
193645,-100,4,2,0,5,0,0

[Colours]
Combo1 : 255,192,0
Combo2 : 0,174,174
Combo3 : 41,101,31
Combo4 : 242,24,57

[HitObjects]
128,128,497,5,4,0:0:0:0:
232,56,687,1,0,0:0:0:0:
240,88,782,1,0,0:0:0:0:
248,120,877,1,0,0:0:0:0:
232,56,1066,1,0,0:0:0:0:
192,232,1256,5,4,0:0:0:0:
291,276,1446,1,0,0:0:0:0:
299,308,1541,1,0,0:0:0:0:
307,340,1636,1,0,0:0:0:0:
291,276,1826,1,0,0:0:0:0:
384,216,2015,6,8,L|368:160,1,52.5
336,40,2205,2,2,L|320:96,1,52.5
364,234,2395,6,8,L|348:178,1,52.5
316,58,2585,2,2,L|300:114,1,52.5
349,258,2774,6,8,L|333:202,1,52.5
301,82,2964,2,2,L|285:138,1,52.5
261,311,3154,2,2,B|234:264|234:264|253:199,1,105
208,80,3533,6,0,L|88:64,1,105,0|0,0:0|0:0,0:0:0:0:
88,72,3818,1,0,0:0:0:0:
72,80,3913,2,0,P|53:131|78:179,1,105,0|0,0:0|0:0,0:0:0:0:
88,184,4198,1,0,0:0:0:0:
112,176,4292,2,0,P|161:167|206:197,1,105,0|0,0:0|0:0,0:0:0:0:
216,216,4577,1,0,0:0:0:0:
232,224,4672,2,0,P|288:232|328:200,1,105,0|0,0:0|0:0,0:0:0:0:
384,56,5051,5,8,0:0:0:0:
308,23,5145,1,0,0:0:0:0:
245,75,5240,1,8,0:0:0:0:
264,155,5335,1,0,0:0:0:0:
324,204,5431,1,8,0:0:0:0:
343,284,5526,1,0,0:0:0:0:
280,336,5621,1,8,0:0:0:0:
204,303,5715,1,0,0:0:0:0:
200,224,5811,5,8,0:0:0:0:
200,224,5905,1,0,0:0:0:0:
200,224,6000,2,0,L|208:168,1,52.5
112,152,6190,1,0,0:0:0:0:
112,152,6284,1,0,0:0:0:0:
112,152,6380,2,0,L|102:98,1,52.5
216,56,6570,6,2,L|328:48,1,105
312,64,6854,1,0,0:0:0:0:
304,80,6949,2,2,L|416:72,1,105
264,200,7329,1,0,0:0:0:0:
320,48,7518,1,0,0:0:0:0:
368,207,7708,2,2,L|256:199,1,105
184,136,8088,5,8,0:0:0:0:
131,140,8182,1,0,0:0:0:0:
79,145,8277,1,8,0:0:0:0:
27,150,8372,1,0,0:0:0:0:
157,170,8467,5,8,0:0:0:0:
104,174,8561,1,0,0:0:0:0:
52,179,8656,1,8,0:0:0:0:
0,184,8751,1,0,0:0:0:0:
30,207,8847,5,8,0:0:0:0:
32,224,8941,1,0,0:0:0:0:
34,241,9036,1,8,0:0:0:0:
36,259,9131,1,0,0:0:0:0:
38,274,9226,2,0,L|46:344,1,52.5,0|0,0:0|0:0,0:0:0:0:
30,207,9416,1,4,0:0:0:0:
352,264,9606,6,2,L|336:160,1,105
256,360,9890,1,0,0:0:0:0:
160,264,9985,2,2,L|176:160,1,105
256,360,10270,1,0,0:0:0:0:
352,264,10365,2,2,L|336:160,1,105
207,61,10744,2,2,P|259:43|313:68,1,105
336,154,11124,5,8,0:0:0:0:
284,117,11218,1,0,0:0:0:0:
303,59,11313,1,8,0:0:0:0:
365,58,11408,1,0,0:0:0:0:
384,117,11503,1,8,0:0:0:0:
334,169,11598,1,0,0:0:0:0:
269,122,11692,1,8,0:0:0:0:
292,50,11787,1,0,0:0:0:0:
367,44,11883,6,0,L|440:56,1,52.5,0|0,0:0|0:0,0:0:0:0:
350,180,12073,2,0,L|288:192,1,52.5,0|0,0:0|0:0,0:0:0:0:
347,57,12262,6,0,L|420:69,1,52.5,0|0,0:0|0:0,0:0:0:0:
330,193,12452,2,0,L|268:205,1,52.5,0|0,0:0|0:0,0:0:0:0:
208,128,12642,6,2,L|192:24,1,105
176,160,12927,1,0,0:0:0:0:
239,103,13022,2,2,L|223:-1,1,105
176,160,13306,1,0,0:0:0:0:
159,241,13401,2,2,P|205:265|258:256,1,105
176,160,13781,2,2,P|130:136|77:145,1,105
256,256,14160,5,8,0:0:0:0:
261,221,14254,1,0,0:0:0:0:
266,186,14349,1,8,0:0:0:0:
271,152,14444,1,0,0:0:0:0:
337,238,14540,1,8,0:0:0:0:
344,185,14634,1,0,0:0:0:0:
352,132,14729,1,8,0:0:0:0:
359,81,14824,1,0,0:0:0:0:
415,223,14920,1,8,0:0:0:0:
424,147,15014,1,0,0:0:0:0:
436,72,15109,1,8,0:0:0:0:
446,0,15204,1,0,0:0:0:0:
446,0,15299,2,2,P|499:35|508:76,1,105
361,223,15678,5,4,0:0:0:0:
221,308,15868,1,0,0:0:0:0:
136,167,16058,1,0,0:0:0:0:
276,81,16247,1,0,0:0:0:0:
328,322,16437,5,4,0:0:0:0:
125,270,16627,1,0,0:0:0:0:
176,69,16817,1,0,0:0:0:0:
376,119,17007,1,0,0:0:0:0:
205,365,17196,5,4,0:0:0:0:
76,150,17386,1,0,0:0:0:0:
287,23,17576,1,0,0:0:0:0:
416,234,17766,1,0,0:0:0:0:
58,313,17955,5,4,0:0:0:0:
133,4,18145,1,0,0:0:0:0:
434,80,18335,1,0,0:0:0:0:
363,383,18525,1,0,0:0:0:0:
103,319,18714,5,8,0:0:0:0:
55,251,18808,1,0,0:0:0:0:
91,176,18903,1,8,0:0:0:0:
175,171,18998,1,0,0:0:0:0:
235,226,19094,1,8,0:0:0:0:
319,221,19189,1,0,0:0:0:0:
355,146,19284,1,8,0:0:0:0:
308,78,19378,1,0,0:0:0:0:
224,74,19473,5,8,0:0:0:0:
168,136,19568,1,0,0:0:0:0:
195,215,19663,1,8,0:0:0:0:
277,230,19757,1,0,0:0:0:0:
328,163,19853,1,8,0:0:0:0:
410,178,19947,1,0,0:0:0:0:
437,257,20042,1,8,0:0:0:0:
381,319,20137,1,0,0:0:0:0:
303,302,20233,5,0,0:0:0:0:
303,302,20327,1,0,0:0:0:0:
303,302,20422,2,0,L|240:296,1,52.5,0|0,0:0|0:0,0:0:0:0:
128,208,20612,1,0,0:0:0:0:
128,208,20706,1,0,0:0:0:0:
128,208,20802,2,0,L|191:202,1,52.5
385,141,20992,1,0,0:0:0:0:
385,141,21086,1,0,0:0:0:0:
385,141,21181,2,0,L|322:135,1,52.5,0|0,0:0|0:0,0:0:0:0:
76,63,21371,1,0,0:0:0:0:
76,63,21465,1,0,0:0:0:0:
76,63,21561,2,0,L|139:57,1,52.5
369,26,21751,6,2,L|385:146,1,115.50000352478
256,192,22035,1,0,0:0:0:0:
127,243,22130,2,2,L|143:358,1,115.50000352478
384,140,22510,1,0,0:0:0:0:
142,357,22699,1,0,0:0:0:0:
384,140,22889,2,2,L|369:26,1,115.50000352478
240,48,23269,5,8,0:0:0:0:
201,53,23363,1,0,0:0:0:0:
163,58,23458,1,8,0:0:0:0:
125,63,23553,1,0,0:0:0:0:
58,103,23648,1,8,0:0:0:0:
109,109,23742,1,0,0:0:0:0:
160,116,23837,1,8,0:0:0:0:
212,123,23932,1,0,0:0:0:0:
280,161,24028,1,8,0:0:0:0:
201,170,24122,1,0,0:0:0:0:
122,181,24217,1,8,0:0:0:0:
41,191,24312,1,0,0:0:0:0:
0,256,24407,1,8,0:0:0:0:
114,269,24501,1,0,0:0:0:0:
229,285,24596,1,8,0:0:0:0:
347,299,24691,1,0,0:0:0:0:
347,299,24787,6,2,L|368:176,1,115.50000352478
344,192,25071,1,0,0:0:0:0:
319,197,25166,2,2,L|340:74,1,115.50000352478
320,96,25451,1,0,0:0:0:0:
296,107,25546,2,2,L|272:232,1,115.50000352478
240,342,25925,2,0,L|224:286,1,57.7500017623902,0|0,0:0|0:0,0:0:0:0:
209,155,26115,2,0,L|193:217,1,57.7500017623902,0|0,0:0|0:0,0:0:0:0:
159,268,26305,5,8,0:0:0:0:
96,238,26399,1,0,0:0:0:0:
89,170,26494,1,8,0:0:0:0:
144,128,26589,1,0,0:0:0:0:
208,154,26684,1,8,0:0:0:0:
221,223,26779,1,0,0:0:0:0:
285,249,26874,1,8,0:0:0:0:
340,207,26969,1,0,0:0:0:0:
333,139,27064,6,0,L|320:72,1,57.7500017623902,0|0,0:0|0:0,0:0:0:0:
396,39,27254,2,0,L|408:96,1,57.7500017623902,0|0,0:0|0:0,0:0:0:0:
349,112,27443,6,0,L|336:45,1,57.7500017623902,0|0,0:0|0:0,0:0:0:0:
412,12,27633,2,0,L|423:68,1,57.7500017623902,0|0,0:0|0:0,0:0:0:0:
349,112,27823,5,4,0:0:0:0:
256,96,28013,1,8,0:0:0:0:
248,112,28108,1,0,0:0:0:0:
240,128,28203,1,8,0:0:0:0:
150,115,28392,1,8,0:0:0:0:
132,149,28487,1,0,0:0:0:0:
115,183,28582,1,8,0:0:0:0:
232,272,28772,1,4,0:0:0:0:
150,115,28962,1,4,0:0:0:0:
64,312,29151,1,4,0:0:0:0:
232,272,29341,5,8,0:0:0:0:
208,231,29436,1,0,0:0:0:0:
249,208,29531,1,8,0:0:0:0:
271,248,29626,1,0,0:0:0:0:
214,256,29721,5,8,0:0:0:0:
226,210,29816,1,0,0:0:0:0:
271,222,29911,1,8,0:0:0:0:
258,266,30006,1,0,0:0:0:0:
208,231,30100,5,8,0:0:0:0:
249,206,30195,1,0,0:0:0:0:
272,247,30290,1,8,0:0:0:0:
232,269,30385,1,0,0:0:0:0:
224,256,30480,1,8,0:0:0:0:
216,240,30575,1,0,0:0:0:0:
208,224,30669,1,8,0:0:0:0:
200,208,30764,1,0,0:0:0:0:
192,192,30859,6,2,P|167:136|196:73,1,115.50000352478
245,134,31144,1,0,0:0:0:0:
192,192,31239,2,2,P|136:217|73:188,1,115.50000352478
131,30,31618,2,2,P|195:14|243:38,1,115.50000352478
102,315,31998,2,2,L|86:195,1,115.50000352478
208,120,32377,6,0,L|192:184,1,57.7500017623902,0|0,0:0|0:0,0:0:0:0:
214,137,32567,2,0,L|226:201,1,57.7500017623902,0|0,0:0|0:0,0:0:0:0:
226,149,32757,2,0,L|264:202,1,57.7500017623902,0|0,0:0|0:0,0:0:0:0:
241,160,32947,2,0,L|298:192,1,57.7500017623902,0|0,0:0|0:0,0:0:0:0:
280,260,33136,1,8,0:0:0:0:
241,264,33230,1,0,0:0:0:0:
203,268,33325,1,8,0:0:0:0:
165,273,33420,1,0,0:0:0:0:
132,279,33516,1,8,0:0:0:0:
196,285,33610,1,0,0:0:0:0:
259,292,33705,1,8,0:0:0:0:
322,300,33800,1,0,0:0:0:0:
386,310,33895,5,4,0:0:0:0:
464,96,34085,1,0,0:0:0:0:
496,360,34275,1,0,0:0:0:0:
376,152,34465,1,0,0:0:0:0:
280,310,34654,5,4,0:0:0:0:
202,96,34844,1,0,0:0:0:0:
170,360,35034,1,0,0:0:0:0:
290,152,35224,1,0,0:0:0:0:
112,96,35414,5,0,0:0:0:0:
232,80,35603,1,4,0:0:0:0:
160,168,35793,1,0,0:0:0:0:
40,152,35982,1,0,0:0:0:0:
232,80,36173,5,4,0:0:0:0:
312,224,36362,1,0,0:0:0:0:
112,96,36552,5,4,0:0:0:0:
32,240,36741,1,0,0:0:0:0:
176,328,36932,5,8,0:0:0:0:
264,339,37026,1,0,0:0:0:0:
296,256,37121,1,8,0:0:0:0:
223,205,37216,1,0,0:0:0:0:
149,245,37311,1,8,0:0:0:0:
76,194,37406,1,0,0:0:0:0:
108,111,37501,1,8,0:0:0:0:
197,123,37595,1,0,0:0:0:0:
223,205,37691,5,8,0:0:0:0:
312,217,37785,1,0,0:0:0:0:
344,134,37880,1,8,0:0:0:0:
271,83,37975,1,0,0:0:0:0:
197,124,38070,1,8,0:0:0:0:
107,125,38165,1,0,0:0:0:0:
86,39,38260,1,8,0:0:0:0:
168,0,38354,1,0,0:0:0:0:
232,50,38450,6,0,L|304:64,1,57.7500017623902,0|0,0:0|0:0,0:0:0:0:
288,224,38639,2,0,L|216:240,1,57.7500017623902,0|0,0:0|0:0,0:0:0:0:
288,61,38829,2,0,L|360:75,1,57.7500017623902,0|0,0:0|0:0,0:0:0:0:
231,236,39019,2,0,L|159:252,1,57.7500017623902
344,72,39209,5,8,0:0:0:0:
401,144,39303,1,0,0:0:0:0:
411,237,39398,1,8,0:0:0:0:
371,321,39493,1,0,0:0:0:0:
292,371,39588,1,8,0:0:0:0:
199,372,39683,1,0,0:0:0:0:
119,324,39778,1,8,0:0:0:0:
77,241,39873,1,0,0:0:0:0:
84,149,39968,6,2,L|112:16,1,125.999996154785
256,192,40252,1,0,0:0:0:0:
428,149,40347,2,2,L|400:16,1,125.999996154785
256,0,40632,1,0,0:0:0:0:
109,25,40727,2,0,L|98:87,1,62.9999980773926,0|0,0:0|0:0,0:0:0:0:
267,62,40917,2,0,L|256:0,1,62.9999980773926
197,342,41106,2,2,B|257:366|257:366|315:341,1,125.999996154785
160,192,41486,5,0,0:0:0:0:
152,176,41581,2,0,L|168:112,1,62.9999980773926,0|0,0:0|0:0,0:0:0:0:
306,225,41771,1,0,0:0:0:0:
314,209,41866,2,0,L|298:145,3,62.9999980773926
167,115,42245,6,0,L|80:104,1,62.9999980773926,0|0,0:0|0:0,0:0:0:0:
338,60,42435,2,0,L|425:49,1,62.9999980773926,0|0,0:0|0:0,0:0:0:0:
124,98,42625,2,0,L|37:87,1,62.9999980773926,0|0,0:0|0:0,0:0:0:0:
295,43,42815,2,0,L|382:32,1,62.9999980773926,0|0,0:0|0:0,0:0:0:0:
160,336,43004,2,2,L|144:200,1,125.999996154785
176,224,43289,1,0,0:0:0:0:
208,232,43384,2,2,L|192:104,1,125.999996154785
224,120,43668,1,0,0:0:0:0:
257,132,43763,2,2,L|393:180,1,125.999996154785
306,230,44143,2,2,L|187:188,1,125.999996154785
88,176,44522,5,8,0:0:0:0:
80,144,44617,1,0,0:0:0:0:
130,142,44712,5,8,0:0:0:0:
130,109,44807,1,0,0:0:0:0:
177,127,44902,5,8,0:0:0:0:
185,95,44997,1,0,0:0:0:0:
228,121,45091,5,4,0:0:0:0:
244,92,45186,1,0,0:0:0:0:
278,132,45281,1,4,0:0:0:0:
308,160,45375,1,0,0:0:0:0:
320,200,45470,1,8,0:0:0:0:
311,240,45565,1,0,0:0:0:0:
264,174,45661,1,8,0:0:0:0:
309,109,45755,1,0,0:0:0:0:
386,101,45850,1,8,0:0:0:0:
442,155,45945,1,0,0:0:0:0:
432,232,46040,6,2,L|400:360,1,125.999996154785
256,384,46325,1,0,0:0:0:0:
110,354,46420,2,2,L|80:232,1,125.999996154785
256,192,46704,1,0,0:0:0:0:
316,244,46799,2,2,P|332:172|300:124,1,125.999996154785
196,140,47179,2,2,P|180:212|212:260,1,125.999996154785
317,244,47558,6,0,L|384:232,1,62.9999980773926,0|0,0:0|0:0,0:0:0:0:
195,140,47748,2,0,L|128:152,1,62.9999980773926,0|0,0:0|0:0,0:0:0:0:
379,232,47938,2,0,L|446:220,1,62.9999980773926,0|0,0:0|0:0,0:0:0:0:
132,151,48128,2,0,L|65:163,1,62.9999980773926,0|0,0:0|0:0,0:0:0:0:
441,220,48317,2,0,L|508:208,1,62.9999980773926,0|0,0:0|0:0,0:0:0:0:
69,162,48507,2,0,L|2:174,1,62.9999980773926,0|0,0:0|0:0,0:0:0:0:
256,360,48697,2,0,B|272:280|272:280|232:328,1,125.999996154785,0|0,0:0|0:0,0:0:0:0:
168,384,49076,5,8,0:0:0:0:
120,296,49266,1,8,0:0:0:0:
120,296,49361,1,0,0:0:0:0:
120,296,49456,1,8,0:0:0:0:
336,232,49646,1,8,0:0:0:0:
336,232,49741,1,0,0:0:0:0:
336,232,49835,1,8,0:0:0:0:
160,112,50025,1,0,0:0:0:0:
256,360,50215,1,2,0:0:0:0:
360,48,50405,1,0,0:0:0:0:
160,112,50595,5,8,0:0:0:0:
152,153,50689,1,0,0:0:0:0:
144,194,50784,1,8,0:0:0:0:
136,235,50879,1,0,0:0:0:0:
192,208,50974,5,8,0:0:0:0:
200,167,51069,1,0,0:0:0:0:
208,126,51164,1,8,0:0:0:0:
216,85,51258,1,0,0:0:0:0:
271,63,51354,5,8,0:0:0:0:
263,104,51448,1,0,0:0:0:0:
255,145,51543,1,8,0:0:0:0:
247,186,51638,1,0,0:0:0:0:
307,165,51733,5,8,0:0:0:0:
315,124,51828,1,0,0:0:0:0:
323,83,51923,1,8,0:0:0:0:
331,42,52017,1,0,0:0:0:0:
340,3,52113,5,4,0:0:0:0:
392,128,52302,1,0,0:0:0:0:
340,3,52492,1,4,0:0:0:0:
288,128,52681,1,0,0:0:0:0:
236,3,52872,5,4,0:0:0:0:
184,128,53061,1,0,0:0:0:0:
236,3,53251,1,4,0:0:0:0:
288,128,53440,1,0,0:0:0:0:
340,253,53631,5,4,0:0:0:0:
392,128,53820,1,0,0:0:0:0:
340,253,54010,1,4,0:0:0:0:
288,128,54199,1,0,0:0:0:0:
236,3,54390,5,0,0:0:0:0:
184,128,54579,1,4,0:0:0:0:
132,3,54769,1,0,0:0:0:0:
184,128,54958,1,4,0:0:0:0:
256,296,55149,5,8,0:0:0:0:
316,346,55243,1,0,0:0:0:0:
395,342,55338,1,8,0:0:0:0:
450,284,55433,1,0,0:0:0:0:
451,205,55528,1,8,0:0:0:0:
398,147,55623,1,0,0:0:0:0:
319,140,55718,1,8,0:0:0:0:
257,189,55813,1,0,0:0:0:0:
247,263,55908,5,8,0:0:0:0:
185,312,56003,1,0,0:0:0:0:
106,305,56098,1,8,0:0:0:0:
53,247,56193,1,0,0:0:0:0:
54,168,56288,1,8,0:0:0:0:
109,110,56383,1,0,0:0:0:0:
188,106,56478,1,8,0:0:0:0:
248,156,56572,1,0,0:0:0:0:
330,145,56667,5,8,0:0:0:0:
318,57,56761,1,0,0:0:0:0:
251,0,56856,1,8,0:0:0:0:
163,2,56951,1,0,0:0:0:0:
99,63,57046,1,8,0:0:0:0:
92,151,57141,1,0,0:0:0:0:
145,221,57236,1,8,0:0:0:0:
231,237,57331,1,0,0:0:0:0:
231,149,57426,1,8,0:0:0:0:
297,93,57521,1,0,0:0:0:0:
386,96,57616,1,8,0:0:0:0:
449,159,57711,1,0,0:0:0:0:
454,247,57806,1,8,0:0:0:0:
399,315,57901,1,0,0:0:0:0:
312,330,57996,1,8,0:0:0:0:
237,283,58090,1,0,0:0:0:0:
208,192,58185,6,2,B|232:120|232:120|184:160,1,136.499993751526
253,260,58470,1,0,0:0:0:0:
289,189,58565,2,2,B|310:116|310:116|326:174,1,136.499993751526
253,260,58849,1,0,0:0:0:0:
208,192,58944,2,2,L|250:59,1,136.499993751526
253,260,59324,1,4,0:0:0:0:
249,61,59513,1,0,0:0:0:0:
253,260,59703,5,8,0:0:0:0:
218,287,59797,1,0,0:0:0:0:
174,282,59892,1,8,0:0:0:0:
146,248,59987,1,0,0:0:0:0:
151,210,60083,5,8,0:0:0:0:
155,166,60178,1,0,0:0:0:0:
128,131,60273,1,8,0:0:0:0:
83,126,60367,1,0,0:0:0:0:
58,96,60462,5,8,0:0:0:0:
62,50,60556,1,0,0:0:0:0:
98,23,60651,1,8,0:0:0:0:
142,27,60746,1,0,0:0:0:0:
165,56,60842,2,0,L|237:72,1,68.2499968757631
368,0,61032,2,0,L|288:16,1,68.2499968757631
211,142,61221,5,8,0:0:0:0:
272,272,61411,1,8,0:0:0:0:
272,272,61506,1,0,0:0:0:0:
272,272,61601,1,8,0:0:0:0:
176,368,61791,1,8,0:0:0:0:
176,368,61885,1,0,0:0:0:0:
176,368,61980,1,8,0:0:0:0:
400,256,62170,1,0,0:0:0:0:
136,160,62360,1,4,0:0:0:0:
368,384,62550,1,0,0:0:0:0:
250,190,62739,5,8,0:0:0:0:
244,144,62833,1,0,0:0:0:0:
239,99,62928,1,8,0:0:0:0:
234,54,63023,1,0,0:0:0:0:
272,16,63119,5,8,0:0:0:0:
277,61,63214,1,0,0:0:0:0:
282,106,63309,1,8,0:0:0:0:
288,152,63403,1,0,0:0:0:0:
250,190,63498,5,8,0:0:0:0:
244,144,63592,1,0,0:0:0:0:
239,99,63687,1,8,0:0:0:0:
234,54,63782,1,0,0:0:0:0:
272,16,63878,5,8,0:0:0:0:
281,98,63973,1,0,0:0:0:0:
290,180,64068,1,8,0:0:0:0:
301,264,64162,1,0,0:0:0:0:
312,347,64257,6,0,L|232:360,1,68.2499968757631,0|0,0:0|0:0,0:0:0:0:
222,172,64447,2,0,L|294:180,1,68.2499968757631,0|0,0:0|0:0,0:0:0:0:
301,264,64637,2,0,L|221:277,1,68.2499968757631,0|0,0:0|0:0,0:0:0:0:
213,90,64827,2,0,L|285:98,1,68.2499968757631,0|0,0:0|0:0,0:0:0:0:
112,248,65017,1,0,0:0:0:0:
104,208,65111,1,0,0:0:0:0:
96,168,65206,2,0,L|83:96,1,68.2499968757631,0|0,0:0|0:0,0:0:0:0:
424,152,65397,1,0,0:0:0:0:
416,192,65491,1,0,0:0:0:0:
408,232,65586,2,0,L|395:299,1,68.2499968757631,0|0,0:0|0:0,0:0:0:0:
208,96,65776,5,8,0:0:0:0:
251,83,65870,1,0,0:0:0:0:
294,94,65965,1,8,0:0:0:0:
327,125,66060,1,0,0:0:0:0:
378,191,66155,5,8,0:0:0:0:
335,204,66249,1,0,0:0:0:0:
292,193,66344,1,8,0:0:0:0:
259,162,66439,1,0,0:0:0:0:
327,125,66535,5,8,0:0:0:0:
322,170,66629,1,0,0:0:0:0:
317,215,66724,1,8,0:0:0:0:
313,260,66819,1,0,0:0:0:0:
248,280,66914,5,8,0:0:0:0:
244,235,67009,1,0,0:0:0:0:
239,190,67104,1,8,0:0:0:0:
235,145,67198,1,0,0:0:0:0:
232,109,67294,6,2,P|195:69|163:136,1,136.499993751526
244,235,67578,1,0,0:0:0:0:
344,168,67673,2,2,P|381:128|413:195,1,136.499993751526
344,296,67958,1,0,0:0:0:0:
244,235,68053,2,2,P|207:195|175:262,1,136.499993751526
344,296,68432,2,0,P|401:310|432:240,1,136.499993751526
368,56,68812,5,8,0:0:0:0:
322,51,68906,1,0,0:0:0:0:
277,46,69001,1,8,0:0:0:0:
232,41,69096,1,0,0:0:0:0:
193,111,69191,5,8,0:0:0:0:
239,106,69285,1,0,0:0:0:0:
284,101,69380,1,8,0:0:0:0:
329,96,69475,1,0,0:0:0:0:
365,162,69571,5,8,0:0:0:0:
319,157,69665,1,0,0:0:0:0:
274,152,69760,1,8,0:0:0:0:
229,147,69855,1,0,0:0:0:0:
202,214,69950,5,8,0:0:0:0:
248,209,70044,1,0,0:0:0:0:
293,204,70139,1,8,0:0:0:0:
338,199,70234,1,0,0:0:0:0:
384,193,70330,5,4,0:0:0:0:
512,128,70520,1,0,0:0:0:0:
424,288,70709,1,0,0:0:0:0:
336,80,70899,1,0,0:0:0:0:
288,193,71089,5,4,0:0:0:0:
160,128,71279,1,0,0:0:0:0:
248,288,71468,1,0,0:0:0:0:
336,80,71658,1,0,0:0:0:0:
424,288,71848,5,4,0:0:0:0:
160,128,72038,1,0,0:0:0:0:
512,128,72228,5,4,0:0:0:0:
248,288,72418,1,0,0:0:0:0:
336,80,72607,5,8,0:0:0:0:
394,302,72797,1,0,0:0:0:0:
171,363,72987,1,0,0:0:0:0:
110,138,73176,1,0,0:0:0:0:
208,32,73366,5,8,0:0:0:0:
284,27,73460,1,0,0:0:0:0:
345,73,73555,1,8,0:0:0:0:
363,147,73650,1,0,0:0:0:0:
330,216,73745,1,8,0:0:0:0:
260,247,73840,1,0,0:0:0:0:
186,227,73935,1,8,0:0:0:0:
143,164,74030,1,0,0:0:0:0:
155,88,74125,5,8,0:0:0:0:
214,134,74219,1,0,0:0:0:0:
222,210,74314,1,8,0:0:0:0:
172,267,74409,1,0,0:0:0:0:
96,270,74504,1,8,0:0:0:0:
42,217,74599,1,0,0:0:0:0:
43,141,74694,1,8,0:0:0:0:
99,90,74789,1,0,0:0:0:0:
171,111,74884,5,4,0:0:0:0:
223,168,74978,1,0,0:0:0:0:
293,200,75073,1,4,0:0:0:0:
368,184,75168,1,0,0:0:0:0:
398,111,75264,1,4,0:0:0:0:
352,42,75359,1,0,0:0:0:0:
268,30,75453,1,4,0:0:0:0:
195,97,75548,1,0,0:0:0:0:
187,212,75643,1,4,0:0:0:0:
282,303,75738,1,0,0:0:0:0:
420,300,75833,1,4,0:0:0:0:
504,188,75928,1,0,0:0:0:0:
451,27,76023,6,2,B|266:-6|367:83|176:32,1,272.999987503052
72,120,79674,5,0,0:0:0:0:
184,136,79879,1,0,0:0:0:0:
296,152,80085,1,0,0:0:0:0:
408,168,80291,1,0,0:0:0:0:
90,322,80497,6,2,B|74:194|74:194|82:170|82:170|74:146|74:146|58:10|58:10|132:38|132:38|143:127,1,472.500018024445
141,114,81937,1,0,0:0:0:0:
199,176,82142,2,0,L|287:184,1,78.7500030040742,0|0,0:0|0:0,0:0:0:0:
277,183,82554,1,0,0:0:0:0:
277,183,82759,1,0,0:0:0:0:
231,252,82965,2,2,P|199:180|247:108,1,157.500006008148
362,35,83788,5,0,0:0:0:0:
410,107,83994,1,0,0:0:0:0:
370,187,84200,1,0,0:0:0:0:
282,187,84405,1,0,0:0:0:0:
234,115,84611,2,0,L|122:99,1,78.7500030040742,0|0,0:0|0:0,0:0:0:0:
156,103,85022,1,0,0:0:0:0:
156,103,85228,1,0,0:0:0:0:
240,248,85434,5,0,0:0:0:0:
296,0,85640,1,0,0:0:0:0:
396,232,85845,2,2,L|236:248,1,157.500006008148
240,248,86668,1,0,0:0:0:0:
56,336,87080,6,2,B|91:204|91:204|110:193|110:193|152:38,1,315.000012016297
150,41,88314,1,0,0:0:0:0:
221,83,88725,2,0,L|237:179,1,78.7500030040742,0|0,0:0|0:0,0:0:0:0:
319,155,89137,2,0,L|295:243,1,78.7500030040742,0|0,0:0|0:0,0:0:0:0:
141,246,89548,2,2,L|301:230,1,157.500006008148
390,4,90371,6,2,B|388:45|429:72|429:72|405:125|430:180|430:180|367:153|367:153|441:235|380:326|299:337,1,472.500018024445
333,326,91811,1,0,0:0:0:0:
232,208,92017,5,0,0:0:0:0:
176,352,92223,1,0,0:0:0:0:
112,152,92428,1,0,0:0:0:0:
8,368,92634,1,0,0:0:0:0:
112,152,92840,2,2,L|272:120,1,157.500006008148
264,120,93663,5,0,0:0:0:0:
336,256,93868,1,0,0:0:0:0:
275,197,94074,5,0,0:0:0:0:
203,333,94279,1,0,0:0:0:0:
199,169,94486,2,2,L|175:81,3,78.7500030040742
80,51,95309,6,2,B|241:-38|193:80|409:5,1,315.000012016297
384,16,96543,1,0,0:0:0:0:
400,311,96954,6,2,B|331:287|272:327|272:327|192:287|192:287|110:327,1,315.000012016297
273,243,98189,2,0,L|289:155,1,78.7500030040742,0|0,0:0|0:0,0:0:0:0:
232,104,98600,5,0,0:0:0:0:
352,48,98806,1,0,0:0:0:0:
287,166,99012,1,0,0:0:0:0:
232,8,99217,1,0,0:0:0:0:
205,183,99423,2,2,P|125:191|77:127,1,157.500006008148
432,40,100246,6,2,L|392:376,1,315.000012016297
432,40,101480,2,0,L|419:151,1,78.7500030040742,0|0,0:0|0:0,0:0:0:0:
344,152,101892,1,0,0:0:0:0:
264,184,102097,1,0,0:0:0:0:
184,216,102303,1,0,0:0:0:0:
104,240,102509,1,0,0:0:0:0:
153,81,102715,2,2,B|216:109|216:109|267:189,1,157.500006008148
344,304,103537,5,0,0:0:0:0:
240,141,103743,1,0,0:0:0:0:
248,304,103949,5,0,0:0:0:0:
352,141,104155,1,0,0:0:0:0:
381,361,104360,5,0,0:0:0:0:
202,81,104566,1,0,0:0:0:0:
216,361,104772,5,0,0:0:0:0:
394,81,104978,1,0,0:0:0:0:
137,346,105183,6,2,P|94:242|153:138,1,236.250009012223
224,112,106006,2,2,P|152:63|74:112,1,157.500006008148
336,349,106829,6,2,B|360:245|360:245|349:163|349:163|384:37,1,315.000012016297
384,40,108063,1,0,0:0:0:0:
302,3,108475,5,0,0:0:0:0:
310,91,108680,1,0,0:0:0:0:
318,179,108886,1,0,0:0:0:0:
326,267,109092,1,0,0:0:0:0:
318,179,109298,2,2,L|333:339,1,157.500006008148
3,194,110121,6,2,L|331:178,1,315.000012016297
396,174,111355,2,0,L|293:179,1,78.7500030040742,0|0,0:0|0:0,0:0:0:0:
168,200,111766,5,0,0:0:0:0:
352,280,111972,1,0,0:0:0:0:
272,104,112178,1,0,0:0:0:0:
232,368,112383,1,0,0:0:0:0:
272,104,112589,2,2,L|432:88,1,157.500006008148
104,128,113412,5,0,0:0:0:0:
104,128,113618,1,0,0:0:0:0:
104,128,113824,1,0,0:0:0:0:
104,128,114029,1,0,0:0:0:0:
176,248,114235,5,0,0:0:0:0:
272,40,114441,1,0,0:0:0:0:
368,336,114646,1,0,0:0:0:0:
272,40,114852,1,0,0:0:0:0:
125,329,115058,6,2,P|85:233|253:185,1,315.000012016297
245,177,116292,1,0,0:0:0:0:
400,352,116704,2,2,L|432:32,1,315.000012016297
431,38,117938,1,0,0:0:0:0:
336,9,118349,2,2,L|344:88,3,78.7500030040742
256,192,119172,12,0,121127,0:0:0:0:
256,192,122087,5,4,0:0:0:0:
153,256,122276,5,8,0:0:0:0:
88,219,122368,1,0,0:0:0:0:
60,152,122460,1,8,0:0:0:0:
81,82,122552,1,0,0:0:0:0:
143,41,122645,1,8,0:0:0:0:
216,48,122737,1,0,0:0:0:0:
267,101,122829,1,8,0:0:0:0:
275,173,122922,1,0,0:0:0:0:
236,236,123014,5,8,0:0:0:0:
244,308,123106,1,0,0:0:0:0:
296,360,123199,1,8,0:0:0:0:
368,368,123291,1,0,0:0:0:0:
430,327,123383,1,8,0:0:0:0:
451,257,123476,1,0,0:0:0:0:
423,190,123568,1,8,0:0:0:0:
358,153,123660,1,0,0:0:0:0:
338,81,123752,5,8,0:0:0:0:
370,64,123845,1,0,0:0:0:0:
406,72,123937,1,8,0:0:0:0:
429,100,124029,1,0,0:0:0:0:
429,137,124122,1,8,0:0:0:0:
406,166,124214,1,0,0:0:0:0:
370,173,124306,1,8,0:0:0:0:
337,156,124399,1,0,0:0:0:0:
323,125,124491,1,8,0:0:0:0:
290,108,124583,1,0,0:0:0:0:
254,115,124676,1,8,0:0:0:0:
231,144,124768,1,0,0:0:0:0:
231,181,124860,1,8,0:0:0:0:
254,209,124952,1,0,0:0:0:0:
290,217,125045,1,8,0:0:0:0:
322,200,125137,1,0,0:0:0:0:
330,174,125229,5,8,0:0:0:0:
291,120,125322,1,0,0:0:0:0:
227,104,125414,1,8,0:0:0:0:
167,133,125506,1,0,0:0:0:0:
141,193,125599,1,8,0:0:0:0:
159,256,125691,1,0,0:0:0:0:
215,293,125783,1,8,0:0:0:0:
280,285,125876,1,0,0:0:0:0:
310,228,125968,5,8,0:0:0:0:
281,168,126060,1,0,0:0:0:0:
221,140,126152,1,8,0:0:0:0:
156,156,126245,1,0,0:0:0:0:
117,209,126337,1,8,0:0:0:0:
119,275,126429,1,0,0:0:0:0:
163,325,126522,1,8,0:0:0:0:
228,336,126614,1,0,0:0:0:0:
288,296,126706,5,0,0:0:0:0:
288,296,126799,1,0,0:0:0:0:
288,296,126891,2,0,L|336:272,1,52.5
211,238,127076,1,0,0:0:0:0:
211,238,127168,1,0,0:0:0:0:
211,238,127260,2,0,L|163:214,1,52.5
294,186,127445,1,0,0:0:0:0:
294,186,127537,1,0,0:0:0:0:
294,186,127629,2,0,L|342:162,1,52.5
217,128,127814,1,0,0:0:0:0:
217,128,127906,1,0,0:0:0:0:
217,128,127999,2,0,L|169:104,1,52.5
100,156,128183,6,0,L|44:172,3,52.5
147,225,128552,2,0,L|203:241,3,52.5
95,282,128922,2,0,L|39:298,3,52.5
148,341,129291,2,0,L|204:357,3,52.5
288,336,129660,5,8,0:0:0:0:
292,301,129752,1,0,0:0:0:0:
297,266,129845,1,8,0:0:0:0:
302,232,129938,1,0,0:0:0:0:
255,229,130030,1,8,0:0:0:0:
250,194,130122,1,0,0:0:0:0:
245,159,130214,1,8,0:0:0:0:
240,125,130306,1,0,0:0:0:0:
277,120,130399,1,8,0:0:0:0:
282,85,130491,1,0,0:0:0:0:
287,50,130583,1,8,0:0:0:0:
292,16,130675,1,0,0:0:0:0:
331,43,130767,1,8,0:0:0:0:
336,77,130859,1,0,0:0:0:0:
341,112,130951,1,8,0:0:0:0:
346,147,131045,1,0,0:0:0:0:
320,176,131138,5,0,0:0:0:0:
320,176,131230,1,0,0:0:0:0:
320,176,131322,2,0,L|312:232,1,52.5,0|0,0:0|0:0,0:0:0:0:
195,201,131507,1,0,0:0:0:0:
195,201,131599,1,0,0:0:0:0:
195,201,131691,2,0,L|203:257,1,52.5,0|0,0:0|0:0,0:0:0:0:
432,144,131876,1,0,0:0:0:0:
432,144,131968,1,0,0:0:0:0:
432,143,132060,2,0,L|424:194,1,52.5,0|0,0:0|0:0,0:0:0:0:
80,160,132245,2,0,L|87:211,3,52.5
162,330,132614,5,8,0:0:0:0:
196,327,132706,1,0,0:0:0:0:
231,325,132799,1,8,0:0:0:0:
266,322,132891,1,0,0:0:0:0:
289,284,132983,1,8,0:0:0:0:
255,281,133076,1,0,0:0:0:0:
220,279,133168,1,8,0:0:0:0:
185,276,133260,1,0,0:0:0:0:
165,246,133352,1,8,0:0:0:0:
199,243,133445,1,0,0:0:0:0:
234,241,133537,1,8,0:0:0:0:
269,238,133629,1,0,0:0:0:0:
285,211,133722,1,8,0:0:0:0:
251,208,133814,1,0,0:0:0:0:
216,206,133906,1,8,0:0:0:0:
181,203,133999,1,0,0:0:0:0:
154,151,134091,5,8,0:0:0:0:
176,96,134183,1,0,0:0:0:0:
227,66,134276,1,8,0:0:0:0:
285,72,134368,1,0,0:0:0:0:
329,111,134460,1,8,0:0:0:0:
340,169,134552,1,0,0:0:0:0:
315,222,134645,1,8,0:0:0:0:
263,250,134737,1,0,0:0:0:0:
282,196,134829,5,8,0:0:0:0:
246,149,134922,1,0,0:0:0:0:
189,134,135014,1,8,0:0:0:0:
134,155,135106,1,0,0:0:0:0:
103,204,135199,1,8,0:0:0:0:
107,263,135291,1,0,0:0:0:0:
145,307,135383,1,8,0:0:0:0:
203,321,135476,1,0,0:0:0:0:
259,299,135568,5,0,0:0:0:0:
259,299,135660,1,0,0:0:0:0:
259,299,135752,2,0,L|320:280,1,52.5
192,208,135937,1,0,0:0:0:0:
192,208,136029,1,0,0:0:0:0:
192,208,136122,2,0,L|131:189,1,52.5
285,127,136306,5,0,0:0:0:0:
285,127,136399,1,0,0:0:0:0:
285,127,136491,2,0,L|224:108,1,52.5
352,36,136676,1,0,0:0:0:0:
352,36,136768,1,0,0:0:0:0:
352,36,136860,2,0,L|413:17,1,52.5
400,128,137045,6,0,L|384:192,3,52.5
302,195,137414,2,0,L|318:259,3,52.5
197,245,137783,2,0,L|210:195,3,52.5
124,178,138152,2,0,L|112:128,3,52.5
85,260,138522,5,8,0:0:0:0:
88,304,138614,1,0,0:0:0:0:
116,338,138706,1,8,0:0:0:0:
158,350,138799,1,0,0:0:0:0:
200,335,138891,1,8,0:0:0:0:
225,299,138983,1,0,0:0:0:0:
225,255,139076,1,8,0:0:0:0:
200,219,139168,1,0,0:0:0:0:
154,205,139260,5,8,0:0:0:0:
129,169,139352,1,0,0:0:0:0:
129,125,139445,1,8,0:0:0:0:
154,89,139537,1,0,0:0:0:0:
196,74,139629,1,8,0:0:0:0:
238,86,139722,1,0,0:0:0:0:
266,120,139814,1,8,0:0:0:0:
269,164,139906,1,0,0:0:0:0:
287,195,139999,6,0,L|303:251,3,52.5
216,258,140368,2,0,L|200:314,3,52.5
354,152,140737,6,0,L|370:208,3,52.5
137,265,141106,2,0,L|121:321,3,52.5
232,212,141476,5,0,0:0:0:0:
226,194,141568,1,0,0:0:0:0:
219,177,141660,2,0,L|201:115,1,52.5
308,150,141845,1,0,0:0:0:0:
316,133,141937,1,0,0:0:0:0:
323,116,142029,2,0,L|341:54,1,52.5
126,182,142214,1,0,0:0:0:0:
120,165,142306,1,0,0:0:0:0:
113,148,142399,2,0,L|95:86,1,52.5
204,126,142583,1,0,0:0:0:0:
211,111,142676,1,0,0:0:0:0:
217,96,142768,2,0,L|235:34,1,52.5
320,28,142952,5,8,0:0:0:0:
371,30,143045,1,0,0:0:0:0:
413,61,143137,1,8,0:0:0:0:
431,109,143229,1,0,0:0:0:0:
418,160,143322,1,8,0:0:0:0:
380,195,143414,1,0,0:0:0:0:
329,203,143506,1,8,0:0:0:0:
282,182,143599,1,0,0:0:0:0:
269,177,143691,1,8,0:0:0:0:
253,170,143783,1,0,0:0:0:0:
238,166,143876,1,8,0:0:0:0:
223,160,143968,1,0,0:0:0:0:
208,155,144060,1,8,0:0:0:0:
193,149,144152,1,0,0:0:0:0:
178,145,144245,1,8,0:0:0:0:
163,138,144337,1,0,0:0:0:0:
144,132,144429,6,0,L|80:104,3,52.5
196,304,144799,2,0,L|168:368,3,52.5
368,252,145168,2,0,L|432:280,3,52.5
316,80,145537,2,0,L|344:16,3,52.5
152,120,145899,5,4,0:0:0:0:
168,200,146088,1,8,0:0:0:0:
160,160,146183,1,0,0:0:0:0:
152,120,146278,1,8,0:0:0:0:
248,224,146468,1,8,0:0:0:0:
240,184,146563,1,0,0:0:0:0:
232,144,146658,1,8,0:0:0:0:
336,256,146848,1,8,0:0:0:0:
328,216,146943,1,0,0:0:0:0:
320,176,147038,1,8,0:0:0:0:
168,200,147227,5,8,0:0:0:0:
160,160,147322,1,0,0:0:0:0:
152,120,147417,1,8,0:0:0:0:
248,224,147607,1,8,0:0:0:0:
240,184,147702,1,0,0:0:0:0:
232,144,147797,1,8,0:0:0:0:
336,256,147987,1,8,0:0:0:0:
328,216,148082,1,0,0:0:0:0:
320,176,148177,1,8,0:0:0:0:
248,224,148366,5,8,0:0:0:0:
240,184,148461,1,0,0:0:0:0:
232,144,148556,1,8,0:0:0:0:
248,224,148746,1,4,0:0:0:0:
178,53,148936,6,2,L|346:37,1,157.500006008148
256,264,149220,1,0,0:0:0:0:
178,53,149315,2,2,L|346:37,1,157.500006008148
272,336,149600,1,0,0:0:0:0:
178,53,149695,2,2,L|346:37,1,157.500006008148
144,192,149979,1,0,0:0:0:0:
266,118,150074,2,2,L|434:102,1,157.500006008148
69,313,150454,5,8,0:0:0:0:
34,224,150548,1,0,0:0:0:0:
86,145,150643,1,8,0:0:0:0:
180,142,150738,1,0,0:0:0:0:
245,214,150834,1,8,0:0:0:0:
339,211,150929,1,0,0:0:0:0:
391,132,151024,1,8,0:0:0:0:
356,43,151118,1,0,0:0:0:0:
261,70,151213,1,8,0:0:0:0:
255,164,151307,1,0,0:0:0:0:
331,221,151402,1,8,0:0:0:0:
420,190,151497,1,0,0:0:0:0:
444,98,151593,2,0,L|352:88,1,78.7500030040742,0|0,0:0|0:0,0:0:0:0:
328,320,151783,2,0,L|408:304,1,78.7500030040742,0|0,0:0|0:0,0:0:0:0:
136,88,151973,5,4,0:0:0:0:
136,88,152162,1,8,0:0:0:0:
120,176,152257,1,0,0:0:0:0:
104,264,152352,1,8,0:0:0:0:
205,145,152542,1,8,0:0:0:0:
221,233,152637,1,0,0:0:0:0:
237,321,152732,1,8,0:0:0:0:
344,202,152922,1,8,0:0:0:0:
328,290,153017,1,0,0:0:0:0:
312,378,153112,1,8,0:0:0:0:
344,202,153301,1,4,0:0:0:0:
312,378,153491,5,8,0:0:0:0:
234,366,153585,1,0,0:0:0:0:
156,355,153680,1,8,0:0:0:0:
78,344,153775,1,0,0:0:0:0:
125,282,153871,1,8,0:0:0:0:
202,270,153965,1,0,0:0:0:0:
280,259,154060,1,8,0:0:0:0:
358,248,154155,1,0,0:0:0:0:
309,186,154250,5,8,0:0:0:0:
232,174,154344,1,0,0:0:0:0:
154,163,154439,1,8,0:0:0:0:
76,152,154534,1,0,0:0:0:0:
125,90,154630,1,8,0:0:0:0:
202,78,154724,1,0,0:0:0:0:
280,67,154819,1,8,0:0:0:0:
358,56,154914,1,0,0:0:0:0:
437,45,155010,6,2,L|411:208,1,157.500006008148
256,384,155294,1,0,0:0:0:0:
99,200,155389,2,2,L|75:45,1,157.500006008148
256,0,155674,1,0,0:0:0:0:
256,0,155769,2,2,L|256:168,1,157.500006008148
256,384,156148,2,2,L|256:216,1,157.500006008148
192,176,156528,5,8,0:0:0:0:
174,102,156622,1,0,0:0:0:0:
222,43,156717,1,8,0:0:0:0:
298,47,156812,1,0,0:0:0:0:
341,110,156907,1,8,0:0:0:0:
315,182,157002,1,0,0:0:0:0:
256,226,157097,1,8,0:0:0:0:
230,298,157192,1,0,0:0:0:0:
273,361,157287,5,8,0:0:0:0:
349,365,157382,1,0,0:0:0:0:
397,306,157477,1,8,0:0:0:0:
380,233,157571,1,0,0:0:0:0:
315,182,157667,1,8,0:0:0:0:
258,131,157762,1,0,0:0:0:0:
266,55,157857,1,8,0:0:0:0:
330,16,157951,1,0,0:0:0:0:
402,41,158047,5,0,0:0:0:0:
417,44,158141,1,0,0:0:0:0:
432,48,158236,2,0,L|510:63,1,78.7500030040742
169,102,158426,1,0,0:0:0:0:
151,106,158520,1,0,0:0:0:0:
135,110,158616,2,0,L|56:128,1,78.7500030040742
351,198,158806,1,0,0:0:0:0:
368,203,158900,1,0,0:0:0:0:
384,208,158996,2,0,L|461:222,1,78.7500030040742
182,305,159185,1,0,0:0:0:0:
160,309,159279,1,0,0:0:0:0:
141,313,159375,2,0,L|56:328,1,78.7500030040742
256,383,159565,5,8,0:0:0:0:
346,375,159659,1,0,0:0:0:0:
418,316,159754,1,8,0:0:0:0:
445,229,159849,1,0,0:0:0:0:
417,140,159944,1,8,0:0:0:0:
345,83,160039,1,0,0:0:0:0:
253,75,160134,1,8,0:0:0:0:
173,121,160229,1,0,0:0:0:0:
144,200,160324,5,8,0:0:0:0:
163,95,160418,1,0,0:0:0:0:
244,26,160513,1,8,0:0:0:0:
350,21,160608,1,0,0:0:0:0:
436,83,160703,1,8,0:0:0:0:
466,185,160798,1,0,0:0:0:0:
425,283,160893,1,8,0:0:0:0:
333,335,160988,1,0,0:0:0:0:
228,319,161107,6,2,L|112:296,1,105
95,217,161845,2,2,L|304:260,1,210
328,184,162952,1,0,0:0:0:0:
344,144,163321,1,0,0:0:0:0:
360,104,163690,1,0,0:0:0:0:
80,113,164060,6,2,L|96:225,1,105
432,271,164798,2,2,L|416:159,1,105
158,142,165536,2,2,L|174:254,1,105
358,293,166274,2,2,L|342:181,1,105
224,48,167013,5,0,0:0:0:0:
72,184,167382,1,0,0:0:0:0:
440,200,167751,5,0,0:0:0:0:
288,336,168120,1,0,0:0:0:0:
302,232,168489,6,2,L|286:344,1,105
149,171,169227,2,2,P|237:147|301:243,1,210
160,268,170335,2,2,B|135:220|135:220|152:156,1,105
148,171,171073,1,0,0:0:0:0:
209,61,171442,6,2,P|289:77|145:157,1,420
234,147,173288,2,2,L|250:219,2,52.5
245,95,174026,2,2,L|229:167,2,52.5
184,56,174764,1,0,0:0:0:0:
184,56,174949,1,0,0:0:0:0:
184,56,175133,2,2,L|115:65,2,52.5
184,56,175872,5,0,0:0:0:0:
312,40,176241,2,2,L|256:32,2,52.5
224,113,176979,2,2,L|280:105,2,52.5
200,184,177717,1,0,0:0:0:0:
192,216,177902,1,0,0:0:0:0:
184,248,178086,2,2,L|296:272,1,105
200,184,178825,5,0,0:0:0:0:
279,170,179194,2,2,L|263:114,2,52.5
189,105,179932,2,2,L|205:49,2,52.5
160,184,180670,1,0,0:0:0:0:
144,224,180855,1,0,0:0:0:0:
128,264,181039,2,2,L|104:328,2,52.5
110,313,181778,5,0,0:0:0:0:
368,248,182147,5,0,0:0:0:0:
408,176,182331,1,0,0:0:0:0:
368,104,182516,1,0,0:0:0:0:
144,104,182885,5,0,0:0:0:0:
104,176,183070,1,0,0:0:0:0:
144,248,183254,1,0,0:0:0:0:
368,280,183623,5,0,0:0:0:0:
408,208,183808,1,0,0:0:0:0:
368,136,183992,2,2,L|256:120,1,105
265,121,184731,5,0,0:0:0:0:
216,216,185100,5,0,0:0:0:0:
208,248,185284,1,0,0:0:0:0:
200,280,185469,1,0,0:0:0:0:
279,285,185838,5,0,0:0:0:0:
287,317,186022,1,0,0:0:0:0:
295,349,186207,1,0,0:0:0:0:
279,285,186576,2,2,L|304:168,1,105
300,182,187130,1,0,0:0:0:0:
300,182,187314,1,0,0:0:0:0:
256,192,187672,12,0,193645,0:0:0:0:
