osu file format v14

[General]
AudioFilename: audio.mp3
AudioLeadIn: 0
PreviewTime: 3249
Countdown: 0
SampleSet: Soft
StackLeniency: 0.4
Mode: 0
LetterboxInBreaks: 0
WidescreenStoryboard: 0

[Editor]
Bookmarks: 5021,5781,13751,15648,17166,18684,21721,36902,38420,39179,39938,52083,70300,75993,81701,90341,91576,159535
DistanceSpacing: 1
BeatDivisor: 4
GridSize: 4
TimelineZoom: 1.6

[Metadata]
Title:Imaginary Places
TitleUnicode:Imaginary Places
Artist:Busdriver
ArtistUnicode:Busdriver
Creator:Moreon
Version:LKR's de_places
Source:
Tags:phoon NeBu Busdriver Rdzeniu Streams Hatiso Moreon Rap sbsonic Andemu Asrasz LukerMaster Chalwa CptSqBany DominiGG AnySense squirrelpascals Fieryrage tem Squishi Soiplox Script
BeatmapID:1344602
BeatmapSetID:632870

[Difficulty]
HPDrainRate:5
CircleSize:4
OverallDifficulty:9.4
ApproachRate:10
SliderMultiplier:2.5
SliderTickRate:1

[Events]
//Background and Video events
0,0,"BG.jpg",0,0
//Break Periods
2,76982,80047
2,118549,121826
2,146014,148486
//Storyboard Layer 0 (Background)
//Storyboard Layer 1 (Fail)
//Storyboard Layer 2 (Pass)
//Storyboard Layer 3 (Foreground)
//Storyboard Sound Samples

[TimingPoints]
497.668789808917,379.525605095541,4,2,0,65,1,0
6190,-83.3333333333333,4,2,0,65,0,0
6380,-71.4285714285714,4,2,0,65,0,0
6570,-100,4,2,0,65,0,0
9353,-100,4,2,0,5,0,0
9416,-100,4,2,0,65,0,0
28962,-133.333333333333,4,2,0,65,0,0
29341,-100,4,2,0,65,0,0
44522,-66.6666666666667,4,2,0,65,0,0
45281,-100,4,2,0,65,0,0
49076,-66.6666666666667,4,2,0,65,0,0
49962,-66.6666666666667,4,2,0,5,0,0
50025,-66.6666666666667,4,2,0,65,0,0
50152,-66.6666666666667,4,2,0,5,0,0
50215,-100,4,2,0,65,0,0
51733,-133.333333333333,4,2,0,65,0,0
52113,-100,4,2,0,65,0,0
76023,-133.333333333333,4,2,0,65,0,0
76402,-133.333333333333,4,2,0,30,0,0
76782,-100,4,2,0,5,0,0
76794,411.444676258992,4,2,0,60,1,0
80497,-200,4,2,0,40,0,0
122276,369.230769230769,4,2,0,60,1,0
122276,-100,4,2,0,70,0,0
145899,379.625605095541,4,2,0,10,1,0
148936,-100,4,2,0,65,0,1
160324,-133.333333333333,4,2,0,65,0,1
160704,-166.666666666667,4,2,0,65,0,1
161107,369.125605095541,4,2,0,40,1,0
187459,426.625605095542,4,2,0,20,1,0

[Colours]
Combo1 : 255,192,0
Combo2 : 0,174,174
Combo3 : 41,101,31
Combo4 : 242,24,57

[HitObjects]
170,208,497,5,4,3:0:0:0:
80,184,687,5,0,0:0:0:0:
146,117,782,1,0,0:0:0:0:
170,208,877,1,0,0:0:0:0:
56,93,1066,5,0,0:0:0:0:
122,26,1161,1,0,0:0:0:0:
146,117,1256,1,4,3:0:0:0:
309,169,1446,5,0,0:0:0:0:
285,78,1541,1,0,0:0:0:0:
219,145,1636,1,0,0:0:0:0:
20,281,1826,5,0,0:0:0:0:
44,190,1921,1,0,0:0:0:0:
110,257,2016,1,4,3:0:0:0:
344,320,2205,5,0,0:0:0:0:
302,230,2300,1,0,0:0:0:0:
246,311,2395,1,4,3:0:0:0:
20,281,2585,5,0,0:0:0:0:
62,191,2680,1,0,0:0:0:0:
118,272,2775,1,4,3:0:0:0:
432,160,2964,6,0,L|368:168,1,62.5
62,191,3154,1,4,3:0:0:0:
72,184,3344,2,0,P|80:128|48:56,1,125,0|4,3:0|3:0,3:0:0:0:
160,32,3723,6,0,P|208:48|240:40,1,62.5,2|0,0:0|0:0,0:0:0:0:
416,32,3913,2,0,B|432:72|432:72|424:168,1,125,0|0,3:0|3:0,3:0:0:0:
232,280,4198,1,0,0:0:0:0:
240,272,4292,2,0,B|264:248|264:248|320:240|368:264,1,125,0|0,1:0|0:0,0:0:0:0:
408,312,4577,1,0,0:0:0:0:
440,240,4672,1,2,0:0:0:0:
304,160,5051,6,0,L|384:144,1,62.5,4|0,3:0|0:0,0:0:0:0:
64,48,5241,1,2,0:0:0:0:
256,88,5336,1,0,0:0:0:0:
16,144,5431,2,0,L|96:136,2,62.5,0|0|2,3:0|0:0|0:0,0:0:0:0:
352,224,5716,1,0,0:0:0:0:
136,192,5811,5,0,1:0:0:0:
336,88,5905,1,0,0:0:0:0:
64,56,6000,2,0,L|136:48,1,62.5,0|0,3:0|0:0,0:0:0:0:
416,216,6190,2,0,P|352:208|320:216,1,74.9999977111817,2|0,0:2|0:0,0:0:0:0:
96,280,6380,2,0,P|160:296|200:288,1,87.499997329712,2|0,0:2|0:0,0:0:0:0:
296,136,6570,5,4,3:0:0:0:
288,144,6759,2,0,P|264:208|272:240,1,62.5
320,320,6949,1,0,3:0:0:0:
400,312,7044,1,0,3:0:0:0:
480,304,7139,1,2,0:0:0:0:
472,288,7329,6,0,B|456:240|456:240|472:160,1,125,0|0,1:0|0:0,0:0:0:0:
496,88,7613,1,0,0:0:0:0:
496,88,7708,2,0,P|416:96|368:80,1,125,2|0,0:0|0:0,0:0:0:0:
280,48,8088,5,4,3:0:0:0:
496,88,8183,1,2,0:0:0:0:
160,192,8277,2,0,L|136:120,1,62.5
400,256,8467,1,0,3:0:0:0:
168,208,8562,1,0,0:0:0:0:
424,168,8657,2,0,L|504:160,1,62.5,2|0,0:0|0:0,0:0:0:0:
136,64,8847,6,0,L|56:56,1,62.5,0|0,1:0|0:0,0:0:0:0:
392,64,9036,1,0,0:0:0:0:
288,216,9131,1,0,0:0:0:0:
208,32,9226,2,0,P|200:72|216:128,1,83.3333333333334,2|0,0:0|0:0,0:0:0:0:
360,328,9416,2,0,L|264:328,1,83.3333333333334
192,120,9606,6,0,P|200:168|192:200,1,62.5,4|0,3:0|0:0,0:0:0:0:
32,32,9796,1,2,0:0:0:0:
32,32,9890,1,2,0:0:0:0:
32,32,9985,2,0,L|112:40,1,62.5,0|0,3:0|0:0,0:0:0:0:
456,152,10175,1,2,0:0:0:0:
440,168,10270,1,2,0:0:0:0:
424,184,10365,6,0,L|344:192,1,62.5,0|0,1:0|0:0,0:0:0:0:
312,264,10555,1,0,0:0:0:0:
256,192,10649,1,0,0:0:0:0:
224,272,10744,2,0,P|168:264|88:304,1,125,2|0,0:0|0:0,0:0:0:0:
120,96,11124,5,4,3:0:0:0:
176,352,11219,1,0,0:0:0:0:
272,112,11314,1,2,0:0:0:0:
64,200,11409,1,2,0:0:0:0:
288,336,11503,2,0,L|312:264,1,62.5,0|0,3:0|0:0,0:0:0:0:
184,32,11693,5,0,0:0:0:0:
376,192,11788,1,0,0:0:0:0:
144,312,11883,2,0,L|136:224,1,62.5,0|0,1:0|0:0,0:0:0:0:
200,32,12073,2,0,P|208:80|208:104,1,62.5
56,80,12262,6,0,L|136:72,1,62.5,2|0,0:0|0:0,0:0:0:0:
352,104,12452,2,0,L|272:112,1,62.5,2|0,0:0|0:0,0:0:0:0:
128,160,12642,2,0,P|120:224|152:288,1,125,4|0,3:0|0:0,0:0:0:0:
264,336,12927,1,0,0:0:0:0:
376,264,13022,1,0,3:0:0:0:
136,288,13211,5,0,0:0:0:0:
272,344,13306,1,0,0:0:0:0:
384,256,13401,2,0,P|392:184|368:128,1,125,0|2,1:0|0:0,0:0:0:0:
248,344,13686,5,0,0:0:0:0:
480,224,13781,2,0,L|496:88,1,125,2|2,0:0|0:0,0:0:0:0:
304,56,14160,5,4,3:0:0:0:
488,96,14255,1,0,0:0:0:0:
320,144,14350,1,2,0:0:0:0:
432,24,14445,1,0,0:0:0:0:
368,224,14540,2,0,L|352:288,1,62.5,0|2,0:0|0:0,0:0:0:0:
312,40,14729,1,0,3:0:0:0:
264,224,14824,1,0,0:0:0:0:
128,32,14919,5,0,1:0:0:0:
392,96,15014,1,0,0:0:0:0:
96,144,15109,2,0,B|128:152|128:152|168:152,1,62.5
440,192,15299,2,0,B|408:208|408:208|304:208,1,125,2|0,0:0|0:0,0:0:0:0:
40,320,15678,6,0,L|120:312,1,62.5,2|0,0:0|0:0,0:0:0:0:
392,112,15868,2,0,L|472:104,1,62.5,2|0,0:0|0:0,0:0:0:0:
16,136,16058,6,0,L|88:144,1,62.5
432,288,16247,2,0,L|504:296,1,62.5
128,216,16437,6,0,B|96:224|96:224|64:248,1,62.5,2|0,1:2|0:0,0:0:0:0:
400,200,16627,2,0,B|432:192|432:192|464:168,1,62.5,2|0,0:0|0:0,0:0:0:0:
128,216,16817,6,0,B|96:208|96:208|64:184,1,62.5,2|0,0:0|0:0,0:0:0:0:
400,200,17007,2,0,B|432:208|432:208|455:225,1,62.5,2|0,0:0|0:0,0:0:0:0:
104,16,17196,6,0,L|96:96,1,62.5,2|0,0:0|0:0,0:0:0:0:
96,296,17386,2,0,L|88:376,1,62.5,2|0,0:0|0:0,0:0:0:0:
424,40,17576,6,0,L|416:120,1,62.5
416,320,17766,2,0,L|408:400,1,62.5
32,128,17955,6,0,L|48:208,1,62.5,2|0,1:2|0:0,0:0:0:0:
48,136,18145,2,0,L|64:216,1,62.5,2|0,0:0|0:0,0:0:0:0:
472,200,18335,6,0,L|488:280,1,62.5
488,208,18525,2,0,L|504:288,1,62.5,2|0,0:0|0:0,0:0:0:0:
224,56,18714,5,4,3:0:0:0:
216,97,18808,1,0,0:0:0:0:
209,138,18903,1,0,0:0:0:0:
202,179,18998,1,0,0:0:0:0:
80,288,19094,5,2,0:0:0:0:
158,263,19188,1,0,0:0:0:0:
240,278,19283,1,0,0:0:0:0:
305,328,19378,1,0,0:0:0:0:
432,312,19473,6,0,P|440:272|440:232,1,62.5,0|0,1:0|0:0,0:0:0:0:
88,200,19663,2,0,P|80:160|80:120,1,62.5
352,48,19853,1,2,0:0:0:0:
184,72,19948,1,0,0:0:0:0:
336,136,20043,1,0,0:0:0:0:
224,160,20138,1,0,0:0:0:0:
416,88,20233,5,4,3:0:0:0:
144,144,20327,1,0,0:0:0:0:
416,176,20422,1,0,0:0:0:0:
256,40,20517,1,0,0:0:0:0:
176,224,20612,6,0,L|184:288,1,62.5,2|0,0:0|0:0,0:0:0:0:
504,104,20802,2,0,L|496:40,1,62.5
176,64,20992,1,4,0:0:0:0:
424,168,21086,1,0,0:0:0:0:
112,216,21181,1,2,0:0:0:0:
112,216,21276,1,2,0:0:0:0:
272,0,21371,2,0,P|309:33|325:61,1,62.5,0|0,3:0|0:0,0:0:0:0:
460,187,21561,5,0,0:0:0:0:
406,263,21655,1,0,0:0:0:0:
353,341,21751,2,0,B|304:344|304:344|280:336|280:336|216:336,1,125,4|0,3:0|0:0,0:0:0:0:
128,320,22035,1,0,0:0:0:0:
48,216,22130,2,0,L|48:288,1,62.5,0|0,3:0|0:0,0:0:0:0:
400,176,22320,2,0,L|400:248,1,62.5,0|0,3:0|0:0,0:0:0:0:
192,240,22510,6,0,L|192:112,1,125,0|0,1:0|0:0,0:0:0:0:
256,40,22794,1,0,0:0:0:0:
248,296,22889,2,0,P|176:320|120:280,1,125,2|0,0:0|0:0,0:0:0:0:
40,80,23269,5,4,3:0:0:0:
54,94,23363,1,0,0:0:0:0:
73,103,23458,1,0,0:0:0:0:
94,103,23553,1,0,0:0:0:0:
176,56,23648,5,0,3:0:0:0:
213,37,23742,1,0,0:0:0:0:
254,31,23837,1,0,3:0:0:0:
295,37,23932,1,0,0:0:0:0:
408,32,24028,5,2,1:2:0:0:
363,101,24122,1,0,0:0:0:0:
349,183,24217,1,0,0:0:0:0:
370,263,24312,1,0,0:0:0:0:
464,344,24407,2,0,P|488:280|480:216,1,125,2|0,0:0|0:0,0:0:0:0:
96,40,24787,6,0,B|64:72|64:72|64:168,1,125,4|2,3:0|0:0,0:0:0:0:
120,264,25071,1,0,0:0:0:0:
136,256,25166,2,0,P|200:240|272:272,1,125,0|2,3:0|3:2,0:0:0:0:
488,336,25546,6,0,B|456:280|456:280|464:208,1,125,0|0,1:0|0:0,0:0:0:0:
496,88,25831,1,0,0:0:0:0:
472,96,25925,2,0,P|440:104|408:104,1,62.5,2|0,0:0|0:0,0:0:0:0:
224,24,26115,1,0,0:0:0:0:
232,24,26305,6,0,P|240:72|224:112,1,62.5,4|0,3:0|0:0,0:0:0:0:
40,352,26495,2,0,P|32:304|48:264,1,62.5
320,80,26684,6,0,P|312:128|285:161,1,62.5,2|0,0:0|0:0,0:0:0:0:
120,312,26874,2,0,P|127:263|154:230,1,62.5
472,192,27064,6,0,P|408:216|344:216,1,125,0|0,1:0|0:0,0:0:0:0:
24,72,27349,1,0,0:0:0:0:
40,56,27443,2,0,P|80:48|128:64,1,62.5,2|0,0:0|0:0,0:0:0:0:
240,312,27633,2,0,P|280:320|328:304,1,62.5,2|0,0:0|0:0,0:0:0:0:
440,56,27823,6,0,L|392:72,1,41.6666666666667,6|0,0:0|0:0,0:0:0:0:
48,224,28013,2,0,L|96:208,1,41.6666666666667
376,152,28203,1,0,3:0:0:0:
200,112,28297,1,0,3:0:0:0:
376,152,28392,1,0,3:0:0:0:
200,112,28582,6,0,P|192:176|224:240,1,125,0|0,1:0|0:0,0:0:0:0:
349,309,28867,1,0,0:0:0:0:
440,320,28962,2,0,P|376:304|328:320,1,93.7500035762788,2|0,0:0|0:0,0:0:0:0:
208,320,29341,5,4,3:0:0:0:
80,344,29436,1,0,3:0:0:0:
208,320,29531,2,0,L|232:256,1,62.5
64,184,29721,2,0,L|48:120,1,62.5,2|0,0:0|0:0,0:0:0:0:
216,152,29910,1,0,0:0:0:0:
64,184,30005,1,0,0:0:0:0:
216,152,30100,2,0,B|232:112|232:112|248:24,1,125,0|0,1:0|0:0,0:0:0:0:
376,56,30480,5,2,0:0:0:0:
448,80,30575,1,2,0:0:0:0:
376,176,30669,1,2,0:0:0:0:
426,232,30764,1,2,0:0:0:0:
336,312,30859,2,0,B|288:328|288:328|248:320|248:320|200:328,1,125,4|0,3:0|0:0,0:0:0:0:
16,248,31144,1,0,0:0:0:0:
72,200,31239,2,0,B|120:216|120:216|160:208|160:208|208:216,1,125,0|0,3:0|0:0,0:0:0:0:
168,382,31523,1,0,0:0:0:0:
104,344,31618,6,0,L|96:272,1,62.5,0|0,1:0|0:0,0:0:0:0:
208,72,31808,2,0,L|200:144,1,62.5
32,32,31998,2,0,P|80:32|32:56,1,125,2|0,0:0|0:0,0:0:0:0:
288,56,32377,5,4,3:0:0:0:
384,88,32472,1,0,0:0:0:0:
112,104,32567,1,0,0:0:0:0:
16,136,32662,1,0,0:0:0:0:
392,176,32757,2,0,L|464:160,1,62.5,0|0,3:0|0:0,0:0:0:0:
144,200,32947,2,0,L|72:184,1,62.5,0|0,3:0|0:0,0:0:0:0:
400,344,33136,5,2,1:2:0:0:
432,248,33231,1,0,0:0:0:0:
136,360,33326,1,2,3:2:0:0:
104,264,33421,1,0,0:0:0:0:
304,272,33516,2,0,P|312:216|280:128,1,125,0|2,0:0|0:0,0:0:0:0:
80,24,33895,6,0,P|56:48|40:96,1,62.5,4|0,3:0|0:0,0:0:0:0:
424,328,34085,2,0,L|448:256,1,62.5,2|0,0:0|0:0,0:0:0:0:
480,152,34275,2,0,L|464:80,1,62.5
432,336,34465,2,0,L|456:264,1,62.5,2|0,0:0|0:0,0:0:0:0:
488,160,34655,6,0,L|472:88,1,62.5,0|0,1:0|0:0,0:0:0:0:
312,232,34844,2,0,L|392:216,1,62.5,2|0,0:0|0:0,0:0:0:0:
152,168,35034,2,0,L|224:184,1,62.5
0,232,35224,2,0,L|64:224,1,62.5,2|0,0:0|0:0,0:0:0:0:
416,32,35414,6,0,L|344:48,1,62.5,4|0,3:0|0:0,0:0:0:0:
72,224,35603,2,0,L|136:248,1,62.5,2|0,0:0|0:0,0:0:0:0:
320,240,35793,2,0,L|384:200,1,62.5
64,240,35983,2,0,L|128:264,1,62.5,2|0,0:0|0:0,0:0:0:0:
312,256,36173,6,0,L|376:216,1,62.5,0|0,1:0|0:0,0:0:0:0:
112,96,36362,2,0,L|40:112,1,62.5,2|0,0:0|0:0,0:0:0:0:
296,144,36552,2,0,L|232:136,1,62.5
464,56,36742,2,0,L|392:64,1,62.5,2|0,0:0|0:0,0:0:0:0:
112,184,36932,5,4,3:0:0:0:
168,336,37027,1,0,0:0:0:0:
192,208,37121,1,2,0:0:0:0:
72,344,37216,1,0,0:0:0:0:
168,120,37311,2,0,P|176:80|176:48,1,62.5,0|0,3:0|0:0,0:0:0:0:
256,304,37501,2,0,L|272:368,1,62.5,0|0,3:0|0:0,0:0:0:0:
408,72,37691,5,0,1:0:0:0:
344,288,37786,1,0,0:0:0:0:
280,96,37880,1,2,0:0:0:0:
440,248,37975,1,0,0:0:0:0:
200,232,38070,2,0,L|120:240,1,62.5,0|0,3:0|0:0,0:0:0:0:
432,152,38260,2,0,L|504:160,1,62.5,0|0,3:0|0:0,0:0:0:0:
152,128,38450,5,4,3:0:0:0:
368,208,38545,1,0,0:0:0:0:
56,240,38639,1,2,0:0:0:0:
328,128,38734,1,0,0:0:0:0:
296,328,38829,5,0,3:0:0:0:
240,112,38924,1,2,0:0:0:0:
136,304,39019,1,2,0:0:0:0:
80,88,39114,1,2,0:0:0:0:
224,296,39209,2,0,L|200:360,1,62.5,2|0,0:0|0:0,0:0:0:0:
168,64,39399,2,0,L|192:-8,1,62.5,2|0,0:0|0:0,0:0:0:0:
368,344,39588,5,0,3:0:0:0:
288,48,39683,1,0,3:0:0:0:
120,320,39778,1,0,3:0:0:0:
128,304,39968,6,0,B|200:280|200:280|272:296,1,125,4|0,3:0|0:0,0:0:0:0:
384,344,40252,1,0,0:0:0:0:
432,280,40347,2,0,P|384:264|352:272,1,62.5,0|0,3:0|3:0,0:0:0:0:
328,200,40537,2,0,P|376:184|408:192,1,62.5,0|0,3:0|0:0,0:0:0:0:
464,200,40727,6,0,B|472:184|472:184|472:152|472:152|468:136|468:136|472:120|472:120|472:72,1,125,0|0,1:0|0:0,0:0:0:0:
392,24,41012,1,0,0:0:0:0:
312,80,41106,2,0,P|240:96|168:64,1,125,2|0,0:0|0:0,0:0:0:0:
24,184,41486,6,0,P|48:144|56:104,1,62.5,4|0,3:0|0:0,0:0:0:0:
88,32,41676,1,2,0:0:0:0:
88,32,41771,1,0,0:0:0:0:
184,256,41865,2,0,L|152:176,1,62.5,0|0,3:0|0:0,0:0:0:0:
384,232,42055,2,0,P|336:232|296:216,1,62.5,0|0,3:0|0:0,0:0:0:0:
88,32,42245,5,0,1:0:0:0:
88,32,42340,1,0,0:0:0:0:
88,344,42435,2,0,L|88:272,1,62.5,2|0,0:0|0:0,0:0:0:0:
456,32,42625,2,0,L|384:32,1,62.5,2|0,0:0|0:0,0:0:0:0:
88,32,42814,2,0,P|112:72|104:112,1,62.5,0|0,3:0|0:0,0:0:0:0:
24,224,43004,1,4,3:0:0:0:
240,80,43194,5,0,3:0:0:0:
213,136,43288,1,0,3:0:0:0:
187,193,43383,1,2,3:2:0:0:
360,240,43573,5,2,0:0:0:0:
268,259,43667,1,2,0:0:0:0:
176,278,43762,1,0,1:0:0:0:
88,48,43953,5,0,0:0:0:0:
212,63,44047,1,0,0:0:0:0:
336,79,44143,2,0,B|376:92|432:88|432:88|384:120,1,125,2|0,0:0|0:0,0:0:0:0:
40,320,44522,6,0,P|112:312|152:320,1,93.7500035762788,4|0,3:0|0:0,0:0:0:0:
352,64,44712,2,0,P|416:72|464:64,1,93.7500035762788,2|0,0:0|0:0,0:0:0:0:
32,48,44902,2,0,L|128:32,1,93.7500035762788,0|0,3:0|0:0,0:0:0:0:
348,256,45091,2,0,P|412:260|456:292,1,93.7500035762788
312,332,45281,6,0,P|352:340|392:332,1,62.5,0|0,1:0|0:0,0:0:0:0:
448,264,45471,1,0,0:0:0:0:
456,256,45661,2,0,P|472:200|448:136,1,125,2|0,0:0|0:0,0:0:0:0:
48,56,46040,6,0,P|112:72|184:48,1,125,4|0,3:0|0:0,0:0:0:0:
248,24,46325,1,0,0:0:0:0:
264,16,46420,2,0,P|312:16|344:32,1,62.5,0|0,3:0|3:0,0:0:0:0:
368,96,46610,2,0,B|352:136|352:136|360:240,1,125,0|0,0:0|1:0,0:0:0:0:
24,336,46989,6,0,L|112:328,1,62.5
200,272,47179,2,0,P|184:296|264:344,1,125,2|0,0:0|0:0,0:0:0:0:
352,48,47558,5,4,3:0:0:0:
384,232,47653,1,0,0:0:0:0:
496,64,47748,2,0,L|424:80,1,62.5,2|0,0:0|0:0,0:0:0:0:
304,136,47938,2,0,L|144:112,1,125,0|0,3:0|3:0,0:0:0:0:
104,40,48223,1,0,0:0:0:0:
40,328,48317,6,0,P|72:272|80:248,1,62.5,0|0,1:0|0:0,0:0:0:0:
112,56,48507,1,0,0:0:0:0:
192,232,48602,1,0,0:0:0:0:
24,192,48697,2,0,L|32:56,1,125,2|0,0:0|0:0,0:0:0:0:
448,280,49076,6,0,L|240:288,1,187.500007152558,4|0,3:0|0:0,0:0:0:0:
416,128,49361,1,0,0:0:0:0:
424,312,49456,6,0,L|232:264,1,187.500007152558,0|0,3:0|3:0,0:0:0:0:
432,152,49741,1,0,0:0:0:0:
352,368,49835,6,0,P|336:264|352:216,1,125.000004768372,0|0,1:0|0:0,0:0:0:0:
336,104,50025,2,0,P|253:169|204:180,1,125.000004768372,2|0,0:0|0:0,0:0:0:0:
260,287,50215,6,0,L|448:280,1,187.500007152558,0|0,3:0|0:0,0:0:0:0:
480,304,50595,2,0,P|464:232|464:224,1,62.5,4|0,3:0|0:0,0:0:0:0:
344,32,50784,2,0,P|340:105|338:113,1,62.5,0|0,3:0|0:0,0:0:0:0:
168,296,50974,2,0,P|190:225|194:218,1,62.5,0|0,3:0|0:0,0:0:0:0:
416,136,51164,1,0,0:0:0:0:
312,336,51259,1,0,0:0:0:0:
192,128,51354,2,0,L|256:136,1,62.5,0|0,1:0|0:0,0:0:0:0:
40,192,51543,5,0,0:0:0:0:
264,40,51638,1,0,0:0:0:0:
136,352,51733,2,0,P|136:304|160:240,1,93.7500035762788,2|2,0:0|0:0,0:0:0:0:
472,72,52113,6,0,L|424:80,1,41.6666666666667,6|0,0:0|0:0,0:0:0:0:
40,72,52302,2,0,L|88:80,1,41.6666666666667,2|0,0:0|0:0,0:0:0:0:
496,264,52492,6,0,L|448:256,1,41.6666666666667
16,264,52682,2,0,L|64:256,1,41.6666666666667
320,16,52872,6,0,L|328:80,1,62.5,2|0,1:2|0:0,0:0:0:0:
192,368,53061,2,0,L|184:304,1,62.5,2|0,0:0|0:0,0:0:0:0:
472,128,53251,6,0,P|432:112|392:120,1,62.5
40,256,53441,2,0,P|80:272|120:264,1,62.5
160,96,53631,6,0,L|96:80,1,41.6666666666667,6|0,0:0|0:0,0:0:0:0:
352,288,53821,2,0,L|416:304,1,41.6666666666667,2|0,0:0|0:0,0:0:0:0:
184,176,54010,6,0,L|120:192,1,41.6666666666667,0|0,3:0|0:0,0:0:0:0:
328,208,54200,2,0,L|392:192,1,41.6666666666667
160,288,54390,6,0,L|152:376,1,62.5,0|0,1:0|0:0,0:0:0:0:
248,60,54580,2,0,L|232:-4,1,62.5,2|0,0:0|0:0,0:0:0:0:
512,152,54769,6,0,L|432:144,1,62.5
156,44,54959,2,0,L|76:36,1,62.5,2|0,0:0|0:0,0:0:0:0:
96,248,55149,5,4,3:0:0:0:
328,184,55244,1,0,0:0:0:0:
224,360,55339,1,2,0:0:0:0:
144,168,55434,1,2,0:0:0:0:
128,328,55528,1,0,0:0:0:0:
280,112,55623,1,0,0:0:0:0:
352,328,55718,2,0,P|400:344|432:336,1,62.5
464,80,55908,5,0,1:0:0:0:
400,264,56003,1,0,0:0:0:0:
344,72,56098,1,2,0:0:0:0:
496,192,56193,1,2,0:0:0:0:
288,184,56287,2,0,P|256:160|232:128,1,62.5
448,96,56477,1,2,0:0:0:0:
384,280,56572,1,2,0:0:0:0:
248,64,56667,5,4,0:0:0:0:
488,184,56762,1,0,0:0:0:0:
144,184,56857,1,0,0:0:0:0:
352,0,56952,1,0,0:0:0:0:
304,264,57046,2,0,L|368:240,1,62.5,4|0,0:0|0:0,0:0:0:0:
184,344,57236,2,0,L|112:336,1,62.5,2|0,0:0|0:0,0:0:0:0:
384,344,57426,2,0,L|448:352,1,62.5,6|0,0:0|0:0,0:0:0:0:
240,208,57616,5,0,0:0:0:0:
208,216,57711,1,0,0:0:0:0:
176,224,57806,2,0,P|136:208|116:188,1,62.5,6|0,0:0|0:0,0:0:0:0:
396,240,57995,1,4,0:0:0:0:
56,120,58090,1,0,0:0:0:0:
352,32,58185,6,0,P|368:72|344:160,1,125,4|0,3:0|0:0,0:0:0:0:
296,224,58470,1,0,0:0:0:0:
152,96,58565,2,0,L|296:88,1,125,0|0,3:0|3:0,0:0:0:0:
440,80,58849,1,0,0:0:0:0:
200,208,58944,6,0,L|64:192,1,125,0|0,1:0|0:0,0:0:0:0:
32,104,59229,1,0,0:0:0:0:
128,248,59324,2,0,P|136:304|96:368,1,125,2|0,0:0|0:0,0:0:0:0:
40,288,59703,5,4,3:0:0:0:
40,288,59798,1,0,0:0:0:0:
264,248,59893,1,0,3:0:0:0:
264,248,59988,1,0,3:0:0:0:
264,248,60083,2,0,L|336:256,1,62.5,0|0,3:0|0:0,0:0:0:0:
80,168,60272,1,2,0:0:0:0:
80,168,60367,1,0,0:0:0:0:
304,160,60462,6,0,L|336:88,1,62.5,0|0,1:0|0:0,0:0:0:0:
172,308,60652,1,2,0:0:0:0:
176,312,60747,1,0,0:0:0:0:
192,136,60842,2,2,L|192:64,1,62.5,2|2,0:0|0:0,0:0:0:0:
336,312,61032,2,0,L|336:240,1,62.5,2|0,0:0|0:0,0:0:0:0:
24,184,61221,6,0,B|88:216|88:216|160:200,1,125,4|0,3:0|0:0,0:0:0:0:
24,336,61506,1,2,0:0:0:0:
224,168,61601,2,0,P|272:160|352:184,1,125,0|0,3:0|3:0,0:0:0:0:
112,72,61885,1,2,0:0:0:0:
420,228,61980,6,0,B|452:252|452:252|468:148,1,125,0|0,1:0|0:0,0:0:0:0:
232,336,62265,1,2,0:0:0:0:
476,80,62360,2,0,P|412:96|340:64,1,125
256,24,62739,5,4,3:0:0:0:
208,176,62834,1,0,0:0:0:0:
176,16,62929,2,0,L|184:88,1,62.5
224,272,63119,5,0,3:0:0:0:
288,112,63214,1,0,3:0:0:0:
328,320,63309,2,0,L|312:240,1,62.5,2|0,3:2|0:0,0:0:0:0:
264,24,63498,5,0,1:0:0:0:
120,208,63593,1,0,0:0:0:0:
400,176,63688,2,0,L|312:184,1,62.5,2|0,0:0|0:0,0:0:0:0:
56,136,63878,6,0,L|136:128,1,62.5,2|0,0:0|0:0,0:0:0:0:
360,104,64068,1,0,3:0:0:0:
360,104,64257,2,0,P|376:176|352:240,1,125,4|0,3:0|0:0,0:0:0:0:
256,320,64542,1,0,0:0:0:0:
149,223,64637,2,0,P|135:163|152:104,1,125,0|0,3:0|3:0,0:0:0:0:
256,80,64922,1,0,0:0:0:0:
168,304,65017,6,0,B|112:320|112:320|40:304,1,125,0|0,1:0|0:0,0:0:0:0:
256,160,65301,1,0,0:0:0:0:
344,304,65396,2,0,B|400:320|400:320|472:304,1,125,2|0,0:0|0:0,0:0:0:0:
504,132,65776,5,4,3:0:0:0:
444,152,65870,1,0,0:0:0:0:
264,84,65965,1,0,3:0:0:0:
324,64,66059,1,0,0:0:0:0:
320,228,66155,5,0,3:0:0:0:
260,248,66249,1,0,0:0:0:0:
80,180,66344,1,4,3:0:0:0:
140,160,66438,1,4,3:0:0:0:
60,340,66535,2,0,L|-4:316,3,62.5,0|0|0|0,1:0|0:0|0:0|0:0,0:0:0:0:
488,224,66914,2,0,P|496:184|488:144,1,62.5,2|0,0:0|0:0,0:0:0:0:
304,24,67104,2,0,P|296:64|304:104,1,62.5,6|0,0:0|0:0,0:0:0:0:
272,96,67294,6,0,P|288:160|328:208,1,125,4|0,3:0|0:0,0:0:0:0:
400,160,67578,1,0,0:0:0:0:
136,296,67673,2,0,P|104:256|144:280,1,125,0|0,3:0|0:0,0:0:0:0:
392,312,67958,5,0,0:0:0:0:
105,244,68053,2,0,P|107:314|150:257,1,125,0|0,1:0|0:0,0:0:0:0:
152,64,68337,1,0,0:0:0:0:
190,364,68432,2,0,P|110:388|54:364,1,125,2|0,0:0|0:0,0:0:0:0:
248,120,68812,6,0,L|328:112,1,62.5,4|0,3:0|0:0,0:0:0:0:
80,168,69002,2,0,L|8:160,1,62.5
296,208,69191,1,0,3:0:0:0:
360,200,69286,1,0,0:0:0:0:
128,256,69381,1,0,3:0:0:0:
64,248,69476,1,0,0:0:0:0:
456,168,69571,6,0,L|448:240,1,62.5,0|0,1:0|0:0,0:0:0:0:
216,232,69761,2,0,L|209:169,1,62.5,2|0,0:0|0:0,0:0:0:0:
400,48,69950,2,0,B|368:56|336:48|336:48|312:64|312:64|276:56|240:64|240:64|216:48|216:48|196:52|176:48|176:48|184:64|184:80,1,250,4|4,0:0|3:0,0:0:0:0:
376,336,70520,2,0,L|448:336,1,62.5,2|0,0:0|0:0,0:0:0:0:
88,304,70709,2,0,L|16:304,1,62.5,2|0,0:0|0:0,0:0:0:0:
400,240,70899,6,0,L|464:240,1,62.5,2|0,0:0|0:0,0:0:0:0:
432,216,71089,2,0,L|496:216,1,62.5,2|0,1:2|0:0,0:0:0:0:
120,168,71279,6,0,L|48:168,1,62.5,2|0,0:0|0:0,0:0:0:0:
448,48,71468,2,0,L|520:48,1,62.5,2|0,0:0|0:0,0:0:0:0:
424,72,71658,2,0,L|496:72,1,62.5,2|0,0:0|0:0,0:0:0:0:
56,32,71848,6,0,L|56:96,1,62.5,4|0,3:0|0:0,0:0:0:0:
56,256,72038,2,0,L|56:320,1,62.5,2|0,0:0|0:0,0:0:0:0:
136,352,72228,6,0,L|136:288,1,62.5,2|0,3:2|0:0,0:0:0:0:
136,128,72418,2,0,L|136:64,1,62.5
264,344,72607,6,0,P|240:304|232:272,1,62.5,0|0,1:0|0:0,0:0:0:0:
216,136,72797,2,0,P|215:89|224:57,1,62.5,2|0,0:0|0:0,0:0:0:0:
104,336,72987,6,0,L|144:280,1,62.5,2|0,0:0|0:0,0:0:0:0:
296,96,73176,2,0,L|336:40,1,62.5,2|0,0:0|0:0,0:0:0:0:
112,112,73366,5,4,3:0:0:0:
328,176,73461,1,0,0:0:0:0:
72,200,73556,2,0,L|0:184,1,62.5,2|0,0:0|0:0,0:0:0:0:
384,264,73746,1,0,3:0:0:0:
192,176,73840,1,0,3:0:0:0:
416,136,73935,2,0,L|496:128,1,62.5,2|0,0:0|0:0,0:0:0:0:
144,72,74125,5,0,1:0:0:0:
344,184,74220,1,2,0:0:0:0:
104,288,74315,1,0,0:0:0:0:
360,192,74410,1,0,0:0:0:0:
120,72,74505,2,0,P|112:32|112:8,1,62.5,2|0,0:0|0:0,0:0:0:0:
448,216,74694,2,0,P|456:256|456:280,1,62.5,2|0,0:0|0:0,0:0:0:0:
304,352,74884,5,0,3:0:0:0:
224,80,74979,1,0,3:0:0:0:
184,320,75074,2,0,L|112:328,1,62.5,4|0,0:0|0:0,0:0:0:0:
376,48,75264,5,0,0:0:0:0:
264,280,75359,1,0,0:0:0:0:
72,32,75453,2,0,L|152:24,1,62.5
24,296,75643,5,4,0:0:0:0:
504,128,75833,1,2,0:0:0:0:
76,130,76023,2,0,B|41:85|-20:119|-15:185|63:234|122:187|122:187|171:227|223:177|251:240,1,375.000014305115,4|0,1:0|0:0,0:0:0:0:
64,128,80497,6,0,P|128:104|224:176,1,187.5,4|0,3:0|0:0,0:0:0:0:
128,200,81319,1,0,1:0:0:0:
304,120,81525,1,0,0:0:0:0:
240,272,81731,2,0,B|296:296|296:296|384:296,1,125,2|0,3:2|3:0,3:0:0:0:
432,232,82348,1,0,3:0:0:0:
384,104,82554,2,0,P|368:152|376:184,1,62.5,0|0,3:0|3:0,0:0:0:0:
176,64,82965,6,0,P|240:88|304:64,1,125,0|0,1:0|0:0,0:0:0:0:
360,8,83582,1,0,0:0:0:0:
296,224,83788,2,0,L|288:152,1,62.5,0|0,3:0|3:0,0:0:0:0:
208,344,84200,2,0,L|216:280,1,62.5,0|0,3:0|3:0,0:0:0:0:
428,324,84611,6,0,P|412:284|428:196,1,125,0|0,1:0|0:0,0:0:0:0:
480,128,85228,2,0,B|448:96|396:108|396:108|344:136|288:104,1,187.5,2|0,0:0|0:0,0:0:0:0:
232,176,86051,1,0,0:0:0:0:
168,104,86257,2,0,P|136:160|160:232,1,125,0|0,1:0|0:0,0:0:0:0:
232,280,86874,5,0,0:0:0:0:
232,280,87080,2,0,B|352:272|352:272|288:240,1,187.5,4|0,0:3|0:0,0:0:0:0:
208,192,87903,1,0,1:0:0:0:
256,360,88108,1,0,0:0:0:0:
312,144,88314,1,0,3:0:0:0:
312,144,88520,1,0,3:0:0:0:
192,288,88725,2,0,L|120:272,1,62.5,2|0,0:0|0:0,0:0:0:0:
72,192,89137,1,0,3:0:0:0:
72,192,89343,1,0,3:0:0:0:
176,64,89548,6,0,P|184:104|176:136,1,62.5,0|0,3:0|0:0,0:0:0:0:
96,96,89960,2,0,P|88:56|96:24,1,62.5
312,48,90371,6,0,B|352:112|248:168|320:248,1,187.5,4|0,0:3|0:0,0:0:0:0:
389,187,91194,1,0,1:0:0:0:
200,144,91400,1,0,0:0:0:0:
248,304,91606,1,0,3:0:0:0:
248,304,91811,1,0,3:0:0:0:
352,112,92017,6,0,P|408:104|440:112,1,62.5,0|0,3:0|3:0,0:0:0:0:
240,72,92428,2,0,P|209:64|178:64,1,62.5,0|0,3:0|3:0,0:0:0:0:
80,120,92840,1,0,1:0:0:0:
80,120,93251,5,0,0:0:0:0:
80,120,93663,1,0,3:0:0:0:
184,24,93868,1,0,3:0:0:0:
160,280,94074,1,0,0:0:0:0:
80,32,94280,1,0,0:0:0:0:
256,144,94486,2,0,L|240:208,1,62.5,0|0,1:0|0:0,0:0:0:0:
168,272,94897,1,0,0:0:0:0:
304,64,95103,2,0,P|344:120|336:184,1,125,2|0,0:0|0:0,0:0:0:0:
24,152,95926,5,0,0:0:0:0:
96,40,96131,2,0,L|240:64,1,125,0|0,1:0|0:0,0:0:0:0:
232,232,96749,1,0,0:0:0:0:
304,96,96954,6,0,L|440:72,1,125,4|0,0:3|0:0,0:0:0:0:
368,232,97571,1,0,0:0:0:0:
200,144,97777,6,0,P|152:144|112:152,1,62.5,0|0,1:0|0:0,0:0:0:0:
64,224,98189,1,0,3:0:0:0:
56,240,98394,1,0,3:0:0:0:
48,256,98600,1,4,0:0:0:0:
140,72,98806,1,0,0:0:0:0:
144,312,99012,1,0,0:0:0:0:
152,320,99423,6,0,P|192:328|232:320,1,62.5,0|0,3:0|0:0,0:0:0:0:
256,256,99834,2,0,P|216:248|176:256,1,62.5
384,352,100246,6,0,P|416:288|400:232,1,125,4|0,0:3|0:0,0:0:0:0:
336,128,100863,1,0,0:0:0:0:
328,288,101069,1,0,1:0:0:0:
352,112,101480,2,0,L|432:104,1,62.5,0|0,3:0|3:0,0:0:0:0:
240,152,101892,1,0,3:0:0:0:
376,32,102097,1,0,3:0:0:0:
144,64,102303,2,0,L|216:72,1,62.5,2|0,3:2|0:0,0:0:0:0:
48,112,102715,5,0,1:0:0:0:
48,112,103126,1,0,3:0:0:0:
192,280,103332,1,0,3:0:0:0:
216,104,103537,1,0,3:0:0:0:
40,272,103743,2,0,L|16:344,2,62.5,0|0|0,0:0|3:0|0:0,0:0:0:0:
136,200,104360,2,0,P|184:184|264:208,1,125,0|0,1:0|0:0,0:0:0:0:
320,288,104977,2,0,P|360:320|343:195,1,312.5,2|0,0:0|1:0,0:0:0:0:
352,184,106418,1,0,0:0:0:0:
200,128,106623,1,0,0:0:0:0:
240,288,106829,6,0,L|368:280,1,125,4|0,0:3|0:0,0:0:0:0:
456,184,107446,1,0,0:0:0:0:
408,352,107652,1,0,1:0:0:0:
336,152,107858,1,0,0:0:0:0:
328,136,108063,1,0,3:0:0:0:
464,272,108269,6,0,B|392:224|288:320|208:256,1,250,2|0,0:0|0:0,0:0:0:0:
64,240,109298,6,0,P|48:200|48:168,1,62.5,0|0,3:0|0:0,0:0:0:0:
112,128,109709,2,0,P|128:168|128:200,1,62.5
24,96,110121,6,0,P|64:48|144:48,1,125,4|0,0:3|0:0,0:0:0:0:
208,88,110738,1,0,0:0:0:0:
296,40,110943,2,0,B|356:20|356:20|416:32,1,125,0|0,1:0|0:0,0:0:0:0:
456,120,111561,1,0,0:0:0:0:
368,160,111766,2,0,P|368:200|376:240,1,62.5,0|0,3:0|0:0,0:0:0:0:
288,224,112178,2,0,P|298:262|316:299,1,62.5,0|0,3:0|0:0,0:0:0:0:
224,304,112589,1,0,1:0:0:0:
384,280,113001,5,0,0:0:0:0:
216,296,113206,1,0,0:0:0:0:
104,176,113412,2,0,P|112:224|104:256,1,62.5,0|0,3:0|0:0,0:0:0:0:
304,352,113824,2,0,P|296:304|304:272,1,62.5
336,132,114235,2,0,P|384:100|360:204,1,250,0|0,1:0|0:0,0:0:0:0:
280,208,115264,2,0,P|208:200|136:216,1,125,2|0,0:0|0:0,0:0:0:0:
72,248,115881,6,0,B|40:272|40:272|48:200|32:112,1,187.5,0|0,1:0|0:0,0:0:0:0:
92,48,116704,6,0,B|153:27|237:42|237:42|212:91|263:120|289:119|324:88|312:52|312:52|399:73|353:170|469:173,1,500,4|2,0:3|0:0,0:0:0:0:
424,88,122276,6,0,L|489:85,1,62.5,4|0,0:0|0:0,0:0:0:0:
176,152,122460,2,0,L|111:155,1,62.5,2|0,0:0|0:0,0:0:0:0:
360,176,122645,2,0,L|408:219,1,62.5
139,45,122829,2,0,L|90:1,1,62.5,2|0,0:0|0:0,0:0:0:0:
192,264,123014,5,4,1:2:0:0:
216,288,123106,1,4,0:0:0:0:
240,312,123199,2,0,L|304:304,1,62.5,4|0,0:0|0:0,0:0:0:0:
96,144,123383,2,0,L|24:112,1,62.5,6|0,0:0|0:0,0:0:0:0:
400,256,123568,2,0,L|432:320,1,62.5
232,64,123752,5,4,0:0:0:0:
152,32,123845,1,0,0:0:0:0:
240,72,123937,2,0,L|320:64,1,62.5,2|0,0:0|0:0,0:0:0:0:
80,248,124122,1,0,0:0:0:0:
160,216,124215,1,0,0:0:0:0:
72,256,124307,2,0,L|-8:248,1,62.5,2|0,0:0|0:0,0:0:0:0:
224,312,124491,5,4,1:2:0:0:
251,281,124583,1,4,0:2:0:0:
267,242,124675,1,4,0:2:0:0:
269,201,124767,1,0,0:0:0:0:
216,120,124860,6,0,P|184:160|176:192,1,62.5,4|0,0:0|0:0,0:0:0:0:
368,288,125045,2,0,L|352:224,1,62.5,2|0,0:0|0:0,0:0:0:0:
120,64,125229,5,4,0:0:0:0:
64,48,125322,1,0,0:0:0:0:
120,72,125414,1,2,0:0:0:0:
64,56,125507,1,0,0:0:0:0:
184,144,125599,5,0,0:0:0:0:
88,160,125691,1,0,0:0:0:0:
184,160,125783,1,2,0:0:0:0:
88,176,125875,1,0,0:0:0:0:
288,256,125968,6,0,L|224:272,1,62.5,4|4,1:2|0:0,0:0:0:0:
40,264,126152,2,0,L|104:280,1,62.5,4|0,0:0|0:0,0:0:0:0:
360,312,126337,2,0,P|376:256|368:224,1,62.5,4|0,0:0|0:0,0:0:0:0:
96,104,126522,2,0,P|80:160|88:192,1,62.5,2|0,0:0|0:0,0:0:0:0:
232,360,126706,5,4,0:0:0:0:
184,192,126799,1,0,0:0:0:0:
136,344,126891,1,4,0:0:0:0:
272,168,126983,1,4,0:0:0:0:
328,376,127076,1,2,0:0:0:0:
112,248,127168,1,0,0:0:0:0:
320,240,127260,6,0,L|384:224,1,62.5,4|0,0:0|0:0,0:0:0:0:
96,160,127445,2,0,L|24:144,1,62.5,4|0,1:2|0:0,0:0:0:0:
416,72,127629,2,0,L|480:24,1,62.5,4|0,0:0|0:0,0:0:0:0:
216,32,127814,5,4,0:0:0:0:
188,87,127906,1,4,0:0:0:0:
184,149,127998,1,4,0:0:0:0:
205,208,128090,1,2,0:0:0:0:
288,296,128183,6,0,P|328:288|360:304,1,62.5,4|0,0:0|0:0,0:0:0:0:
208,336,128368,2,0,P|168:344|136:328,1,62.5,2|0,0:0|0:0,0:0:0:0:
320,208,128552,2,0,L|400:216,1,62.5
176,256,128737,2,0,L|96:248,1,62.5,2|0,0:0|0:0,0:0:0:0:
424,136,128922,5,4,1:2:0:0:
472,212,129014,1,4,0:0:0:0:
440,295,129106,2,0,L|378:289,1,62.5,4|0,0:0|0:0,0:0:0:0:
144,176,129291,5,4,0:0:0:0:
54,147,129383,1,0,0:0:0:0:
54,53,129476,1,0,0:0:0:0:
144,24,129568,1,0,0:0:0:0:
199,100,129660,2,0,P|240:104|280:96,1,62.5,4|0,0:0|0:0,0:0:0:0:
336,48,129845,1,2,0:0:0:0:
336,48,129937,1,0,0:0:0:0:
224,240,130029,2,0,P|255:213|278:179,1,62.5
336,48,130214,5,2,0:0:0:0:
336,48,130306,1,0,0:0:0:0:
368,296,130399,2,0,L|352:360,2,62.5,4|4|4,1:2|0:0|0:0,0:0:0:0:
432,72,130676,1,0,0:0:0:0:
144,96,130768,2,0,L|64:104,1,62.5,4|0,0:0|0:0,0:0:0:0:
32,352,130952,2,0,L|112:344,1,62.5
328,176,131137,5,4,0:0:0:0:
132,244,131229,1,0,0:0:0:0:
352,304,131322,2,0,L|432:296,1,62.5,2|0,0:0|0:0,0:0:0:0:
64,112,131506,1,0,0:0:0:0:
344,192,131599,1,0,0:0:0:0:
138,253,131691,2,0,L|74:229,1,62.5,2|0,0:0|0:0,0:0:0:0:
376,80,131876,5,4,1:2:0:0:
176,120,131968,1,4,0:0:0:0:
424,176,132060,1,4,0:0:0:0:
224,216,132152,1,0,0:0:0:0:
472,280,132245,6,0,L|384:272,1,62.5,4|0,0:0|0:0,0:0:0:0:
128,24,132429,2,0,L|216:32,1,62.5
472,88,132614,2,0,P|408:80|344:104,1,125,4|4,0:0|0:0,0:0:0:0:
240,296,132891,1,4,0:0:0:0:
24,160,132983,2,0,L|48:96,1,62.5
160,336,133168,2,0,L|88:344,1,62.5,4|0,0:0|0:0,0:0:0:0:
344,320,133352,5,4,1:2:0:0:
128,248,133445,1,0,0:0:0:0:
344,320,133537,1,4,0:0:0:0:
165,178,133630,1,0,0:0:0:0:
248,336,133722,5,4,0:2:0:0:
281,110,133815,1,4,0:0:0:0:
248,336,133907,1,4,0:0:0:0:
336,232,134000,1,2,0:0:0:0:
120,256,134091,6,0,L|56:240,1,62.5,4|0,0:0|0:0,0:0:0:0:
0,176,134276,2,0,L|64:160,1,62.5,2|0,0:0|0:0,0:0:0:0:
120,96,134460,2,0,L|56:80,1,62.5
0,16,134645,2,0,L|64:0,1,62.5,2|0,0:0|0:0,0:0:0:0:
240,24,134829,5,4,1:2:0:0:
215,140,134921,1,4,0:0:0:0:
301,223,135013,1,4,0:0:0:0:
417,191,135105,1,0,0:0:0:0:
450,77,135199,2,0,P|400:64|368:64,1,62.5,4|0,0:0|0:0,0:0:0:0:
112,304,135383,2,0,P|162:317|194:317,1,62.5
304,96,135568,5,4,0:0:0:0:
288,320,135660,1,0,0:0:0:0:
234,118,135752,1,2,0:0:0:0:
350,311,135844,1,0,0:0:0:0:
168,153,135937,5,0,0:0:0:0:
414,263,136029,1,0,0:0:0:0:
165,240,136121,1,2,0:0:0:0:
429,189,136213,1,0,0:0:0:0:
192,328,136306,6,0,P|152:336|120:328,1,62.5,4|4,1:2|0:0,0:0:0:0:
448,112,136491,2,0,P|488:104|520:112,1,62.5,4|0,0:0|0:0,0:0:0:0:
88,112,136676,2,0,B|80:144|80:144|88:184,1,62.5,4|0,0:0|0:0,0:0:0:0:
360,232,136860,2,0,B|368:264|368:264|360:304,1,62.5,2|0,0:0|0:0,0:0:0:0:
32,248,137045,6,0,L|96:264,3,62.5,4|0|2|0,0:0|0:0|0:0|0:0,0:0:0:0:
504,208,137414,2,0,L|440:192,3,62.5,0|0|2|0,0:0|0:0|0:0|0:0,0:0:0:0:
344,328,137783,1,4,1:2:0:0:
254,289,137876,1,4,0:0:0:0:
165,250,137968,1,4,0:0:0:0:
254,211,138060,1,0,0:0:0:0:
344,172,138153,5,4,0:0:0:0:
254,133,138245,1,0,0:0:0:0:
165,94,138337,1,2,0:0:0:0:
254,55,138429,1,0,0:0:0:0:
344,16,138522,2,0,L|408:24,3,62.5,4|0|4|4,0:0|0:0|0:0|0:0,0:0:0:0:
64,104,138891,2,0,L|0:112,3,62.5,0|0|4|0,0:0|0:0|0:0|0:0,0:0:0:0:
256,192,139260,1,4,1:2:0:0:
448,280,139352,2,0,L|512:272,2,62.5,4|0|0,0:0|0:0|0:0,0:0:0:0:
368,352,139629,5,4,0:0:0:0:
327,344,139721,1,4,0:0:0:0:
286,336,139813,1,4,0:0:0:0:
245,328,139905,1,2,0:0:0:0:
168,280,139999,6,0,P|128:272|88:280,1,62.5,4|0,0:0|0:0,0:0:0:0:
344,160,140183,2,0,P|384:152|424:160,1,62.5,2|0,0:0|0:0,0:0:0:0:
152,168,140368,1,0,0:0:0:0:
328,248,140460,1,0,0:0:0:0:
64,200,140552,1,2,0:0:0:0:
272,104,140645,1,0,0:0:0:0:
160,304,140737,6,0,L|80:288,1,62.5,4|4,1:2|0:0,0:0:0:0:
360,168,140922,2,0,L|432:144,1,62.5,4|0,0:0|0:0,0:0:0:0:
240,344,141106,1,4,0:0:0:0:
272,88,141199,1,0,0:0:0:0:
480,248,141291,1,0,0:0:0:0:
240,344,141383,1,0,0:0:0:0:
384,72,141476,2,0,P|432:64|464:72,1,62.5,4|0,0:0|0:0,0:0:0:0:
136,272,141660,2,0,P|90:254|66:231,1,62.5,2|0,0:0|0:0,0:0:0:0:
128,24,141845,5,0,0:0:0:0:
145,123,141937,1,0,0:0:0:0:
244,104,142029,1,2,0:0:0:0:
226,6,142122,1,0,0:0:0:0:
64,88,142214,2,0,L|48:152,1,62.5,4|4,1:2|0:0,0:0:0:0:
248,216,142399,2,0,L|320:208,1,62.5,4|0,0:0|0:0,0:0:0:0:
336,24,142583,5,4,0:0:0:0:
336,24,142676,1,0,0:0:0:0:
288,304,142768,1,0,0:0:0:0:
288,304,142860,1,0,0:0:0:0:
432,88,142952,2,0,P|448:48|448:16,1,62.5,4|0,0:0|0:0,0:0:0:0:
376,352,143137,1,2,0:0:0:0:
376,352,143229,1,0,0:0:0:0:
232,48,143322,2,0,L|168:40,1,62.5
152,336,143506,5,0,0:0:0:0:
440,192,143599,1,0,0:0:0:0:
56,112,143691,2,0,P|40:144|40:184,1,62.5,4|4,1:2|0:0,0:0:0:0:
360,352,143876,1,4,0:0:0:0:
312,24,143968,1,0,0:0:0:0:
32,304,144060,5,4,0:0:0:0:
312,200,144152,1,0,0:0:0:0:
72,120,144245,1,2,0:0:0:0:
369,92,144337,1,0,0:0:0:0:
140,376,144429,6,0,P|121:333|119:292,1,62.5,4|0,1:2|0:0,0:0:0:0:
200,16,144614,1,4,1:2:0:0:
288,308,144706,1,4,1:2:0:0:
0,128,144799,2,0,L|72:120,1,62.5,2|0,0:0|0:0,0:0:0:0:
456,168,144983,1,0,1:0:0:0:
56,228,145076,1,0,0:0:0:0:
440,32,145168,5,4,1:2:0:0:
256,352,145260,1,0,1:0:0:0:
72,32,145352,2,0,P|104:24|144:32,1,62.5,2|0,1:2|0:0,0:0:0:0:
479,295,145537,1,4,0:0:0:0:
32,295,145629,1,4,0:0:0:0:
256,120,145722,5,0,0:0:0:0:
256,368,145814,1,2,0:0:0:0:
464,312,148936,6,0,P|400:272|336:288,1,125,4|2,3:0|0:0,0:0:0:0:
256,328,149220,1,0,0:0:0:0:
144,208,149315,2,0,P|152:256|136:288,1,62.5,0|0,3:0|3:0,0:0:0:0:
48,120,149505,2,0,L|120:104,1,62.5,0|0,3:0|0:0,0:0:0:0:
384,72,149695,6,0,B|288:64|288:64|248:32,1,125,0|0,1:0|0:0,0:0:0:0:
184,0,149979,1,0,0:0:0:0:
376,168,150074,2,0,P|448:144|512:168,1,125,2|0,0:0|0:0,0:0:0:0:
440,376,150454,5,4,3:0:0:0:
440,224,150549,1,0,3:0:0:0:
350,347,150644,1,2,0:0:0:0:
495,300,150739,1,2,0:0:0:0:
350,253,150834,5,0,3:0:0:0:
432,368,150929,1,0,0:0:0:0:
352,168,151023,1,0,3:0:0:0:
200,296,151118,1,0,0:0:0:0:
448,216,151213,6,0,P|456:176|456:136,1,62.5,0|0,1:0|0:0,0:0:0:0:
280,32,151403,2,0,P|272:72|272:112,1,62.5,0|0,3:0|0:0,0:0:0:0:
488,64,151593,2,0,L|400:56,1,62.5,0|0,3:0|0:0,0:0:0:0:
208,208,151783,6,0,L|81:196,1,125,0|4,0:0|3:0,0:0:0:0:
192,72,152067,1,0,0:0:0:0:
144,280,152162,2,0,L|120:352,1,62.5,2|0,0:0|0:0,0:0:0:0:
64,136,152352,2,0,L|80:208,1,62.5,0|0,3:0|3:0,0:0:0:0:
184,56,152542,2,0,L|168:128,1,62.5,0|0,3:0|0:0,0:0:0:0:
392,64,152732,6,0,P|320:56|264:88,1,125,0|0,1:0|0:0,0:0:0:0:
176,216,153016,1,0,0:0:0:0:
352,272,153111,2,0,L|344:128,1,125,0|2,0:0|0:0,0:0:0:0:
144,32,153491,5,4,3:0:0:0:
72,216,153586,1,0,0:0:0:0:
144,48,153681,1,2,0:0:0:0:
184,256,153776,1,2,0:0:0:0:
64,80,153871,1,0,3:0:0:0:
104,312,153966,1,0,0:0:0:0:
232,48,154060,2,0,L|208:176,1,125,0|0,3:0|1:0,0:0:0:0:
56,96,154345,5,0,0:0:0:0:
296,192,154440,1,0,3:0:0:0:
104,184,154535,1,0,0:0:0:0:
368,120,154630,2,0,P|392:160|392:200,1,62.5,2|0,0:0|0:0,0:0:0:0:
480,184,154820,2,0,L|448:256,1,62.5,2|0,0:0|0:0,0:0:0:0:
248,328,155010,6,0,B|320:312|320:312|384:328,1,125,4|2,3:0|0:0,0:0:0:0:
464,360,155294,1,0,0:0:0:0:
280,232,155389,2,0,L|272:160,1,62.5,0|0,3:0|3:0,0:0:0:0:
184,176,155579,2,0,L|176:104,1,62.5,0|0,3:0|0:0,0:0:0:0:
40,328,155769,6,0,B|86:318|86:318|121:327|121:327|184:313,1,125,0|0,1:0|0:0,0:0:0:0:
384,256,156053,1,0,0:0:0:0:
56,104,156148,2,0,L|56:240,1,125,2|0,0:0|0:0,0:0:0:0:
416,64,156528,5,4,3:0:0:0:
192,112,156623,1,0,0:0:0:0:
472,184,156718,1,2,0:0:0:0:
184,96,156813,1,0,0:0:0:0:
484,16,156908,1,0,3:0:0:0:
488,24,157003,1,0,0:0:0:0:
216,208,157097,2,0,L|136:192,1,62.5,0|0,3:0|0:0,0:0:0:0:
224,16,157287,5,0,1:0:0:0:
489,182,157382,1,0,0:0:0:0:
238,198,157477,1,2,0:0:0:0:
437,117,157572,1,2,0:0:0:0:
424,336,157667,2,0,L|352:352,1,62.5
224,352,157857,2,0,L|296:336,1,62.5,2|0,0:0|0:0,0:0:0:0:
143,328,158047,6,0,L|20:355,1,125,4|0,3:0|0:0,0:0:0:0:
64,160,158331,1,0,0:0:0:0:
216,208,158426,2,0,P|160:216|136:208,1,62.5,0|0,3:0|3:0,0:0:0:0:
368,176,158616,2,0,P|312:168|288:176,1,62.5,0|0,3:0|0:0,0:0:0:0:
445,315,158806,6,0,B|423:280|430:249|430:249|460:229|464:178,1,125,0|0,1:0|0:0,0:0:0:0:
432,104,159090,1,0,0:0:0:0:
336,264,159185,2,0,P|344:328|376:384,1,125,2|0,0:0|0:0,0:0:0:0:
56,112,159565,5,4,3:0:0:0:
368,40,159660,1,0,0:0:0:0:
56,112,159755,1,2,0:0:0:0:
368,40,159850,1,2,0:0:0:0:
152,240,159945,2,0,L|136:168,1,62.5,0|0,3:0|0:0,0:0:0:0:
373,178,160134,2,0,L|360:240,1,62.5,0|0,3:0|0:0,0:0:0:0:
135,317,160324,6,0,P|95:293|87:273,1,46.8750017881394,0|0,1:0|0:0,0:0:0:0:
376,317,160514,2,0,P|399:309|416:294,1,46.8750017881394
256,253,160704,6,0,B|256:225|244:192|244:192|267:192|267:192|256:166|256:129,1,149.999995422363,4|4,0:3|3:0,0:0:0:0:
