osu file format v14

[General]
AudioFilename: audio.mp3
AudioLeadIn: 0
PreviewTime: 3249
Countdown: 0
SampleSet: Soft
StackLeniency: 0.4
Mode: 0
LetterboxInBreaks: 0
WidescreenStoryboard: 0

[Editor]
Bookmarks: 5021,5781,13751,15648,17166,18684,21721,36902,38420,39179,39938,52083,70300,75993,81701,90341,91576,159535
DistanceSpacing: 0.8
BeatDivisor: 4
GridSize: 8
TimelineZoom: 1.6

[Metadata]
Title:Imaginary Places
TitleUnicode:Imaginary Places
Artist:Busdriver
ArtistUnicode:Busdriver
Creator:Moreon
Version:Hatiso's Calm Kiddo
Source:
Tags:phoon NeBu Busdriver Rdzeniu Streams Hatiso Moreon Rap sbsonic Andemu Asrasz LukerMaster Chalwa CptSqBany DominiGG AnySense squirrelpascals Fieryrage tem Squishi Soiplox Script
BeatmapID:1343291
BeatmapSetID:632870

[Difficulty]
HPDrainRate:2
CircleSize:3
OverallDifficulty:3
ApproachRate:5
SliderMultiplier:1.1
SliderTickRate:1

[Events]
//Background and Video events
0,0,"BG.jpg",0,0
//Break Periods
2,76223,78324
2,146091,147736
//Storyboard Layer 0 (Background)
//Storyboard Layer 1 (Fail)
//Storyboard Layer 2 (Pass)
//Storyboard Layer 3 (Foreground)
//Storyboard Sound Samples

[TimingPoints]
497.668789808917,379.525605095541,4,2,0,60,1,0
76794,411.444676258992,4,2,0,40,1,0
119172,-100,4,2,0,20,0,0
120818,-100,4,2,0,5,0,0
121230,-100,4,2,0,60,0,0
121582,368.326386288436,4,2,0,60,1,0
145899,379.625605095541,4,2,0,60,1,1
161107,369.125605095541,4,2,0,40,1,0
187459,426.625605095542,4,2,0,20,1,0

[Colours]
Combo1 : 255,192,0
Combo2 : 0,174,174
Combo3 : 41,101,31
Combo4 : 242,24,57

[HitObjects]
187,327,497,5,0,0:0:0:0:
347,253,1256,1,0,0:0:0:0:
197,160,2015,1,0,0:0:0:0:
323,38,2774,1,4,0:0:0:0:
493,98,3533,6,2,P|462:188|349:221,1,220,2|10,0:0|0:0,0:0:0:0:
267,191,4672,1,0,0:0:0:0:
180,205,5051,2,0,B|192:263|257:279|257:279|281:331|341:342,1,220,0|8,0:0|0:0,0:0:0:0:
426,342,6190,1,4,0:0:0:0:
446,256,6570,6,2,P|366:233|257:147,1,220,2|10,0:0|0:0,0:0:0:0:
184,195,7708,1,0,0:0:0:0:
101,225,8088,2,0,B|56:174|75:123|75:123|140:108|173:55,1,220,0|8,0:0|0:0,0:0:0:0:
224,131,9226,1,4,0:0:0:0:
221,219,9606,6,2,L|433:299,1,220,2|10,0:0|0:0,0:0:0:0:
471,221,10744,1,0,0:0:0:0:
407,160,11124,2,0,B|322:88|322:88|213:103,1,220,0|8,0:0|0:0,0:0:0:0:
181,185,12262,1,4,0:0:0:0:
110,238,12642,6,2,P|90:108|124:12,1,220,2|10,0:0|0:0,0:0:0:0:
204,31,13781,1,0,0:0:0:0:
223,116,14160,2,0,B|211:182|284:209|284:209|347:192|377:243,1,220,0|8,0:0|0:0,0:0:0:0:
354,320,15299,1,4,0:0:0:0:
266,316,15678,6,0,B|207:319|207:319|157:271,3,110,0|0|8|0,0:0|0:0|0:0|0:0,0:0:0:0:
206,203,17196,2,0,B|265:200|265:200|315:248,3,110,0|0|8|0,0:0|0:0|0:0|0:0,0:0:0:0:
375,283,18714,6,2,P|338:306|149:286,1,220,2|10,0:0|0:0,0:0:0:0:
93,252,19853,1,0,0:0:0:0:
63,169,20233,1,0,0:0:0:0:
150,175,20612,1,0,0:0:0:0:
219,121,20992,1,0,0:0:0:0:
207,33,21371,1,0,0:0:0:0:
295,31,21751,6,2,L|351:253,1,220,2|10,0:0|0:0,0:0:0:0:
361,331,22889,1,0,0:0:0:0:
273,322,23269,2,0,B|232:216|232:216|165:224|136:172,1,220,0|8,0:0|0:0,0:0:0:0:
212,128,24407,1,4,0:0:0:0:
172,49,24787,6,2,P|288:44|395:82,1,220,2|10,0:0|0:0,0:0:0:0:
460,31,25925,1,0,0:0:0:0:
469,118,26305,2,0,B|487:182|450:223|450:223|401:179|345:194,1,220,0|8,0:0|0:0,0:0:0:0:
267,170,27443,1,4,0:0:0:0:
179,180,27823,6,2,P|201:298|243:268,1,220,2|10,0:0|0:0,0:0:0:0:
268,363,28962,1,0,0:0:0:0:
335,306,29341,2,0,B|337:235|319:194|319:194|351:226|431:252|431:252,1,220,0|8,0:0|0:0,0:0:0:0:
460,171,30480,1,4,0:0:0:0:
400,104,30859,6,2,P|259:64|200:120,1,220,2|10,0:0|0:0,0:0:0:0:
152,168,31998,1,0,0:0:0:0:
108,244,32377,2,0,B|48:220|51:157|51:157|121:70,1,220,0|8,0:0|0:0,0:0:0:0:
192,121,33516,1,4,0:0:0:0:
242,192,33895,6,0,B|271:237|271:237|306:182|306:182,3,110,0|0|8|0,0:0|0:0|0:0|0:0,0:0:0:0:
372,241,35414,2,0,B|401:196|401:196|436:251|436:251,3,110,0|0|8|0,0:0|0:0|0:0|0:0,0:0:0:0:
492,307,36932,6,2,P|392:339|269:324,1,220,2|10,0:0|0:0,0:0:0:0:
200,288,38070,1,0,0:0:0:0:
128,237,38450,1,0,0:0:0:0:
167,158,38829,1,0,0:0:0:0:
240,207,39209,1,0,0:0:0:0:
256,120,39588,1,0,0:0:0:0:
336,84,39968,6,2,P|358:295|355:310,1,220,2|10,0:0|0:0,0:0:0:0:
279,259,41106,1,0,0:0:0:0:
240,338,41486,2,0,B|171:328|192:253|192:253|128:218|172:152|172:152,1,220,0|8,0:0|0:0,0:0:0:0:
237,111,42625,1,4,0:0:0:0:
193,34,43004,6,2,P|341:46|404:97,1,220,2|10,0:0|0:0,0:0:0:0:
362,168,44143,1,0,0:0:0:0:
287,213,44522,2,0,B|351:255|351:303|351:303|466:346|466:346,1,220,0|8,0:0|0:0,0:0:0:0:
477,256,45661,1,4,0:0:0:0:
444,174,46040,6,2,P|296:124|225:140,1,220,2|10,0:0|0:0,0:0:0:0:
266,218,47179,1,0,0:0:0:0:
191,264,47558,2,0,B|279:333|279:333|392:271,1,220,0|8,0:0|0:0,0:0:0:0:
350,196,48697,1,4,0:0:0:0:
269,161,49076,6,2,P|220:89|307:110,1,220,2|10,0:0|0:0,0:0:0:0:
393,113,50215,1,0,0:0:0:0:
465,163,50595,2,0,B|433:214|368:204|368:204|339:317,1,220,0|8,0:0|0:0,0:0:0:0:
254,321,51733,1,4,0:0:0:0:
168,298,52113,6,0,B|156:270|123:269|123:269|130:225|99:210,3,110,0|0|8|0,0:0|0:0|0:0|0:0,0:0:0:0:
144,137,53631,2,0,B|170:151|195:130|195:130|219:167|252:158,3,110,0|0|8|0,0:0|0:0|0:0|0:0,0:0:0:0:
277,238,55149,5,0,0:0:0:0:
359,271,55528,1,0,0:0:0:0:
440,238,55908,1,8,0:0:0:0:
474,156,56287,1,0,0:0:0:0:
440,75,56667,1,0,0:0:0:0:
359,42,57046,1,0,0:0:0:0:
277,75,57426,1,0,0:0:0:0:
244,156,57806,1,0,0:0:0:0:
251,243,58185,6,2,L|478:165,1,220,2|10,0:0|0:0,0:0:0:0:
436,86,59324,1,0,0:0:0:0:
351,60,59703,2,0,B|306:107|261:41|261:41|221:109|169:61,1,220,0|8,0:0|0:0,0:0:0:0:
86,74,60842,1,4,0:0:0:0:
116,156,61221,6,2,P|143:279|65:291,1,220,2|10,0:0|0:0,0:0:0:0:
31,222,62360,1,0,0:0:0:0:
22,134,62739,2,0,B|79:41|79:41|194:40,1,220,0|8,0:0|0:0,0:0:0:0:
277,36,63878,1,4,0:0:0:0:
364,39,64257,6,2,B|458:145|366:255,1,220,2|10,0:0|0:0,0:0:0:0:
327,310,65396,1,0,0:0:0:0:
240,329,65776,2,0,B|165:324|167:262|167:262|172:189|92:185|92:185,1,220,0|8,0:0|0:0,0:0:0:0:
116,99,66914,1,4,0:0:0:0:
185,44,67294,6,2,P|264:116|389:140,1,220,2|10,0:0|0:0,0:0:0:0:
406,221,68432,1,0,0:0:0:0:
469,161,68812,2,0,B|482:95|460:48|460:48|395:21|341:33|341:33,1,220,0|8,0:0|0:0,0:0:0:0:
313,106,69950,1,4,0:0:0:0:
352,184,70330,6,0,P|307:216|259:199,3,110,0|0|8|0,0:0|0:0|0:0|0:0,0:0:0:0:
172,223,71848,2,0,P|182:277|147:314,3,110,0|0|8|0,0:0|0:0|0:0|0:0,0:0:0:0:
78,254,73366,5,0,0:0:0:0:
71,166,73746,1,0,0:0:0:0:
15,97,74125,1,8,0:0:0:0:
99,71,74505,1,0,0:0:0:0:
168,16,74884,1,0,0:0:0:0:
226,81,75264,1,0,0:0:0:0:
312,97,75643,1,0,0:0:0:0:
393,63,76023,1,4,0:0:0:0:
351,206,79674,5,8,0:0:0:0:
251,350,80497,6,2,P|180:214|317:124,1,330
387,118,82142,1,0,0:0:0:0:
214,84,82965,1,8,0:0:0:0:
127,67,83377,1,0,0:0:0:0:
46,102,83788,1,0,0:0:0:0:
171,225,84611,1,8,0:0:0:0:
248,66,85434,1,0,0:0:0:0:
382,179,86257,5,8,0:0:0:0:
465,207,86668,1,0,0:0:0:0:
501,287,87080,2,2,P|357:292|304:236,1,220,2|10,0:0|0:0,0:0:0:0:
297,157,88314,1,0,0:0:0:0:
336,78,88725,1,0,0:0:0:0:
248,84,89137,1,0,0:0:0:0:
209,161,89548,1,8,0:0:0:0:
42,222,90371,6,2,P|178:102|209:182,1,330
122,173,92017,1,0,0:0:0:0:
256,288,92840,1,8,0:0:0:0:
247,200,93251,1,0,0:0:0:0:
327,235,93663,1,0,0:0:0:0:
252,75,94486,1,8,0:0:0:0:
423,112,95309,1,0,0:0:0:0:
505,267,96131,5,8,0:0:0:0:
418,282,96543,1,0,0:0:0:0:
337,320,96954,2,2,P|256:274|108:288,1,220,2|10,0:0|0:0,0:0:0:0:
65,219,98189,1,0,0:0:0:0:
145,183,98600,1,0,0:0:0:0:
233,179,99012,1,0,0:0:0:0:
318,200,99423,1,8,0:0:0:0:
435,68,100246,6,2,B|290:1|219:183|103:86,1,330
45,55,101892,1,0,0:0:0:0:
90,225,102715,1,8,0:0:0:0:
69,310,103126,1,0,0:0:0:0:
146,352,103537,1,0,0:0:0:0:
242,204,104360,1,8,0:0:0:0:
395,290,105183,1,0,0:0:0:0:
463,127,106006,5,8,0:0:0:0:
403,61,106418,1,0,0:0:0:0:
372,143,106829,2,2,P|334:192|230:105,1,220,2|10,0:0|0:0,0:0:0:0:
140,140,108063,1,0,0:0:0:0:
170,222,108475,1,0,0:0:0:0:
238,276,108886,1,0,0:0:0:0:
325,287,109298,1,8,0:0:0:0:
153,325,110121,6,2,B|216:289|279:214|133:183|133:96|235:42,1,330
283,111,111766,1,0,0:0:0:0:
118,180,112589,1,8,0:0:0:0:
195,222,113001,1,0,0:0:0:0:
239,297,113412,1,0,0:0:0:0:
313,137,114235,1,8,0:0:0:0:
457,37,115058,1,0,0:0:0:0:
285,76,115881,5,8,0:0:0:0:
198,61,116292,1,0,0:0:0:0:
112,83,116704,2,2,P|190:267|213:284,1,220,2|10,0:0|0:0,0:0:0:0:
269,328,117938,1,0,0:0:0:0:
326,261,118349,1,0,0:0:0:0:
401,305,118761,1,0,0:0:0:0:
488,301,119172,2,2,P|390:70|140:67,1,522.5
480,260,122318,5,0,0:0:0:0:
405,212,122686,1,0,0:0:0:0:
336,267,123055,1,8,0:0:0:0:
262,219,123423,1,0,0:0:0:0:
191,270,123791,1,0,0:0:0:0:
127,209,124160,1,0,0:0:0:0:
134,121,124528,1,8,0:0:0:0:
210,77,124896,1,0,0:0:0:0:
297,83,125265,6,0,P|386:134|395:156,1,110
404,222,126001,2,0,P|297:264|291:274,1,110,8|0,0:0|0:0,0:0:0:0:
216,250,126738,2,0,P|201:347|178:362,1,110
114,320,127475,2,0,P|101:246|114:205,1,110,8|0,0:0|0:0,0:0:0:0:
184,164,128211,5,0,0:0:0:0:
225,86,128580,1,0,0:0:0:0:
303,125,128948,1,8,0:0:0:0:
297,212,129316,1,0,0:0:0:0:
208,206,129685,1,0,0:0:0:0:
234,289,130053,1,0,0:0:0:0:
157,333,130421,1,8,0:0:0:0:
99,265,130790,1,0,0:0:0:0:
78,179,131158,6,0,L|162:85,1,110
234,68,131895,2,0,L|223:188,1,110,8|0,0:0|0:0,0:0:0:0:
269,252,132631,2,0,L|153:282,1,110
130,361,133368,2,0,L|259:355,1,110,8|0,0:0|0:0,0:0:0:0:
322,323,134105,5,0,0:0:0:0:
361,244,134473,1,0,0:0:0:0:
295,185,134841,1,8,0:0:0:0:
286,97,135210,1,0,0:0:0:0:
199,78,135578,1,0,0:0:0:0:
126,128,135946,1,0,0:0:0:0:
148,213,136315,1,8,0:0:0:0:
102,288,136683,1,0,0:0:0:0:
185,316,137051,6,0,B|238:303|238:303|268:251|268:251,1,110
191,206,137788,2,0,B|181:151|181:151|131:119|131:119,1,110,8|0,0:0|0:0,0:0:0:0:
188,51,138525,2,0,B|238:75|238:75|293:53|293:53,1,110
343,123,139261,2,0,B|377:80|377:80|371:21|371:21,1,110,8|0,0:0|0:0,0:0:0:0:
288,54,139998,5,0,0:0:0:0:
253,135,140366,1,0,0:0:0:0:
165,138,140734,1,8,0:0:0:0:
189,53,141103,1,0,0:0:0:0:
270,21,141471,1,0,0:0:0:0:
357,30,141839,1,0,0:0:0:0:
428,81,142208,1,8,0:0:0:0:
441,167,142576,1,0,0:0:0:0:
446,254,142944,6,0,P|347:264|346:263,1,110
265,240,143681,2,0,P|166:250|165:249,1,110,8|0,0:0|0:0,0:0:0:0:
181,165,144418,2,0,P|280:155|281:156,1,110
349,101,145154,2,0,P|448:91|449:92,1,110,8|0,0:0|0:0,0:0:0:0:
477,170,145891,1,4,0:0:0:0:
272,181,148936,6,2,P|387:58|452:43,1,220,2|10,0:0|0:0,0:0:0:0:
441,132,150074,1,0,0:0:0:0:
415,216,150454,2,0,B|398:284|352:301|352:301|305:236|244:276|244:276,1,220,0|8,0:0|0:0,0:0:0:0:
191,330,151593,1,4,0:0:0:0:
103,313,151973,6,2,P|103:88|103:88,1,220,2|10,0:0|0:0,0:0:0:0:
190,93,153111,1,0,0:0:0:0:
213,177,153491,2,0,B|275:152|282:94|282:94|341:100|395:51,1,220,0|8,0:0|0:0,0:0:0:0:
467,46,154630,1,4,0:0:0:0:
472,133,155010,6,2,P|429:274|355:323,1,220,2|10,0:0|0:0,0:0:0:0:
338,235,156148,1,0,0:0:0:0:
366,151,156528,2,0,B|277:86|277:86|242:145|175:138,1,220,0|8,0:0|0:0,0:0:0:0:
147,217,157667,1,4,0:0:0:0:
212,275,158047,6,2,P|300:301|260:223,1,220,2|10,0:0|0:0,0:0:0:0:
210,157,159185,1,0,0:0:0:0:
144,97,159565,2,0,B|105:142|85:191|85:191|103:248|94:321,1,220,0|8,0:0|0:0,0:0:0:0:
183,308,160704,1,0,0:0:0:0:
186,219,161084,5,4,0:0:0:0:
277,201,161476,2,0,L|338:170,2,55,0|0|8,0:0|0:0|0:0,0:0:0:0:
212,141,162214,2,0,L|156:116,2,55
284,90,162952,2,0,L|345:59,2,55,0|0|8,0:0|0:0|0:0,0:0:0:0:
329,165,163690,1,0,0:0:0:0:
387,230,164060,5,0,0:0:0:0:
327,293,164429,1,0,0:0:0:0:
327,293,164798,1,8,0:0:0:0:
244,322,165167,1,0,0:0:0:0:
244,322,165536,1,0,0:0:0:0:
185,256,165905,1,0,0:0:0:0:
185,256,166274,1,8,0:0:0:0:
257,206,166643,1,0,0:0:0:0:
257,117,167013,5,0,0:0:0:0:
172,93,167382,2,0,P|134:94|106:121,2,55,0|0|8,0:0|0:0|0:0,0:0:0:0:
238,34,168120,2,0,P|276:35|304:62,2,55
262,118,168858,2,0,P|263:156|290:184,2,55,0|0|8,0:0|0:0|0:0,0:0:0:0:
178,91,169596,1,0,0:0:0:0:
95,120,169966,5,0,0:0:0:0:
102,207,170335,1,0,0:0:0:0:
183,173,170704,1,8,0:0:0:0:
263,136,171073,1,0,0:0:0:0:
253,223,171442,1,0,0:0:0:0:
178,269,171811,1,0,0:0:0:0:
257,306,172180,1,8,0:0:0:0:
341,282,172549,1,0,0:0:0:0:
419,241,172919,5,0,0:0:0:0:
355,180,173288,2,0,B|328:195|328:195|294:184,2,55,0|0|8,0:0|0:0|0:0,0:0:0:0:
442,168,174026,2,0,B|468:182|468:182|502:171,2,55
412,85,174764,2,0,B|415:54|415:54|443:32,2,55,0|0|8,0:0|0:0|0:0,0:0:0:0:
327,109,175502,1,0,0:0:0:0:
254,58,175872,5,0,0:0:0:0:
219,139,176241,1,0,0:0:0:0:
290,190,176610,1,8,0:0:0:0:
238,261,176979,1,0,0:0:0:0:
163,213,177348,1,0,0:0:0:0:
130,294,177717,1,0,0:0:0:0:
76,223,178086,1,8,0:0:0:0:
115,144,178455,1,0,0:0:0:0:
64,72,178825,5,0,0:0:0:0:
144,37,179194,2,0,P|182:34|209:61,2,55,0|0|8,0:0|0:0|0:0,0:0:0:0:
140,124,179932,2,0,P|178:123|203:152,2,55
113,207,180670,2,0,P|75:210|48:183,2,55,0|0|8,0:0|0:0|0:0,0:0:0:0:
168,274,181408,1,0,0:0:0:0:
239,221,181778,5,0,0:0:0:0:
320,255,182147,1,0,0:0:0:0:
320,255,182516,1,8,0:0:0:0:
402,240,182885,1,0,0:0:0:0:
402,240,183254,1,0,0:0:0:0:
484,270,183623,1,0,0:0:0:0:
484,270,183992,1,8,0:0:0:0:
482,182,184361,1,0,0:0:0:0:
393,186,184731,5,0,0:0:0:0:
308,160,185100,2,0,L|348:111,2,55,0|0|8,0:0|0:0|0:0,0:0:0:0:
229,121,185838,2,0,L|189:170,2,55
265,40,186576,2,0,L|344:33,2,55,0|0|8,0:0|0:0|0:0,0:0:0:0:
256,192,187672,5,4,0:0:0:0:
256,192,187885,12,0,190765,0:0:0:0:
