osu file format v14

[General]
AudioFilename: audio.mp3
AudioLeadIn: 0
PreviewTime: 3249
Countdown: 0
SampleSet: Soft
StackLeniency: 0.2
Mode: 0
LetterboxInBreaks: 0
WidescreenStoryboard: 0

[Editor]
DistanceSpacing: 0.5
BeatDivisor: 16
GridSize: 8
TimelineZoom: 1.6

[Metadata]
Title:Imaginary Places
TitleUnicode:Imaginary Places
Artist:Busdriver
ArtistUnicode:Busdriver
Creator:Moreon
Version:Fiery's "this lando kid is fucking bullshit"
Source:
Tags:phoon NeBu Busdriver Rdzeniu Streams Hatiso Moreon Rap sbsonic Andemu Asrasz LukerMaster Chalwa CptSqBany DominiGG AnySense squirrelpascals Fieryrage tem Squishi Soiplox Script
BeatmapID:1370029
BeatmapSetID:632870

[Difficulty]
HPDrainRate:5
CircleSize:3.8
OverallDifficulty:9.5
ApproachRate:10
SliderMultiplier:2.8
SliderTickRate:1

[Events]
//Background and Video events
0,0,"BG.jpg",0,0
//Break Periods
2,76792,79249
2,146468,147536
//Storyboard Layer 0 (Background)
//Storyboard Layer 1 (Fail)
//Storyboard Layer 2 (Pass)
//Storyboard Layer 3 (Foreground)
//Storyboard Sound Samples

[TimingPoints]
497.668789808917,379.525605095541,4,2,3,40,1,0
3344,-100,4,2,3,55,0,0
21751,-90.9090909090909,4,2,3,55,0,0
39588,-50,4,2,3,55,0,0
39968,-83.3333333333333,4,2,3,55,0,0
58185,-76.9230769230769,4,2,3,55,0,0
75643,-100,4,2,3,55,0,0
76118,-100,4,2,3,5,0,0
76497,-100,4,2,3,25,0,0
76794,411.444676258992,4,2,3,45,1,0
79674,-200,4,2,3,45,0,0
80497,-133.333333333333,4,2,3,45,0,0
83479,-133.333333333333,4,2,3,25,0,0
83788,-133.333333333333,4,2,3,45,0,0
89857,-133.333333333333,4,2,3,25,0,0
90063,-133.333333333333,4,2,3,35,0,0
90165,-133.333333333333,4,2,3,5,0,0
90371,-133.333333333333,4,2,3,45,0,0
93354,-133.333333333333,4,2,3,5,0,0
93663,-133.333333333333,4,2,3,45,0,0
99732,-133.333333333333,4,2,3,25,0,0
99937,-133.333333333333,4,2,3,35,0,0
100040,-133.333333333333,4,2,3,5,0,0
100246,-133.333333333333,4,2,3,45,0,0
109606,-133.333333333333,4,2,3,25,0,0
109786,-133.333333333333,4,2,3,35,0,0
109915,-133.333333333333,4,2,3,5,0,0
110095,-133.333333333333,4,2,3,45,0,0
113001,-133.333333333333,4,2,3,25,0,0
113309,-133.333333333333,4,2,3,45,0,0
119044,-133.333333333333,4,2,3,30,0,0
119172,-133.333333333333,4,2,3,5,0,0
121101,-133.333333333333,4,2,3,25,0,0
122052,-133.333333333333,4,2,3,45,0,0
122276,369.230769230769,4,2,3,60,1,1
122276,-71.4285714285714,4,2,3,60,0,1
131506,-55.5555555555556,4,2,3,60,0,1
131876,-71.4285714285714,4,2,3,60,0,1
145899,379.625605095541,4,2,3,10,1,0
146088,-100,4,2,3,15,0,0
146468,-100,4,2,3,20,0,0
146848,-100,4,2,3,25,0,0
147227,-100,4,2,3,30,0,0
147607,-100,4,2,3,35,0,0
147986,-50,4,2,3,30,0,0
148081,-50,4,2,3,5,0,0
148176,-100,4,2,3,35,0,0
148366,-100,4,2,3,45,0,0
148746,-200,4,2,3,45,0,0
148841,-200,4,2,3,5,0,0
148936,-66.6666666666667,4,2,3,50,0,1
161107,369.125605095541,4,2,3,40,1,0
161107,-200,4,2,3,40,0,0
187459,426.625605095542,4,2,3,20,1,0
193645,-100,4,2,3,5,0,0

[Colours]
Combo1 : 255,192,0
Combo2 : 0,174,174
Combo3 : 41,101,31
Combo4 : 242,24,57

[HitObjects]
123,180,497,6,0,P|213:188|271:153,1,140,2|0,3:0|0:0,0:0:0:0:
309,85,782,1,0,0:0:0:0:
392,202,877,6,0,P|302:210|244:175,1,140,2|0,0:2|0:0,0:0:0:0:
203,85,1161,1,0,0:0:0:0:
122,234,1256,6,0,P|212:242|270:207,1,140,2|0,3:0|0:0,0:0:0:0:
309,85,1541,1,0,0:0:0:0:
389,263,1636,6,0,P|299:271|241:236,1,140,2|0,0:2|0:0,0:0:0:0:
203,85,1920,1,0,0:0:0:0:
32,286,2015,6,0,L|28:139,1,140,2|0,3:0|0:0,0:0:0:0:
480,98,2300,1,0,0:0:0:0:
480,98,2395,2,0,L|484:245,1,140,2|0,3:0|0:0,0:0:0:0:
165,4,2679,1,0,0:0:0:0:
165,4,2774,6,0,L|312:0,1,140,2|0,3:0|0:0,0:0:0:0:
347,380,3059,1,0,0:0:0:0:
347,380,3154,2,0,L|200:384,1,140,2|2,3:0|0:0,0:0:0:0:
60,39,3533,5,4,3:1:0:0:
351,196,3723,2,0,L|260:192,1,70
60,39,3913,1,0,3:0:0:0:
24,159,4008,1,0,0:0:0:0:
145,126,4103,1,0,3:0:0:0:
62,285,4292,6,0,P|20:210|24:155,1,140,8|0,3:0|0:0,0:0:0:0:
293,126,4577,1,0,0:0:0:0:
207,383,4672,5,6,0:3:0:0:
206,368,4767,1,0,0:3:0:0:
205,353,4862,1,4,0:3:0:0:
448,194,5051,5,0,3:0:0:0:
259,220,5146,1,0,0:0:0:0:
483,300,5241,1,0,0:0:0:0:
294,326,5336,1,0,0:0:0:0:
469,180,5431,5,0,3:0:0:0:
227,213,5526,1,0,0:0:0:0:
512,315,5621,1,0,3:0:0:0:
272,347,5716,1,0,0:0:0:0:
458,111,5811,6,0,P|469:151|466:191,1,70,8|0,3:0|3:0,3:0:0:0:
227,213,6000,2,0,P|227:178|237:144,1,70,0|0,3:0|3:0,3:0:0:0:
512,315,6190,2,0,L|372:322,1,140,0|4,0:0|3:0,0:0:0:0:
454,58,6570,6,0,P|435:131|459:215,1,140,2|0,3:0|0:0,0:0:0:0:
512,315,6854,1,0,0:0:0:0:
240,191,6949,2,0,L|319:188,1,70,0|0,3:0|3:0,3:0:0:0:
259,220,7139,2,0,L|180:217,1,70,0|0,3:0|0:0,0:0:0:0:
0,109,7329,5,8,3:0:0:0:
260,289,7518,2,0,P|262:243|256:211,1,70
0,109,7708,5,6,0:3:0:0:
2,122,7803,1,0,0:0:0:0:
4,135,7898,1,4,0:3:0:0:
447,193,8088,5,2,3:0:0:0:
442,227,8183,1,0,0:0:0:0:
443,261,8277,1,0,0:0:0:0:
449,295,8372,1,0,0:0:0:0:
465,326,8467,5,0,3:0:0:0:
398,305,8562,1,0,0:0:0:0:
327,304,8657,1,0,3:0:0:0:
259,321,8752,1,0,0:0:0:0:
197,354,8847,5,8,3:0:0:0:
127,295,8942,1,0,0:0:0:0:
103,208,9036,1,0,3:0:0:0:
127,120,9131,1,0,0:0:0:0:
183,48,9226,6,0,L|266:46,1,70,0|0,3:0|0:0,0:0:0:0:
103,208,9416,2,0,L|33:209,1,70,4|0,3:0|0:0,0:0:0:0:
434,57,9606,6,0,P|454:130|444:200,1,140,2|0,3:0|0:0,0:0:0:0:
252,46,9890,1,0,0:0:0:0:
446,192,9985,6,0,P|408:257|351:300,1,140,0|0,3:0|3:0,0:0:0:0:
252,46,10270,1,0,0:0:0:0:
358,296,10365,6,0,P|284:316|215:305,1,140,8|0,3:0|0:0,0:0:0:0:
252,46,10649,1,0,0:0:0:0:
222,308,10744,5,6,0:3:0:0:
119,234,10839,1,0,0:0:0:0:
232,179,10934,1,4,0:3:0:0:
448,258,11124,5,2,3:0:0:0:
320,82,11219,1,0,0:0:0:0:
320,298,11314,1,0,0:0:0:0:
448,123,11409,1,0,0:0:0:0:
232,179,11503,5,0,3:0:0:0:
252,181,11598,1,0,0:0:0:0:
468,256,11693,1,0,3:0:0:0:
448,258,11788,1,0,0:0:0:0:
256,75,11883,6,0,P|296:56|343:56,1,70,8|0,3:0|0:0,0:0:0:0:
385,319,12073,2,0,P|350:313|319:297,1,70,0|0,3:0|0:0,0:0:0:0:
468,101,12262,2,0,L|471:265,1,140,0|4,3:0|0:3,0:0:0:0:
92,183,12642,6,0,L|242:178,1,140,0|0,3:0|0:0,0:0:0:0:
366,99,12927,1,0,0:0:0:0:
72,203,13022,6,0,L|222:198,1,140,0|0,3:0|0:0,0:0:0:0:
366,99,13306,1,0,0:0:0:0:
56,225,13401,6,0,L|206:220,1,140,8|0,3:0|0:0,0:0:0:0:
366,99,13686,1,0,0:0:0:0:
199,363,13781,5,6,0:3:0:0:
198,342,13875,1,0,0:0:0:0:
197,320,13970,1,4,0:3:0:0:
366,99,14160,6,0,P|379:144|378:183,1,70,2|0,3:0|0:0,0:0:0:0:
56,225,14350,2,0,P|58:190|69:157,1,70
463,200,14540,6,0,P|434:236|402:259,1,70,0|0,3:0|0:0,0:0:0:0:
4,95,14729,2,0,P|34:77|67:68,1,70,0|0,3:0|0:0,0:0:0:0:
250,364,14919,6,0,P|211:337|187:306,1,70,8|0,3:0|0:0,0:0:0:0:
353,30,15109,2,0,P|363:63|365:98,1,70,0|0,3:0|0:0,0:0:0:0:
53,375,15299,1,0,3:0:0:0:
125,0,15488,1,4,0:3:0:0:
416,251,15678,5,2,3:0:0:0:
223,229,15868,1,0,0:0:0:0:
416,251,16058,1,2,0:0:0:0:
223,229,16248,1,2,3:0:0:0:
4,95,16437,5,10,3:0:0:0:
232,62,16627,1,0,0:0:0:0:
4,95,16817,1,2,0:0:0:0:
232,62,17007,2,0,L|326:49,1,70
154,363,17196,5,2,3:0:0:0:
119,78,17386,1,0,0:0:0:0:
154,363,17576,1,2,3:0:0:0:
119,78,17766,1,2,3:0:0:0:
410,10,17955,5,10,3:0:0:0:
367,367,18145,2,0,L|377:279,1,70,2|0,0:0|0:0,0:0:0:0:
410,10,18335,2,0,L|400:98,1,70,6|0,0:3|0:0,0:0:0:0:
367,367,18525,1,2,0:0:0:0:
119,78,18714,5,2,3:0:0:0:
109,96,18809,1,0,0:0:0:0:
104,116,18904,1,0,0:0:0:0:
102,137,18999,1,0,0:0:0:0:
110,58,19094,5,2,0:0:0:0:
95,84,19189,1,0,0:0:0:0:
88,113,19284,1,0,0:0:0:0:
85,144,19379,1,0,0:0:0:0:
211,108,19473,5,10,3:0:0:0:
234,150,19568,1,0,0:0:0:0:
246,196,19663,1,0,0:0:0:0:
250,246,19758,1,0,0:0:0:0:
232,62,19853,5,2,0:0:0:0:
267,122,19948,1,0,0:0:0:0:
283,189,20043,1,0,0:0:0:0:
290,262,20138,1,0,0:0:0:0:
42,71,20233,6,0,P|85:58|127:60,3,70,0|0|0|0,3:0|0:0|0:0|0:0,0:0:0:0:
283,189,20612,2,0,P|248:186|215:175,3,70,4|0|0|0,3:0|0:0|0:0|0:0,0:0:0:0:
23,316,20992,6,0,L|116:310,1,70,2|0,0:0|0:0,0:0:0:0:
467,190,21181,2,0,L|374:184,1,70,6|0,0:3|0:0,0:0:0:0:
91,50,21371,5,2,3:0:0:0:
198,271,21466,1,2,0:0:0:0:
278,40,21561,5,6,3:0:0:0:
70,165,21656,1,2,0:0:0:0:
398,186,21751,6,0,P|427:111|414:23,1,154.000004699707,6|0,3:2|0:0,0:0:0:0:
70,165,22035,1,0,0:0:0:0:
70,165,22130,2,0,P|63:241|92:311,1,154.000004699707,0|0,3:0|3:0,0:0:0:0:
396,312,22510,5,8,3:0:0:0:
402,300,22699,1,0,0:0:0:0:
299,245,22794,1,0,0:0:0:0:
398,186,22889,5,6,0:3:0:0:
413,187,22984,1,0,0:0:0:0:
428,189,23079,1,4,0:3:0:0:
202,333,23269,5,2,3:0:0:0:
198,271,23364,1,0,0:0:0:0:
195,210,23458,1,0,0:0:0:0:
192,148,23553,1,0,0:0:0:0:
306,368,23648,5,0,3:0:0:0:
302,306,23743,1,0,0:0:0:0:
299,245,23837,1,0,3:0:0:0:
296,183,23932,1,0,0:0:0:0:
198,271,24028,6,0,P|157:283|115:280,1,77.0000023498536,8|0,3:0|0:0,0:0:0:0:
272,95,24218,2,0,P|310:94|346:105,1,77.0000023498536
37,338,24407,2,0,L|32:171,1,154.000004699707,0|4,0:0|3:0,0:0:0:0:
344,254,24787,6,0,P|260:282|186:265,1,154.000004699707,2|0,3:0|0:0,0:0:0:0:
197,270,25071,1,0,0:0:0:0:
272,95,25166,2,0,L|274:183,1,77.0000023498536,0|0,3:0|0:0,0:0:0:0:
177,0,25356,1,0,3:0:0:0:
434,114,25546,5,8,3:0:0:0:
197,270,25736,1,0,0:0:0:0:
192,208,25831,1,0,0:0:0:0:
118,303,25925,5,6,0:3:0:0:
116,319,26020,1,0,0:0:0:0:
114,335,26115,1,4,0:3:0:0:
434,114,26257,1,0,0:0:0:0:
434,114,26305,6,0,P|447:164|445:197,1,77.0000023498536,2|0,3:0|0:0,0:0:0:0:
209,345,26495,2,0,P|196:295|198:262,1,77.0000023498536
502,269,26684,6,0,P|462:286|416:281,1,77.0000023498536,0|0,3:0|0:0,0:0:0:0:
144,178,26874,2,0,P|184:161|230:166,1,77.0000023498536,0|0,3:0|0:0,0:0:0:0:
336,369,27064,5,8,3:0:0:0:
347,171,27159,1,0,0:0:0:0:
336,369,27254,1,0,0:0:0:0:
347,171,27349,1,0,0:0:0:0:
209,345,27443,6,0,B|156:342|133:368|133:368|104:349|64:355,1,154.000004699707,0|4,0:0|3:0,0:0:0:0:
213,8,27823,6,0,L|217:168,1,154.000004699707,2|0,3:0|0:0,0:0:0:0:
443,241,28203,2,0,L|446:87,1,154.000004699707,0|0,3:0|3:0,0:0:0:0:
446,87,28487,1,0,0:0:0:0:
142,249,28582,2,0,P|217:277|294:250,1,154.000004699707,8|0,3:0|0:0,0:0:0:0:
97,71,28962,5,6,0:3:0:0:
81,73,29056,1,0,0:0:0:0:
65,75,29151,1,4,0:3:0:0:
278,360,29341,5,2,3:0:0:0:
404,306,29436,1,0,0:0:0:0:
278,360,29531,2,0,L|121:356,1,154.000004699707,0|0,0:0|3:0,0:0:0:0:
108,356,29816,1,0,0:0:0:0:
75,340,29910,1,0,3:0:0:0:
91,339,30005,1,0,0:0:0:0:
27,267,30100,5,8,3:0:0:0:
278,360,30290,1,0,3:0:0:0:
197,53,30480,5,0,0:0:0:0:
168,228,30575,1,0,0:0:0:0:
316,74,30669,1,4,3:0:0:0:
287,249,30764,1,0,0:0:0:0:
197,53,30859,6,0,B|117:38|117:38|26:52,1,154.000004699707,2|0,3:0|0:0,0:0:0:0:
247,144,31144,1,0,0:0:0:0:
182,33,31239,6,0,B|102:18|102:18|11:32,1,154.000004699707,0|0,3:0|3:0,0:0:0:0:
247,144,31523,1,0,0:0:0:0:
166,11,31618,6,0,B|86:-4|86:-4|-5:10,1,154.000004699707,8|0,3:0|0:0,0:0:0:0:
247,144,31903,1,0,0:0:0:0:
89,293,31998,5,6,0:3:0:0:
90,277,32093,1,0,0:0:0:0:
91,261,32188,1,4,0:3:0:0:
343,161,32377,5,2,3:0:0:0:
323,339,32472,1,0,0:0:0:0:
343,161,32567,2,0,L|353:73,1,77.0000023498536
191,248,32757,5,0,3:0:0:0:
206,245,32852,1,0,0:0:0:0:
323,339,32947,1,0,3:0:0:0:
308,336,33042,1,0,0:0:0:0:
343,161,33136,5,8,3:0:0:0:
358,158,33231,1,0,0:0:0:0:
475,252,33326,1,0,3:0:0:0:
460,249,33421,1,0,0:0:0:0:
323,339,33516,6,0,P|236:359|167:336,1,154.000004699707,0|4,0:0|3:0,0:0:0:0:
173,42,33895,5,2,3:0:0:0:
323,7,34085,1,0,0:0:0:0:
358,158,34275,1,2,0:0:0:0:
207,192,34465,1,2,3:0:0:0:
190,0,34654,5,10,3:0:0:0:
376,38,34844,1,2,0:0:0:0:
337,228,35034,1,2,0:0:0:0:
147,187,35224,1,0,0:0:0:0:
162,190,35319,1,0,0:0:0:0:
175,193,35414,5,2,3:0:0:0:
423,141,35603,1,0,0:0:0:0:
175,193,35793,1,2,3:0:0:0:
423,141,35982,1,2,3:0:0:0:
109,85,36173,5,10,3:0:0:0:
388,284,36362,2,0,L|320:235,1,77.0000023498536,2|0,0:0|0:0,0:0:0:0:
109,85,36552,2,0,L|177:134,1,77.0000023498536,6|0,0:3|0:0,0:0:0:0:
388,284,36742,1,2,0:0:0:0:
31,350,36932,5,2,3:0:0:0:
46,347,37027,1,0,0:0:0:0:
61,344,37121,1,0,0:0:0:0:
76,341,37216,1,0,0:0:0:0:
141,342,37311,5,2,0:0:0:0:
126,339,37406,1,0,0:0:0:0:
111,336,37500,1,0,0:0:0:0:
96,333,37595,1,0,0:0:0:0:
21,260,37691,5,10,3:0:0:0:
36,257,37786,1,0,0:0:0:0:
51,254,37880,1,0,0:0:0:0:
66,251,37975,1,0,0:0:0:0:
131,252,38070,5,2,0:0:0:0:
116,249,38165,1,0,0:0:0:0:
101,246,38259,1,0,0:0:0:0:
86,243,38354,1,0,0:0:0:0:
243,103,38450,6,0,P|257:154|254:191,3,77.0000023498536,0|0|0|0,3:0|0:0|0:0|0:0,0:0:0:0:
86,243,38829,2,0,P|72:192|75:155,3,77.0000023498536
335,299,39209,5,2,0:0:0:0:
194,281,39304,1,0,0:0:0:0:
449,219,39399,5,6,0:3:0:0:
335,299,39493,1,0,0:0:0:0:
420,87,39588,6,0,B|453:149|453:149|448:219,1,140,2|0,3:0|0:0,0:0:0:0:
243,103,39778,1,6,3:0:0:0:
477,2,39968,6,0,P|380:-1|320:49,1,167.999994873047,6|0,3:2|0:0,0:0:0:0:
294,205,40252,1,0,0:0:0:0:
209,105,40347,1,0,3:0:0:0:
226,104,40442,1,0,0:0:0:0:
243,103,40537,1,0,3:0:0:0:
353,309,40727,6,0,P|272:322|198:270,1,167.999994873047,8|0,3:0|0:0,0:0:0:0:
202,277,41012,1,0,0:0:0:0:
446,186,41106,5,6,0:3:0:0:
447,202,41201,1,0,0:0:0:0:
448,218,41296,1,4,0:3:0:0:
58,157,41486,5,2,3:0:0:0:
208,123,41581,1,0,0:0:0:0:
58,157,41676,1,0,0:0:0:0:
208,123,41771,1,0,0:0:0:0:
60,330,41865,6,0,P|51:288|56:240,1,83.9999974365235,0|0,3:0|0:0,0:0:0:0:
208,123,42055,2,0,P|216:163|213:205,1,83.9999974365235,0|0,3:0|0:0,0:0:0:0:
39,49,42245,5,8,3:0:0:0:
55,51,42340,1,0,0:0:0:0:
208,123,42435,1,0,0:0:0:0:
192,125,42530,1,0,0:0:0:0:
54,247,42625,2,0,P|123:262|157:253,1,83.9999974365235
384,140,42814,1,4,3:0:0:0:
219,345,43004,6,0,L|396:341,1,167.999994873047,2|0,3:0|0:0,0:0:0:0:
386,341,43289,1,0,0:0:0:0:
135,260,43384,6,0,L|312:256,1,167.999994873047,0|0,3:0|3:0,0:0:0:0:
302,256,43669,1,0,0:0:0:0:
61,170,43763,6,0,L|238:166,1,167.999994873047,8|0,3:0|0:0,0:0:0:0:
228,166,44048,1,0,0:0:0:0:
53,19,44143,5,6,0:3:0:0:
54,35,44237,1,0,0:0:0:0:
55,51,44332,1,4,0:3:0:0:
423,178,44522,5,2,3:0:0:0:
228,166,44617,1,0,0:0:0:0:
512,122,44712,5,0,0:0:0:0:
302,256,44807,1,0,0:0:0:0:
495,40,44902,6,0,P|510:88|510:141,1,83.9999974365235,0|0,3:0|0:0,0:0:0:0:
211,247,45091,2,0,P|214:205|227:165,1,83.9999974365235,0|0,3:0|0:0,0:0:0:0:
512,333,45281,5,8,3:0:0:0:
444,330,45376,1,0,0:0:0:0:
376,327,45471,1,0,3:0:0:0:
264,48,45661,1,0,0:0:0:0:
512,228,45850,1,4,3:0:0:0:
211,247,46040,6,0,P|177:170|180:83,1,167.999994873047,2|0,3:0|0:0,0:0:0:0:
178,87,46325,1,0,0:0:0:0:
359,193,46420,1,0,3:0:0:0:
346,96,46515,1,0,0:0:0:0:
269,156,46610,1,0,3:0:0:0:
496,355,46799,6,0,L|499:249,1,83.9999974365235,8|0,3:0|0:0,0:0:0:0:
269,156,46989,2,0,L|271:239,1,83.9999974365235
485,32,47179,5,6,0:3:0:0:
484,48,47274,1,0,0:0:0:0:
483,64,47369,1,4,0:3:0:0:
25,227,47558,5,2,3:0:0:0:
88,204,47653,1,0,0:0:0:0:
154,213,47748,1,0,0:0:0:0:
211,247,47843,1,0,0:0:0:0:
242,306,47938,5,0,3:0:0:0:
246,281,48033,1,0,0:0:0:0:
326,206,48128,1,0,3:0:0:0:
330,231,48223,1,0,0:0:0:0:
203,126,48317,6,0,P|189:78|193:30,1,83.9999974365235,8|0,3:0|0:0,0:0:0:0:
411,157,48507,2,0,P|423:196|424:238,1,83.9999974365235,0|0,3:0|0:0,0:0:0:0:
35,129,48697,2,0,L|206:125,1,167.999994873047,0|4,0:0|3:0,0:0:0:0:
423,238,49076,6,0,P|331:273|253:242,1,167.999994873047,2|0,3:0|0:0,0:0:0:0:
267,253,49361,1,0,0:0:0:0:
30,293,49456,6,0,P|122:328|200:297,1,167.999994873047,0|0,3:0|3:0,0:0:0:0:
186,308,49741,1,0,0:0:0:0:
261,85,49835,6,0,L|268:271,1,167.999994873047,8|0,3:0|0:0,0:0:0:0:
35,129,50215,1,6,0:3:0:0:
51,126,50310,1,0,0:0:0:0:
67,123,50405,1,4,0:3:0:0:
430,221,50595,5,2,3:0:0:0:
267,252,50689,1,0,0:0:0:0:
449,216,50784,5,0,0:0:0:0:
308,157,50878,1,0,0:0:0:0:
390,374,50974,6,0,P|396:330|388:287,1,83.9999974365235,0|0,3:0|0:0,0:0:0:0:
308,74,51164,2,0,P|301:115|307:156,1,83.9999974365235,0|0,3:0|0:0,0:0:0:0:
68,262,51354,5,8,3:0:0:0:
167,257,51448,1,0,0:0:0:0:
267,252,51543,1,0,3:0:0:0:
0,65,51733,1,0,0:0:0:0:
191,384,51923,1,4,3:0:0:0:
352,48,52113,5,2,3:0:0:0:
109,109,52302,1,0,0:0:0:0:
390,188,52492,1,2,0:0:0:0:
147,249,52681,1,2,3:0:0:0:
500,96,52872,5,10,3:0:0:0:
452,326,53061,1,2,0:0:0:0:
222,278,53251,1,2,0:0:0:0:
270,47,53441,2,0,L|250:147,1,83.9999974365235
97,358,53631,5,2,3:0:0:0:
72,62,53821,1,0,3:0:0:0:
97,358,54010,1,2,0:0:0:0:
72,62,54200,1,2,3:0:0:0:
421,255,54390,5,10,3:0:0:0:
15,200,54580,2,0,L|110:214,1,83.9999974365235,2|0,0:0|0:0,0:0:0:0:
421,255,54769,2,0,L|326:241,1,83.9999974365235,6|0,0:3|0:0,0:0:0:0:
15,200,54959,1,2,0:0:0:0:
414,118,55149,5,2,0:0:0:0:
421,85,55244,1,0,0:0:0:0:
389,78,55339,1,0,0:0:0:0:
382,111,55434,1,0,0:0:0:0:
434,117,55528,5,2,0:0:0:0:
426,67,55623,1,0,0:0:0:0:
377,74,55718,1,0,0:0:0:0:
384,124,55813,1,0,0:0:0:0:
449,109,55908,5,10,3:0:0:0:
422,47,56003,1,0,0:0:0:0:
361,75,56098,1,0,0:0:0:0:
389,137,56193,1,0,0:0:0:0:
462,96,56287,5,2,0:0:0:0:
405,34,56382,1,0,0:0:0:0:
343,91,56477,1,0,0:0:0:0:
400,153,56572,1,0,0:0:0:0:
257,58,56667,6,0,P|208:46|171:48,1,83.9999974365235,0|0,3:0|0:0,0:0:0:0:
255,232,56857,2,0,P|304:244|341:242,1,83.9999974365235
247,49,57046,6,0,P|190:41|149:47,1,83.9999974365235
265,244,57236,2,0,P|321:251|362:245,1,83.9999974365235
62,130,57426,6,0,P|37:190|37:234,1,83.9999974365235
400,153,57616,2,0,P|425:93|425:49,1,83.9999974365235,6|0,0:3|0:0,0:0:0:0:
95,327,57806,5,2,3:0:0:0:
247,49,57900,1,0,0:0:0:0:
285,364,57995,1,6,3:0:0:0:
62,130,58090,1,0,0:0:0:0:
436,227,58185,6,0,L|246:232,1,181.999991668702,6|0,3:2|0:0,0:0:0:0:
509,117,58470,1,0,0:0:0:0:
419,243,58565,6,0,L|229:248,1,181.999991668702,0|0,3:0|3:0,0:0:0:0:
509,117,58849,1,0,0:0:0:0:
407,259,58944,6,0,L|217:264,1,181.999991668702,8|0,3:0|0:0,0:0:0:0:
509,117,59228,1,0,0:0:0:0:
247,49,59324,5,6,0:3:0:0:
265,50,59419,1,0,0:0:0:0:
282,51,59513,1,4,0:3:0:0:
63,149,59703,5,2,3:0:0:0:
62,130,59798,1,0,0:0:0:0:
155,198,59893,1,0,0:0:0:0:
156,179,59988,1,0,0:0:0:0:
43,252,60083,5,0,3:0:0:0:
42,233,60178,1,0,0:0:0:0:
135,301,60273,1,0,3:0:0:0:
136,282,60368,1,0,0:0:0:0:
62,130,60462,6,0,P|51:64|61:17,1,90.9999958343508,8|0,3:0|0:0,0:0:0:0:
228,260,60652,2,0,P|230:305|220:349,1,90.9999958343508,0|0,3:0|0:0,0:0:0:0:
282,51,60842,1,0,0:0:0:0:
42,233,61032,1,4,3:0:0:0:
414,314,61221,6,0,B|428:191|428:191|405:128,1,181.999991668702,2|0,3:0|0:0,0:0:0:0:
408,136,61506,1,0,0:0:0:0:
282,51,61601,6,0,B|262:105|262:105|276:228,1,181.999991668702,0|0,3:0|3:0,0:0:0:0:
276,228,61886,1,0,0:0:0:0:
478,75,61980,6,0,P|420:45|381:48,1,90.9999958343508,8|0,3:0|0:0,0:0:0:0:
193,258,62170,2,0,P|237:252|275:227,1,90.9999958343508
100,133,62360,5,6,0:3:0:0:
81,131,62455,1,0,0:0:0:0:
62,130,62550,1,4,0:3:0:0:
395,45,62739,5,2,3:0:0:0:
431,118,62834,1,0,0:0:0:0:
424,199,62929,1,0,0:0:0:0:
382,269,63024,1,0,0:0:0:0:
309,307,63119,5,0,3:0:0:0:
306,325,63214,1,0,0:0:0:0:
222,341,63309,1,0,3:0:0:0:
219,359,63404,1,0,0:0:0:0:
193,258,63498,5,8,3:0:0:0:
282,51,63688,2,0,P|298:99|298:148,1,90.9999958343508
193,258,63878,2,0,B|105:277|105:227|11:251,1,181.999991668702,0|4,0:0|3:0,0:0:0:0:
481,132,64257,6,0,L|292:139,1,181.999991668702,2|0,3:0|0:0,0:0:0:0:
299,138,64542,1,0,0:0:0:0:
490,300,64637,6,0,L|301:307,1,181.999991668702,0|0,3:0|3:0,0:0:0:0:
308,306,64922,1,0,0:0:0:0:
481,132,65017,6,0,L|292:139,1,181.999991668702,8|0,3:0|0:0,0:0:0:0:
299,138,65302,1,0,0:0:0:0:
490,300,65396,5,6,0:3:0:0:
493,282,65491,1,0,0:0:0:0:
496,264,65586,1,4,0:3:0:0:
102,259,65776,6,0,L|201:257,1,90.9999958343508,2|0,3:0|0:0,0:0:0:0:
398,307,65965,2,0,L|299:305,1,90.9999958343508
117,139,66155,2,0,L|216:137,1,90.9999958343508,0|0,3:0|0:0,0:0:0:0:
413,187,66345,2,0,L|314:185,1,90.9999958343508,0|0,3:0|0:0,0:0:0:0:
102,259,66535,5,8,3:0:0:0:
322,185,66630,1,0,0:0:0:0:
102,259,66724,2,0,L|3:257,1,90.9999958343508,0|0,3:0|0:0,0:0:0:0:
299,12,66914,2,0,P|334:100|320:188,1,181.999991668702,0|4,0:0|3:0,0:0:0:0:
117,139,67199,1,0,0:0:0:0:
322,185,67294,6,0,L|329:372,1,181.999991668702,2|0,3:0|0:0,0:0:0:0:
213,226,67578,1,0,0:0:0:0:
346,195,67673,6,0,L|353:382,1,181.999991668702,0|0,3:0|3:0,0:0:0:0:
213,226,67958,1,0,0:0:0:0:
373,203,68053,6,0,L|380:390,1,181.999991668702,8|0,3:0|0:0,0:0:0:0:
213,226,68337,1,0,0:0:0:0:
453,110,68432,5,6,0:3:0:0:
434,112,68527,1,0,0:0:0:0:
415,114,68622,1,4,0:3:0:0:
213,226,68764,1,0,0:0:0:0:
213,226,68812,6,0,P|265:232|312:218,1,90.9999958343508,2|0,3:0|0:0,0:0:0:0:
157,100,69002,2,0,P|118:124|91:160,1,90.9999958343508
289,113,69191,2,0,P|286:67|267:26,1,90.9999958343508,0|0,3:0|0:0,0:0:0:0:
91,160,69381,2,0,P|72:201|69:246,1,90.9999958343508,0|0,3:0|0:0,0:0:0:0:
362,277,69571,5,8,3:0:0:0:
157,303,69666,1,0,0:0:0:0:
362,277,69761,1,0,3:0:0:0:
157,303,69855,1,0,0:0:0:0:
434,184,69950,6,0,B|461:266|461:266|447:378,1,181.999991668702,0|4,0:0|3:0,0:0:0:0:
91,160,70330,5,2,3:0:0:0:
109,157,70520,1,0,0:0:0:0:
126,154,70709,1,2,0:0:0:0:
144,152,70899,1,2,3:0:0:0:
449,360,71089,5,10,3:0:0:0:
431,357,71279,1,0,0:0:0:0:
414,354,71468,1,2,0:0:0:0:
396,352,71658,2,0,L|489:348,1,90.9999958343508
314,62,71848,5,2,3:0:0:0:
299,226,72038,1,0,0:0:0:0:
314,62,72228,1,2,3:0:0:0:
287,359,72417,1,2,3:0:0:0:
474,164,72607,5,10,3:0:0:0:
129,112,72797,2,0,L|240:128,1,90.9999958343508,2|0,0:0|0:0,0:0:0:0:
474,164,72987,2,0,L|363:148,1,90.9999958343508,6|0,0:3|0:0,0:0:0:0:
129,112,73176,1,2,0:0:0:0:
287,359,73366,5,2,3:0:0:0:
292,341,73461,1,0,0:0:0:0:
294,322,73556,1,0,0:0:0:0:
293,303,73651,1,0,0:0:0:0:
219,124,73746,5,2,0:0:0:0:
218,143,73841,1,0,0:0:0:0:
220,162,73936,1,0,0:0:0:0:
225,180,74031,1,0,0:0:0:0:
396,288,74125,5,10,3:0:0:0:
386,271,74220,1,0,0:0:0:0:
374,257,74315,1,0,0:0:0:0:
360,244,74410,1,0,0:0:0:0:
132,218,74505,5,2,0:0:0:0:
144,232,74600,1,0,0:0:0:0:
159,244,74695,1,0,0:0:0:0:
175,253,74790,1,0,0:0:0:0:
434,148,74884,6,0,L|322:152,2,90.9999958343508,2|0|0,3:0|0:0|0:0,0:0:0:0:
90,313,75264,5,2,0:0:0:0:
43,151,75359,1,0,0:0:0:0:
175,253,75453,1,2,0:0:0:0:
6,248,75548,1,2,0:0:0:0:
146,154,75643,6,0,P|160:83|140:16,1,140,2|4,0:0|0:3,0:0:0:0:
283,60,75928,2,0,L|237:58,1,35
283,60,76023,6,0,B|350:83|430:47|430:47|382:115|386:197|403:263|462:295,1,420,2|0,3:0|0:0,0:0:0:0:
453,289,79699,5,8,3:0:0:0:
287,293,79879,2,0,L|379:291,2,70
180,51,80497,6,0,P|231:120|57:100,1,420.000016021729,2|8,3:0|3:0,0:0:0:0:
140,133,81731,6,0,L|351:128,1,210.000008010865,0|0,0:0|3:0,0:0:0:0:
349,128,82348,1,4,3:0:0:0:
307,330,82554,1,0,0:0:0:0:
426,194,82759,1,4,0:3:0:0:
160,234,82965,1,8,3:0:0:0:
160,234,83377,2,0,P|141:182|141:123,1,105.000004005432,0|0,3:0|0:0,0:0:0:0:
307,330,83788,5,0,3:0:0:0:
65,304,83994,1,4,3:0:0:0:
307,330,84200,1,0,0:0:0:0:
65,304,84405,1,4,0:3:0:0:
313,208,84611,2,0,P|332:156|332:97,1,105.000004005432,8|0,3:0|0:0,0:0:0:0:
160,31,85022,2,0,P|141:79|139:132,1,105.000004005432,0|0,0:0|3:0,0:0:0:0:
307,330,85434,5,0,3:0:0:0:
138,131,85640,1,4,3:3:0:0:
138,131,86051,1,4,0:3:0:0:
392,271,86257,2,0,P|453:277|503:258,1,105.000004005432,8|0,3:0|0:0,0:0:0:0:
239,123,86668,2,0,P|187:115|137:130,1,105.000004005432
388,373,86977,1,0,0:0:0:0:
388,373,87080,6,0,B|392:256|392:256|431:192|431:192|436:49,1,315.000012016297,2|4,3:0|0:3,0:0:0:0:
435,69,87903,1,8,3:0:0:0:
140,218,88314,5,0,3:0:0:0:
219,66,88520,1,0,3:0:0:0:
242,305,88725,1,4,3:0:0:0:
242,305,88931,1,0,3:0:0:0:
120,91,89137,2,0,P|169:66|226:67,1,105.000004005432,0|0,3:0|0:0,0:0:0:0:
359,126,89548,5,8,3:0:0:0:
359,126,89754,2,0,L|362:243,1,105.000004005432
361,230,90063,2,0,L|364:347,1,105.000004005432
363,334,90371,6,0,B|260:376|260:376|56:342,1,315.000012016297,2|4,3:0|3:0,3:0:0:0:
247,249,91194,1,8,3:0:0:0:
247,249,91606,1,0,0:0:0:0:
143,189,91811,1,0,3:0:0:0:
375,83,92017,5,0,3:0:0:0:
360,337,92223,1,4,3:0:0:0:
299,145,92428,1,0,3:0:0:0:
360,337,92634,1,4,0:3:0:0:
467,121,92840,1,8,3:0:0:0:
467,121,93251,2,0,P|483:177|479:224,1,105.000004005432,0|0,3:0|0:0,0:0:0:0:
143,189,93663,5,0,3:0:0:0:
479,223,93868,1,4,3:3:0:0:
479,223,94280,1,4,0:3:0:0:
192,103,94486,2,0,P|125:94|80:110,1,105.000004005432,8|0,3:0|0:0,0:0:0:0:
352,211,94897,1,0,0:0:0:0:
360,17,95103,1,0,3:0:0:0:
184,297,95309,5,0,3:0:0:0:
352,211,95515,1,4,3:0:0:0:
352,211,95926,1,4,0:3:0:0:
116,358,96131,2,0,P|170:383|222:381,1,105.000004005432,8|0,3:0|0:0,0:0:0:0:
450,186,96543,2,0,P|397:187|351:210,1,105.000004005432
57,173,96954,6,0,B|158:220|259:166|259:166|298:211|364:209,1,315.000012016297,2|0,3:0|0:0,0:0:0:0:
151,87,97777,1,8,3:0:0:0:
151,87,98189,1,0,3:0:0:0:
254,60,98394,1,0,3:0:0:0:
57,173,98600,5,4,3:0:0:0:
132,0,98806,1,0,3:0:0:0:
246,273,99012,1,0,3:0:0:0:
166,177,99217,1,0,0:0:0:0:
373,92,99423,5,8,3:0:0:0:
373,92,99629,2,0,P|389:154|382:200,1,105.000004005432
383,193,99937,2,0,P|378:245|393:294,1,105.000004005432
393,294,100246,6,0,B|283:325|295:271|184:298,1,210.000008010865,2|0,3:0|0:0,0:0:0:0:
47,366,100863,1,0,3:0:0:0:
172,195,101069,2,0,P|189:255|185:300,1,105.000004005432,8|0,3:0|0:0,0:0:0:0:
69,118,101480,1,0,0:0:0:0:
183,68,101686,1,0,3:0:0:0:
93,261,101892,5,0,3:0:0:0:
191,47,102072,1,4,3:0:0:0:
245,275,102277,1,0,3:0:0:0:
50,109,102483,1,4,0:3:0:0:
325,220,102689,2,0,P|341:280|332:330,1,105.000004005432,8|0,3:0|0:0,0:0:0:0:
200,148,103100,2,0,P|184:88|193:38,1,105.000004005432,0|0,3:0|0:0,0:0:0:0:
431,306,103512,5,0,3:0:0:0:
463,120,103717,1,0,3:0:0:0:
276,87,103923,1,0,0:0:0:0:
245,275,104129,1,4,0:3:0:0:
463,120,104335,5,8,3:0:0:0:
276,87,104540,1,0,0:0:0:0:
431,306,104746,1,0,0:0:0:0:
245,275,104952,1,0,3:0:0:0:
463,120,105157,5,0,3:0:0:0:
431,306,105363,1,4,3:0:0:0:
276,87,105569,1,0,0:0:0:0:
244,273,105775,1,4,0:3:0:0:
463,120,105980,2,0,P|408:101|360:108,1,105.000004005432,8|0,3:0|0:0,0:0:0:0:
143,285,106392,2,0,P|194:290|243:272,1,105.000004005432
51,59,106803,6,0,B|12:180|12:180|44:372,1,315.000012016297,2|4,3:0|0:3,0:0:0:0:
121,182,107626,1,8,3:0:0:0:
121,182,108038,1,0,0:0:0:0:
261,143,108243,1,0,0:0:0:0:
87,39,108449,5,4,3:0:0:0:
227,0,108655,1,0,3:0:0:0:
37,137,108860,2,0,P|27:199|41:247,1,105.000004005432,0|0,3:0|0:0,0:0:0:0:
127,336,109272,5,8,3:0:0:0:
127,336,109478,2,0,P|191:345|237:331,1,105.000004005432
229,334,109786,2,0,P|279:322|331:332,1,105.000004005432
330,331,110095,6,0,P|279:262|453:282,1,420.000016021729,2|8,3:0|3:0,0:0:0:0:
370,250,111329,6,0,L|159:255,1,210.000008010865,0|0,0:0|3:0,0:0:0:0:
160,254,111946,1,4,3:0:0:0:
205,54,112152,1,0,0:0:0:0:
86,190,112358,1,4,0:3:0:0:
349,148,112563,1,8,3:0:0:0:
349,148,112975,2,0,P|368:200|368:259,1,105.000004005432,0|0,3:0|0:0,0:0:0:0:
205,54,113386,5,0,3:0:0:0:
447,80,113592,1,4,3:0:0:0:
205,54,113798,1,0,0:0:0:0:
447,80,114004,1,4,0:3:0:0:
199,176,114209,2,0,P|180:228|180:287,1,105.000004005432,8|0,3:0|0:0,0:0:0:0:
348,350,114621,2,0,P|367:302|369:249,1,105.000004005432,0|0,0:0|3:0,0:0:0:0:
205,54,115032,5,0,3:0:0:0:
369,249,115238,1,4,3:3:0:0:
369,249,115649,1,4,0:3:0:0:
120,113,115855,2,0,P|59:107|9:126,1,105.000004005432,8|0,3:0|0:0,0:0:0:0:
267,255,116266,2,0,P|319:263|369:248,1,105.000004005432
124,11,116575,1,0,0:0:0:0:
124,11,116678,6,0,B|120:128|120:128|81:192|81:192|76:335,1,315.000012016297,2|4,3:0|0:3,0:0:0:0:
77,315,117501,1,8,3:0:0:0:
372,166,117912,5,0,3:0:0:0:
293,318,118118,1,0,3:0:0:0:
270,79,118324,1,4,3:0:0:0:
270,79,118529,1,0,3:0:0:0:
437,346,118735,6,0,P|374:357|291:316,1,157.500006008148,0|0,3:0|0:0,0:0:0:0:
256,192,119172,12,0,121101,0:0:0:0:
150,114,122087,5,8,3:0:0:0:
397,162,122276,6,0,L|277:166,1,97.9999970092774,2|0,3:0|0:0,0:0:0:0:
59,220,122460,2,0,L|179:224,1,97.9999970092774,2|0,3:0|0:0,0:0:0:0:
427,286,122645,6,0,L|307:290,1,97.9999970092774,2|0,0:0|0:0,0:0:0:0:
89,344,122829,2,0,L|209:348,1,97.9999970092774,2|0,3:0|0:0,0:0:0:0:
397,162,123014,5,10,3:0:0:0:
399,181,123106,1,0,3:0:0:0:
61,201,123199,5,2,0:0:0:0:
59,220,123291,1,0,0:0:0:0:
309,180,123383,5,2,0:0:0:0:
307,199,123476,1,0,0:0:0:0:
153,174,123568,5,2,0:0:0:0:
155,193,123660,1,0,0:0:0:0:
427,286,123752,6,0,P|370:293|317:277,1,97.9999970092774,2|0,3:0|0:0,0:0:0:0:
407,310,123937,2,0,P|349:303|301:276,1,97.9999970092774,2|0,0:0|0:0,0:0:0:0:
186,347,124122,6,0,P|157:297|151:242,1,97.9999970092774,2|0,0:0|0:0,0:0:0:0:
156,337,124307,2,0,P|139:282|145:227,1,97.9999970092774,2|0,0:0|0:0,0:0:0:0:
229,25,124491,5,10,3:0:0:0:
230,44,124583,1,0,0:0:0:0:
123,35,124676,5,2,0:0:0:0:
122,54,124768,1,0,0:0:0:0:
364,171,124860,5,2,0:0:0:0:
363,152,124952,1,0,0:0:0:0:
256,161,125045,5,2,0:0:0:0:
257,142,125137,1,0,0:0:0:0:
141,242,125229,6,0,P|87:253|40:246,1,97.9999970092774,2|0,3:0|0:0,0:0:0:0:
141,242,125414,2,0,P|189:236|237:247,1,97.9999970092774,2|0,0:0|0:0,0:0:0:0:
257,142,125599,6,0,P|211:111|182:73,1,97.9999970092774,2|0,3:0|3:0,3:0:0:0:
257,142,125783,2,0,P|295:172|321:213,1,97.9999970092774,2|0,0:0|0:0,0:0:0:0:
257,342,125968,6,0,P|311:353|358:346,1,97.9999970092774,10|0,3:0|0:0,0:0:0:0:
257,342,126153,2,0,P|209:336|161:347,1,97.9999970092774,2|0,0:0|0:0,0:0:0:0:
141,242,126338,6,0,P|187:211|216:173,1,97.9999970092774,2|0,0:0|0:0,0:0:0:0:
141,242,126523,2,0,P|103:272|77:313,1,97.9999970092774,2|0,0:0|0:0,0:0:0:0:
229,25,126706,5,2,0:0:0:0:
247,31,126799,1,0,0:0:0:0:
266,33,126891,1,2,0:0:0:0:
285,33,126983,1,0,0:0:0:0:
304,31,127076,5,2,0:0:0:0:
291,88,127168,1,0,0:0:0:0:
299,145,127260,1,2,0:0:0:0:
327,196,127352,1,0,0:0:0:0:
378,224,127445,5,10,3:0:0:0:
387,136,127537,1,0,0:0:0:0:
464,235,127629,1,2,0:0:0:0:
473,147,127721,1,0,0:0:0:0:
185,320,127814,6,0,P|128:325|78:313,1,97.9999970092774,2|2,0:0|0:0,0:0:0:0:
304,31,127999,2,0,P|352:22|400:27,1,97.9999970092774,2|2,0:0|0:0,0:0:0:0:
1,211,128183,6,0,L|119:206,1,97.9999970092774,2|0,3:0|0:0,0:0:0:0:
473,147,128368,2,0,L|355:142,1,97.9999970092774,2|0,3:0|0:0,0:0:0:0:
0,122,128552,6,0,L|118:117,1,97.9999970092774,2|0,0:0|0:0,0:0:0:0:
464,235,128737,2,0,L|346:230,1,97.9999970092774,2|0,3:0|0:0,0:0:0:0:
88,316,128922,5,10,3:0:0:0:
366,230,129014,1,0,3:0:0:0:
88,316,129106,2,0,L|206:311,1,97.9999970092774,2|0,0:0|0:0,0:0:0:0:
314,46,129291,5,2,0:0:0:0:
314,46,129383,1,0,0:0:0:0:
314,46,129476,1,2,0:0:0:0:
314,46,129568,1,0,0:0:0:0:
314,46,129660,6,0,L|317:149,1,97.9999970092774,2|0,3:0|0:0,0:0:0:0:
198,46,129845,2,0,L|195:149,1,97.9999970092774,2|0,0:0|0:0,0:0:0:0:
425,133,130029,6,0,L|428:236,1,97.9999970092774,2|0,0:0|0:0,0:0:0:0:
87,133,130214,2,0,L|84:236,1,97.9999970092774,2|0,0:0|0:0,0:0:0:0:
356,328,130399,5,10,3:0:0:0:
84,230,130491,1,0,0:0:0:0:
103,227,130583,1,2,0:0:0:0:
122,225,130676,2,0,L|225:228,1,97.9999970092774,0|2,0:0|0:0,0:0:0:0:
356,328,130860,1,0,0:0:0:0:
337,334,130952,2,0,L|234:337,1,97.9999970092774,2|0,0:0|0:0,0:0:0:0:
425,133,131137,6,0,P|438:188|435:232,1,97.9999970092774,2|0,3:0|0:0,0:0:0:0:
323,194,131322,1,2,0:0:0:0:
325,213,131414,1,0,0:0:0:0:
466,118,131506,6,0,P|483:187|479:241,1,125.999996154785,2|0,3:0|3:0,0:0:0:0:
323,194,131691,1,2,0:0:0:0:
325,213,131783,1,0,0:0:0:0:
87,133,131876,6,0,P|156:120|194:126,1,97.9999970092774,10|0,3:0|0:0,0:0:0:0:
337,334,132060,1,2,0:0:0:0:
146,236,132152,1,0,0:0:0:0:
337,334,132245,2,0,P|385:336|432:324,1,97.9999970092774,2|0,0:0|0:0,0:0:0:0:
279,112,132429,2,0,P|231:110|184:122,1,97.9999970092774,2|0,0:0|0:0,0:0:0:0:
432,206,132614,5,2,3:0:0:0:
434,186,132706,1,0,0:0:0:0:
255,245,132799,5,2,0:0:0:0:
253,225,132891,1,0,0:0:0:0:
508,258,132983,5,2,0:0:0:0:
510,238,133075,1,0,0:0:0:0:
339,205,133168,5,2,0:0:0:0:
337,185,133260,1,0,0:0:0:0:
492,89,133352,6,0,P|441:74|391:82,1,97.9999970092774,10|0,3:0|0:0,0:0:0:0:
160,254,133537,2,0,P|208:259|254:244,1,97.9999970092774,2|0,0:0|0:0,0:0:0:0:
59,12,133722,5,2,0:0:0:0:
20,231,133814,1,2,0:0:0:0:
199,35,133906,1,2,0:0:0:0:
160,254,133998,1,2,0:0:0:0:
59,12,134091,6,0,P|42:61|45:112,1,97.9999970092774,2|0,3:0|0:0,0:0:0:0:
337,185,134276,1,2,3:0:0:0:
335,165,134368,1,0,0:0:0:0:
160,254,134460,2,0,L|268:250,1,97.9999970092774,2|0,0:0|0:0,0:0:0:0:
397,79,134645,2,0,L|289:75,1,97.9999970092774,2|0,3:0|0:0,0:0:0:0:
64,237,134829,5,10,3:0:0:0:
81,140,134922,1,0,3:0:0:0:
177,157,135014,1,2,0:0:0:0:
160,254,135106,1,0,0:0:0:0:
23,66,135199,6,0,P|71:51|126:56,1,97.9999970092774,2|0,0:0|0:0,0:0:0:0:
255,241,135383,2,0,P|207:256|152:251,1,97.9999970092774,2|0,0:0|0:0,0:0:0:0:
385,67,135568,5,2,3:0:0:0:
390,154,135660,1,0,0:0:0:0:
395,241,135752,1,2,0:0:0:0:
400,329,135845,1,0,0:0:0:0:
400,58,135937,5,2,0:0:0:0:
405,145,136029,1,0,0:0:0:0:
410,232,136121,1,2,0:0:0:0:
415,320,136214,1,0,0:0:0:0:
159,253,136306,5,10,3:0:0:0:
286,182,136399,1,0,0:0:0:0:
287,191,136491,1,2,0:0:0:0:
288,200,136583,2,0,L|286:316,1,97.9999970092774,0|2,0:0|0:0,0:0:0:0:
121,161,136768,1,0,0:0:0:0:
116,151,136860,2,0,L|117:53,1,97.9999970092774,2|0,0:0|0:0,0:0:0:0:
405,145,137045,5,2,3:0:0:0:
423,190,137137,1,0,0:0:0:0:
423,238,137229,1,0,0:0:0:0:
406,284,137322,1,0,0:0:0:0:
368,315,137414,5,2,3:0:0:0:
301,301,137506,1,0,3:0:0:0:
231,304,137599,1,2,0:0:0:0:
164,321,137691,1,0,0:0:0:0:
105,356,137783,5,10,3:0:0:0:
46,289,137876,1,0,0:0:0:0:
36,201,137968,1,2,0:0:0:0:
62,117,138060,1,0,0:0:0:0:
120,50,138152,6,0,L|233:44,1,97.9999970092774,2|0,0:0|0:0,0:0:0:0:
405,145,138337,2,0,L|292:139,1,97.9999970092774,2|0,0:0|0:0,0:0:0:0:
46,289,138522,6,0,L|159:283,1,97.9999970092774,2|0,3:0|0:0,0:0:0:0:
268,276,138706,1,2,0:0:0:0:
268,276,138799,1,0,0:0:0:0:
11,130,138891,6,0,L|124:124,1,97.9999970092774,2|0,0:0|0:0,0:0:0:0:
233,117,139075,1,2,0:0:0:0:
233,117,139168,1,0,0:0:0:0:
46,289,139260,6,0,L|159:283,1,97.9999970092774,10|0,3:0|0:0,0:0:0:0:
268,276,139444,1,2,0:0:0:0:
268,276,139537,1,0,0:0:0:0:
11,130,139629,5,2,0:0:0:0:
94,29,139722,1,2,0:0:0:0:
113,200,139814,1,2,0:0:0:0:
90,0,139906,1,2,0:0:0:0:
115,222,139999,6,0,L|212:218,1,97.9999970092774,2|0,3:0|0:0,0:0:0:0:
453,164,140183,2,0,L|355:160,1,97.9999970092774,2|0,3:0|0:0,0:0:0:0:
85,98,140368,6,0,L|182:94,1,97.9999970092774,2|0,0:0|0:0,0:0:0:0:
423,40,140552,2,0,L|325:36,1,97.9999970092774,2|0,3:0|0:0,0:0:0:0:
115,222,140737,5,10,3:0:0:0:
113,203,140829,1,0,3:0:0:0:
451,183,140922,5,2,0:0:0:0:
453,164,141014,1,0,0:0:0:0:
203,204,141106,5,2,0:0:0:0:
205,185,141199,1,0,0:0:0:0:
359,210,141291,5,2,0:0:0:0:
357,191,141383,1,0,0:0:0:0:
85,98,141475,6,0,P|142:91|195:107,1,97.9999970092774,2|0,3:0|0:0,0:0:0:0:
105,74,141660,2,0,P|163:81|211:108,1,97.9999970092774,2|0,0:0|0:0,0:0:0:0:
326,37,141845,6,0,P|355:87|361:142,1,97.9999970092774,2|0,0:0|0:0,0:0:0:0:
356,47,142030,2,0,P|373:102|367:157,1,97.9999970092774,2|0,0:0|0:0,0:0:0:0:
283,359,142214,5,10,3:0:0:0:
282,340,142306,1,0,0:0:0:0:
389,349,142399,5,2,0:0:0:0:
390,330,142491,1,0,0:0:0:0:
148,213,142583,5,2,0:0:0:0:
149,232,142675,1,0,0:0:0:0:
256,223,142768,5,2,0:0:0:0:
255,242,142860,1,0,0:0:0:0:
371,142,142952,6,0,P|425:131|472:138,1,97.9999970092774,2|0,3:0|0:0,0:0:0:0:
371,142,143137,2,0,P|323:148|275:137,1,97.9999970092774,2|0,0:0|0:0,0:0:0:0:
255,242,143322,6,0,P|301:273|330:311,1,97.9999970092774,2|0,3:0|3:0,3:0:0:0:
255,242,143506,2,0,P|217:212|191:171,1,97.9999970092774,2|0,0:0|0:0,0:0:0:0:
255,42,143691,6,0,P|201:31|154:38,1,97.9999970092774,10|0,3:0|0:0,0:0:0:0:
255,42,143876,2,0,P|303:48|351:37,1,97.9999970092774,2|0,0:0|0:0,0:0:0:0:
371,142,144061,6,0,P|325:173|296:211,1,97.9999970092774,2|0,0:0|0:0,0:0:0:0:
371,142,144246,2,0,P|409:112|435:71,1,97.9999970092774,2|0,0:0|0:0,0:0:0:0:
338,342,144429,5,2,3:0:0:0:
321,339,144522,1,0,0:0:0:0:
306,338,144614,1,2,0:0:0:0:
290,336,144706,1,0,0:0:0:0:
164,211,144799,5,2,0:0:0:0:
212,205,144892,1,0,0:0:0:0:
264,199,144984,1,2,0:0:0:0:
316,195,145076,1,0,0:0:0:0:
209,5,145168,5,10,3:0:0:0:
208,34,145260,1,0,0:0:0:0:
418,90,145352,5,2,0:0:0:0:
417,119,145444,1,0,0:0:0:0:
184,369,145537,5,2,0:0:0:0:
209,5,145629,1,2,0:0:0:0:
402,315,145722,1,2,0:0:0:0:
64,178,145814,1,2,0:0:0:0:
418,90,145899,5,0,0:0:0:0:
418,90,147986,6,0,P|344:82|287:109,1,140,0|0,0:2|0:0,0:0:0:0:
184,369,148176,1,8,3:0:0:0:
184,369,148746,6,0,L|183:324,1,35,2|0,0:0|0:0,0:0:0:0:
66,41,148936,6,0,P|48:133|103:242,1,210.000008010865,2|0,3:0|0:0,0:0:0:0:
286,109,149220,1,0,0:0:0:0:
95,235,149315,2,0,L|93:357,1,105.000004005432,0|0,3:0|0:0,0:0:0:0:
286,109,149505,2,0,L|288:-12,1,105.000004005432,0|0,3:0|0:0,0:0:0:0:
184,369,149695,6,0,B|266:302|266:302|380:324,1,210.000008010865,8|0,3:0|0:0,0:0:0:0:
193,170,149979,1,0,0:0:0:0:
462,346,150074,5,6,0:3:0:0:
462,324,150169,1,0,0:0:0:0:
462,302,150264,1,4,0:3:0:0:
286,109,150454,6,0,P|338:92|406:100,1,105.000004005432,2|0,3:0|0:0,0:0:0:0:
196,220,150644,2,0,P|144:237|76:229,1,105.000004005432
387,94,150834,6,0,P|440:106|494:148,1,105.000004005432,0|0,3:0|0:0,0:0:0:0:
94,234,151023,2,0,P|40:221|-13:179,1,105.000004005432,0|0,3:0|0:0,0:0:0:0:
286,109,151213,5,8,3:0:0:0:
293,213,151308,1,0,0:0:0:0:
300,317,151403,1,0,3:0:0:0:
93,233,151593,1,0,0:0:0:0:
390,112,151783,2,0,L|258:107,1,105.000004005432,4|0,0:3|0:0,0:0:0:0:
132,310,151973,6,0,P|45:305|93:233,1,210.000008010865,2|0,3:0|0:0,0:0:0:0:
300,317,152257,1,0,0:0:0:0:
93,233,152352,6,0,P|54:155|141:162,1,210.000008010865,0|0,3:0|3:0,0:0:0:0:
300,317,152637,1,0,0:0:0:0:
238,26,152732,6,0,L|233:161,1,105.000004005432,8|0,3:0|0:0,0:0:0:0:
477,239,152922,2,0,L|482:104,1,105.000004005432
132,310,153111,5,6,0:3:0:0:
152,307,153206,1,0,0:0:0:0:
172,305,153301,1,4,0:3:0:0:
480,134,153428,1,0,0:0:0:0:
480,134,153491,6,0,L|357:146,1,105.000004005432,2|0,3:0|0:0,0:0:0:0:
172,305,153681,2,0,L|295:293,1,105.000004005432
159,86,153871,5,0,3:0:0:0:
157,106,153966,1,0,0:0:0:0:
373,124,154060,5,0,3:0:0:0:
375,144,154155,1,0,0:0:0:0:
60,236,154250,5,8,3:0:0:0:
62,256,154345,1,0,0:0:0:0:
278,274,154439,5,0,3:0:0:0:
276,294,154534,1,0,0:0:0:0:
80,27,154630,5,0,0:0:0:0:
166,376,154820,1,4,0:3:0:0:
450,43,155010,6,0,B|471:149|471:149|437:251,1,210.000008010865,2|0,3:0|0:0,0:0:0:0:
438,245,155294,1,0,0:0:0:0:
166,376,155389,6,0,B|145:270|145:270|179:168,1,210.000008010865,0|0,3:0|3:0,0:0:0:0:
177,173,155673,1,0,0:0:0:0:
483,330,155769,6,0,P|425:337|375:322,1,105.000004005432,8|0,3:0|0:0,0:0:0:0:
122,91,155959,2,0,P|172:78|224:85,1,105.000004005432
54,372,156148,5,6,0:3:0:0:
56,351,156243,1,0,0:0:0:0:
58,330,156338,1,4,0:3:0:0:
444,182,156528,5,2,3:0:0:0:
357,219,156623,1,0,0:0:0:0:
262,209,156718,1,0,0:0:0:0:
175,170,156813,1,0,0:0:0:0:
122,91,156908,5,0,3:0:0:0:
92,120,157002,1,0,0:0:0:0:
77,159,157097,1,0,3:0:0:0:
79,200,157192,1,0,0:0:0:0:
98,237,157287,5,8,3:0:0:0:
262,209,157382,1,0,0:0:0:0:
112,338,157477,5,0,3:0:0:0:
275,309,157572,1,0,0:0:0:0:
98,237,157667,6,0,P|60:130|98:26,1,210.000008010865,0|4,0:0|0:3,0:0:0:0:
471,202,158047,6,0,L|245:209,1,210.000008010865,2|0,3:0|0:0,0:0:0:0:
262,209,158331,1,0,0:0:0:0:
506,356,158426,6,0,L|280:363,1,210.000008010865,0|0,3:0|3:0,0:0:0:0:
297,363,158710,1,0,0:0:0:0:
450,102,158806,6,0,P|472:157|468:213,1,105.000004005432,8|0,3:0|0:0,0:0:0:0:
240,308,158996,2,0,P|240:255|260:208,1,105.000004005432
444,62,159185,5,6,0:3:0:0:
447,82,159280,1,0,0:0:0:0:
450,102,159375,1,4,0:3:0:0:
176,361,159565,5,2,3:0:0:0:
220,7,159660,1,0,0:0:0:0:
393,319,159755,1,0,0:0:0:0:
69,169,159850,1,0,0:0:0:0:
420,101,159945,6,0,L|289:126,1,105.000004005432,2|0,3:0|0:0,0:0:0:0:
91,282,160134,2,0,L|223:258,1,105.000004005432,0|0,3:0|0:0,0:0:0:0:
393,277,160324,6,0,P|282:298|183:254,1,210.000008010865,8|0,3:0|0:0,0:0:0:0:
194,263,160609,1,0,0:0:0:0:
486,45,160704,2,0,L|492:259,1,210.000008010865,0|4,0:0|3:0,0:0:0:0:
220,7,161084,5,2,3:0:0:0:
