osu file format v14

[General]
AudioFilename: audio.mp3
AudioLeadIn: 0
PreviewTime: 3249
Countdown: 0
SampleSet: Soft
StackLeniency: 0.3
Mode: 1
LetterboxInBreaks: 0
WidescreenStoryboard: 0

[Editor]
Bookmarks: 5021,5781,13751,15648,17166,18684,21721,36902,38420,39179,39938,52083,70300,75993,81701,90341,91576,159535
DistanceSpacing: 1
BeatDivisor: 4
GridSize: 4
TimelineZoom: 3.299999

[Metadata]
Title:Imaginary Places
TitleUnicode:Imaginary Places
Artist:Busdriver
ArtistUnicode:Busdriver
Creator:Moreon
Version:DominiGG's bhopping drum
Source:
Tags:phoon NeBu Busdriver Rdzeniu Streams Hatiso Moreon Rap sbsonic Andemu Asrasz LukerMaster Chalwa CptSqBany DominiGG AnySense squirrelpascals Fieryrage tem Squishi Soiplox Script
BeatmapID:1367502
BeatmapSetID:632870

[Difficulty]
HPDrainRate:5.5
CircleSize:4
OverallDifficulty:8
ApproachRate:9
SliderMultiplier:2.2
SliderTickRate:1

[Events]
//Background and Video events
0,0,"BG.jpg",0,0
//Break Periods
2,76413,78474
2,80697,88348
2,146014,146976
//Storyboard Layer 0 (Background)
//Storyboard Layer 1 (Fail)
//Storyboard Layer 2 (Pass)
//Storyboard Layer 3 (Foreground)
//Storyboard Sound Samples

[TimingPoints]
497.668789808917,379.525605095541,4,2,0,65,1,0
3249,-250,4,2,0,65,0,0
3533,-90.9090909090909,4,2,0,65,0,0
4957,-83.3333333333333,4,2,0,65,0,0
6570,-90.9090909090909,4,2,0,65,0,0
8088,-83.3333333333333,4,2,0,65,0,0
9606,-100,4,2,0,65,0,0
11124,-83.3333333333333,4,2,0,65,0,0
12642,-90.9090909090909,4,2,0,65,0,0
14160,-83.3333333333333,4,2,0,65,0,0
15678,-125,4,2,0,65,0,0
16437,-100,4,2,0,65,0,0
16817,-125,4,2,0,65,0,0
17955,-100,4,2,0,65,0,0
18714,-95.2380952380952,4,2,0,65,0,0
19473,-86.9565217391304,4,2,0,65,0,0
20233,-80,4,2,0,65,0,0
20612,-76.9230769230769,4,2,0,65,0,0
20992,-74.0740740740741,4,2,0,65,0,0
21371,-71.4285714285714,4,2,0,65,0,0
21751,-90.9090909090909,4,2,0,65,0,0
23269,-83.3333333333333,4,2,0,65,0,0
24787,-90.9090909090909,4,2,0,65,0,0
26305,-80,4,2,0,65,0,0
27823,-90.9090909090909,4,2,0,65,0,0
28962,-153.846153846153,4,2,0,65,0,0
29341,-83.3333333333333,4,2,0,65,0,0
29341,-111.111111111111,4,2,0,65,0,0
30480,-86.9565217391304,4,2,0,65,0,0
30859,-90.9090909090909,4,2,0,65,0,0
32377,-83.3333333333333,4,2,0,65,0,0
33895,-125,4,2,0,65,0,0
35414,-111.111111111111,4,2,0,65,0,0
36932,-95.2380952380952,4,2,0,65,0,0
37691,-90.9090909090909,4,2,0,65,0,0
39968,-90.9090909090909,4,2,0,65,0,0
41486,-83.3333333333333,4,2,0,65,0,0
43004,-90.9090909090909,4,2,0,65,0,0
44522,-83.3333333333333,4,2,0,65,0,0
46040,-90.9090909090909,4,2,0,65,0,0
47558,-83.3333333333333,4,2,0,65,0,0
49076,-90.9090909090909,4,2,0,65,0,0
50595,-83.3333333333333,4,2,0,65,0,0
51733,-153.846153846153,4,2,0,65,0,0
52113,-111.111111111111,4,2,0,65,0,0
55149,-95.2380952380952,4,2,0,65,0,0
55908,-86.9565217391304,4,2,0,65,0,0
56667,-80,4,2,0,65,0,0
57806,-71.4285714285714,4,2,0,65,0,0
58185,-90.9090909090909,4,2,0,65,0,0
59703,-83.3333333333333,4,2,0,65,0,0
61221,-90.9090909090909,4,2,0,65,0,0
62739,-83.3333333333333,4,2,0,65,0,0
64257,-90.9090909090909,4,2,0,65,0,0
65776,-83.3333333333333,4,2,0,65,0,0
67294,-90.9090909090909,4,2,0,65,0,0
68812,-83.3333333333333,4,2,0,65,0,0
70330,-111.111111111111,4,2,0,65,0,0
73366,-95.2380952380952,4,2,0,65,0,0
74125,-86.9565217391304,4,2,0,65,0,0
74884,-80,4,2,0,65,0,0
75643,-71.4285714285714,4,2,0,65,0,0
76023,-133.333333333333,4,2,0,65,0,0
76213,-333.333333333333,4,2,0,65,0,0
76794,411.444676258992,4,2,0,60,1,0
79674,-250,4,2,0,60,0,0
80497,-200,4,2,0,40,0,0
121847,-250,4,2,0,40,0,0
122276,369.230769230769,4,2,0,60,1,0
122276,-80.6451612903226,4,2,0,75,0,0
145814,-185.185185185185,4,2,0,70,0,0
145899,379.625605095541,4,2,0,10,1,0
148936,-90.9090909090909,4,2,0,65,0,1
150454,-83.3333333333333,4,2,0,65,0,1
151973,-90.9090909090909,4,2,0,65,0,1
153491,-83.3333333333333,4,2,0,65,0,1
155010,-90.9090909090909,4,2,0,65,0,1
156528,-83.3333333333333,4,2,0,65,0,1
158047,-90.9090909090909,4,2,0,65,0,1
159565,-83.3333333333333,4,2,0,65,0,1
160324,-111.111111111111,4,2,0,65,0,1
160704,-200,4,2,0,65,0,1
161107,369.125605095541,4,2,0,40,1,0
161107,-250.000000000001,4,2,0,40,0,0
187459,426.625605095542,4,2,0,20,1,0

[Colours]
Combo1 : 255,192,0
Combo2 : 0,174,174
Combo3 : 41,101,31
Combo4 : 242,24,57

[HitObjects]
208,216,497,5,2,0:0:0:0:
208,216,687,1,0,0:0:0:0:
208,216,782,1,0,0:0:0:0:
208,216,877,1,8,0:0:0:0:
208,216,1066,1,8,0:0:0:0:
208,216,1161,1,0,0:0:0:0:
208,216,1256,1,8,0:0:0:0:
208,216,1446,1,0,0:0:0:0:
208,216,1541,1,0,0:0:0:0:
208,216,1636,1,8,0:0:0:0:
208,216,1826,1,8,0:0:0:0:
208,216,1920,1,0,0:0:0:0:
208,216,2015,1,8,0:0:0:0:
208,216,2205,1,0,0:0:0:0:
208,216,2300,1,0,0:0:0:0:
208,216,2395,1,8,0:0:0:0:
208,216,2585,1,8,0:0:0:0:
208,216,2679,1,0,0:0:0:0:
208,216,2774,1,8,0:0:0:0:
208,216,2964,1,0,0:0:0:0:
208,216,3059,1,0,0:0:0:0:
208,216,3154,1,8,0:0:0:0:
208,216,3344,1,0,0:0:0:0:
208,216,3533,1,12,0:0:0:0:
208,216,3628,1,0,0:0:0:0:
208,216,3723,1,0,0:0:0:0:
208,216,3818,1,0,0:0:0:0:
208,216,3913,1,8,0:0:0:0:
208,216,4103,1,0,0:0:0:0:
208,216,4292,1,0,0:0:0:0:
208,216,4482,1,0,0:0:0:0:
208,216,4577,1,0,0:0:0:0:
208,216,4672,1,2,0:0:0:0:
208,216,4862,1,0,0:0:0:0:
208,216,5051,1,8,0:0:0:0:
208,216,5146,1,0,0:0:0:0:
208,216,5241,1,0,0:0:0:0:
208,216,5336,1,0,0:0:0:0:
208,216,5431,1,8,0:0:0:0:
208,216,5526,1,0,0:0:0:0:
208,216,5621,1,8,0:0:0:0:
208,216,5716,1,0,0:0:0:0:
208,216,5811,1,8,0:0:0:0:
208,216,5905,1,0,0:0:0:0:
208,216,6000,1,0,0:0:0:0:
208,216,6095,1,0,0:0:0:0:
208,216,6190,1,8,0:0:0:0:
208,216,6380,1,0,0:0:0:0:
208,216,6570,1,8,0:0:0:0:
208,216,6759,1,8,0:0:0:0:
208,216,6854,1,0,0:0:0:0:
208,216,6949,1,0,0:0:0:0:
208,216,7044,1,0,0:0:0:0:
208,216,7139,1,8,0:0:0:0:
208,216,7329,1,8,0:0:0:0:
208,216,7518,1,0,0:0:0:0:
208,216,7613,1,0,0:0:0:0:
208,216,7708,1,2,0:0:0:0:
208,216,7898,1,0,0:0:0:0:
208,216,8088,1,8,0:0:0:0:
208,216,8183,1,0,0:0:0:0:
208,216,8277,1,0,0:0:0:0:
208,216,8372,1,0,0:0:0:0:
208,216,8467,1,8,0:0:0:0:
208,216,8562,1,0,0:0:0:0:
208,216,8657,1,8,0:0:0:0:
208,216,8752,1,0,0:0:0:0:
208,216,8847,1,8,0:0:0:0:
208,216,8942,1,0,0:0:0:0:
208,216,9036,1,8,0:0:0:0:
208,216,9131,1,0,0:0:0:0:
208,216,9226,1,0,0:0:0:0:
216,216,9321,1,0,0:0:0:0:
216,216,9416,1,0,0:0:0:0:
216,216,9606,1,0,0:0:0:0:
216,216,9796,1,0,0:0:0:0:
216,216,9890,1,0,0:0:0:0:
216,216,9985,1,8,0:0:0:0:
216,216,10175,1,8,0:0:0:0:
216,216,10270,1,0,0:0:0:0:
216,216,10365,1,8,0:0:0:0:
216,216,10555,1,8,0:0:0:0:
216,216,10649,1,0,0:0:0:0:
216,216,10744,1,2,0:0:0:0:
216,216,10934,1,0,0:0:0:0:
216,216,11124,1,8,0:0:0:0:
216,216,11219,1,0,0:0:0:0:
216,216,11314,1,0,0:0:0:0:
216,216,11409,1,0,0:0:0:0:
216,216,11503,1,8,0:0:0:0:
216,216,11598,1,0,0:0:0:0:
216,216,11693,1,8,0:0:0:0:
216,216,11788,1,0,0:0:0:0:
216,216,11883,1,8,0:0:0:0:
216,216,11978,1,0,0:0:0:0:
216,216,12073,1,0,0:0:0:0:
216,216,12168,1,0,0:0:0:0:
216,216,12262,1,0,0:0:0:0:
216,216,12452,1,0,0:0:0:0:
216,216,12642,1,8,0:0:0:0:
216,216,12832,1,8,0:0:0:0:
216,216,12927,1,0,0:0:0:0:
216,216,13022,1,0,0:0:0:0:
216,216,13211,1,0,0:0:0:0:
216,216,13306,1,8,0:0:0:0:
216,216,13401,1,0,0:0:0:0:
216,216,13591,1,0,0:0:0:0:
216,216,13686,1,0,0:0:0:0:
216,216,13781,1,10,0:0:0:0:
216,216,13970,1,0,0:0:0:0:
216,216,14160,1,8,0:0:0:0:
216,216,14255,1,0,0:0:0:0:
216,216,14350,1,0,0:0:0:0:
216,216,14445,1,0,0:0:0:0:
216,216,14540,1,8,0:0:0:0:
216,216,14634,1,0,0:0:0:0:
216,216,14729,1,8,0:0:0:0:
216,216,14824,1,0,0:0:0:0:
216,216,14919,1,8,0:0:0:0:
216,216,15014,1,0,0:0:0:0:
216,216,15109,1,0,0:0:0:0:
216,216,15204,1,0,0:0:0:0:
216,216,15299,1,0,0:0:0:0:
216,216,15488,1,0,0:0:0:0:
216,216,15678,1,8,0:0:0:0:
216,216,15868,1,0,0:0:0:0:
216,216,16058,1,0,0:0:0:0:
216,216,16247,1,0,0:0:0:0:
216,216,16437,1,2,0:0:0:0:
216,216,16627,1,0,0:0:0:0:
216,216,16817,1,8,0:0:0:0:
216,216,17007,1,8,0:0:0:0:
216,216,17196,1,0,0:0:0:0:
216,216,17386,1,8,0:0:0:0:
216,216,17576,1,0,0:0:0:0:
216,216,17766,1,0,0:0:0:0:
216,216,17955,1,2,0:0:0:0:
216,216,18145,1,8,0:0:0:0:
216,216,18240,1,8,0:0:0:0:
216,216,18335,1,0,0:0:0:0:
216,216,18525,1,0,0:0:0:0:
216,216,18714,1,2,0:0:0:0:
216,216,18809,1,0,0:0:0:0:
216,216,18904,1,0,0:0:0:0:
216,216,18999,1,0,0:0:0:0:
216,216,19094,1,0,0:0:0:0:
216,216,19189,1,0,0:0:0:0:
216,216,19284,1,0,0:0:0:0:
216,216,19379,1,0,0:0:0:0:
216,216,19473,1,8,0:0:0:0:
216,216,19568,1,0,0:0:0:0:
216,216,19663,1,0,0:0:0:0:
216,216,19758,1,0,0:0:0:0:
216,216,19853,1,0,0:0:0:0:
216,216,19948,1,0,0:0:0:0:
216,216,20043,1,0,0:0:0:0:
216,216,20138,1,0,0:0:0:0:
216,216,20233,1,8,0:0:0:0:
216,216,20327,1,0,0:0:0:0:
216,216,20422,1,0,0:0:0:0:
216,216,20517,1,0,0:0:0:0:
216,216,20612,1,2,0:0:0:0:
216,216,20707,1,0,0:0:0:0:
216,216,20802,1,0,0:0:0:0:
216,216,20897,1,0,0:0:0:0:
216,216,20992,1,2,0:0:0:0:
216,216,21086,1,0,0:0:0:0:
216,216,21181,1,0,0:0:0:0:
216,216,21276,1,0,0:0:0:0:
216,216,21371,1,8,0:0:0:0:
216,216,21466,1,0,0:0:0:0:
216,216,21561,1,8,0:0:0:0:
216,216,21656,1,0,0:0:0:0:
216,216,21751,1,12,0:0:0:0:
216,216,21940,1,0,0:0:0:0:
216,216,22035,1,0,0:0:0:0:
216,216,22130,1,8,0:0:0:0:
216,216,22320,1,8,0:0:0:0:
216,216,22510,1,8,0:0:0:0:
216,216,22605,1,0,0:0:0:0:
216,216,22699,1,0,0:0:0:0:
216,216,22794,1,0,0:0:0:0:
216,216,22889,1,2,0:0:0:0:
216,216,23079,1,8,0:0:0:0:
216,216,23269,1,8,0:0:0:0:
216,216,23364,1,0,0:0:0:0:
216,216,23458,1,0,0:0:0:0:
216,216,23553,1,0,0:0:0:0:
216,216,23648,1,8,0:0:0:0:
216,216,23743,1,8,0:0:0:0:
216,216,23838,1,8,0:0:0:0:
216,216,23933,1,0,0:0:0:0:
216,216,24028,1,8,0:0:0:0:
216,216,24123,1,0,0:0:0:0:
216,216,24218,1,8,0:0:0:0:
216,216,24312,1,0,0:0:0:0:
216,216,24407,1,8,0:0:0:0:
216,216,24597,1,8,0:0:0:0:
216,216,24787,1,8,0:0:0:0:
216,216,24977,1,0,0:0:0:0:
216,216,25071,1,0,0:0:0:0:
216,216,25166,1,8,0:0:0:0:
216,216,25261,1,0,0:0:0:0:
216,216,25356,1,0,0:0:0:0:
216,216,25451,1,0,0:0:0:0:
216,216,25546,1,8,0:0:0:0:
216,216,25736,1,0,0:0:0:0:
216,216,25831,1,0,0:0:0:0:
216,216,25925,1,8,0:0:0:0:
216,216,26020,1,2,0:0:0:0:
216,216,26115,1,0,0:0:0:0:
216,216,26305,1,8,0:0:0:0:
216,216,26400,1,0,0:0:0:0:
216,216,26495,1,0,0:0:0:0:
216,216,26590,1,0,0:0:0:0:
216,216,26684,1,8,0:0:0:0:
216,216,26779,1,0,0:0:0:0:
216,216,26874,1,8,0:0:0:0:
216,216,26969,1,0,0:0:0:0:
216,216,27064,1,8,0:0:0:0:
216,216,27159,1,0,0:0:0:0:
216,216,27254,1,8,0:0:0:0:
216,216,27349,1,0,0:0:0:0:
216,216,27443,1,0,0:0:0:0:
216,216,27633,1,8,0:0:0:0:
216,216,27823,1,8,0:0:0:0:
216,216,28013,1,0,0:0:0:0:
216,216,28203,1,8,0:0:0:0:
216,216,28297,1,8,0:0:0:0:
216,216,28392,1,0,0:0:0:0:
216,216,28487,1,0,0:0:0:0:
216,216,28582,1,8,0:0:0:0:
216,216,28772,1,0,0:0:0:0:
216,216,28867,1,0,0:0:0:0:
216,216,28962,1,2,0:0:0:0:
216,216,29151,1,0,0:0:0:0:
216,216,29341,1,8,0:0:0:0:
216,216,29436,1,0,0:0:0:0:
216,216,29531,1,0,0:0:0:0:
216,216,29626,1,0,0:0:0:0:
216,216,29721,1,8,0:0:0:0:
216,216,29816,1,0,0:0:0:0:
216,216,29910,1,8,0:0:0:0:
216,216,30005,1,0,0:0:0:0:
216,216,30100,1,8,0:0:0:0:
216,216,30290,1,8,0:0:0:0:
216,216,30480,1,0,0:0:0:0:
216,216,30575,1,0,0:0:0:0:
216,216,30669,1,8,0:0:0:0:
216,216,30764,1,0,0:0:0:0:
216,216,30859,1,8,0:0:0:0:
216,216,31049,1,0,0:0:0:0:
216,216,31144,1,8,0:0:0:0:
216,216,31239,1,0,0:0:0:0:
216,216,31334,1,0,0:0:0:0:
216,216,31429,1,8,0:0:0:0:
216,216,31523,1,0,0:0:0:0:
216,216,31618,1,8,0:0:0:0:
216,216,31808,1,0,0:0:0:0:
216,216,31903,1,0,0:0:0:0:
216,216,31998,1,2,0:0:0:0:
216,216,32188,1,0,0:0:0:0:
216,216,32377,1,8,0:0:0:0:
216,216,32472,1,0,0:0:0:0:
216,216,32567,1,0,0:0:0:0:
216,216,32662,1,0,0:0:0:0:
216,216,32757,1,8,0:0:0:0:
216,216,32852,1,0,0:0:0:0:
216,216,32947,1,8,0:0:0:0:
216,216,33041,1,0,0:0:0:0:
216,216,33136,1,8,0:0:0:0:
216,216,33231,1,0,0:0:0:0:
216,216,33326,1,0,0:0:0:0:
216,216,33421,1,0,0:0:0:0:
216,216,33516,1,8,0:0:0:0:
216,216,33706,1,8,0:0:0:0:
216,216,33895,1,2,0:0:0:0:
216,216,34085,1,0,0:0:0:0:
216,216,34275,1,8,0:0:0:0:
216,216,34465,1,0,0:0:0:0:
216,216,34654,1,2,0:0:0:0:
216,216,34844,1,0,0:0:0:0:
216,216,35034,1,8,0:0:0:0:
216,216,35129,1,0,0:0:0:0:
216,216,35224,1,8,0:0:0:0:
216,216,35414,1,0,0:0:0:0:
216,216,35603,1,8,0:0:0:0:
216,216,35793,1,0,0:0:0:0:
216,216,35983,1,8,0:0:0:0:
216,216,36173,1,8,0:0:0:0:
216,216,36362,1,0,0:0:0:0:
216,216,36552,1,0,0:0:0:0:
216,216,36647,1,8,0:0:0:0:
216,216,36742,1,0,0:0:0:0:
216,216,36932,1,2,0:0:0:0:
216,216,37027,1,0,0:0:0:0:
216,216,37121,1,0,0:0:0:0:
216,216,37216,1,0,0:0:0:0:
216,216,37311,1,0,0:0:0:0:
216,216,37406,1,0,0:0:0:0:
220,224,37501,1,0,0:0:0:0:
220,224,37596,1,0,0:0:0:0:
220,224,37691,1,8,0:0:0:0:
220,224,37786,1,0,0:0:0:0:
220,224,37880,1,0,0:0:0:0:
220,224,37975,1,0,0:0:0:0:
220,224,38070,1,2,0:0:0:0:
220,224,38165,1,0,0:0:0:0:
220,224,38260,1,0,0:0:0:0:
220,224,38355,1,0,0:0:0:0:
220,224,38450,1,8,0:0:0:0:
220,224,38545,1,0,0:0:0:0:
220,224,38639,1,0,0:0:0:0:
220,224,38734,1,0,0:0:0:0:
220,224,38829,1,0,0:0:0:0:
220,224,38924,1,0,0:0:0:0:
220,224,39019,1,0,0:0:0:0:
220,224,39114,1,0,0:0:0:0:
220,224,39209,1,0,0:0:0:0:
220,224,39304,1,0,0:0:0:0:
220,224,39399,1,0,0:0:0:0:
220,224,39493,1,0,0:0:0:0:
220,224,39588,1,8,0:0:0:0:
220,224,39778,1,8,0:0:0:0:
220,224,39968,1,12,0:0:0:0:
220,224,40158,1,8,0:0:0:0:
220,224,40252,1,0,0:0:0:0:
220,224,40347,1,0,0:0:0:0:
220,224,40442,1,8,0:0:0:0:
220,224,40537,1,0,0:0:0:0:
220,224,40727,1,8,0:0:0:0:
220,224,40917,1,0,0:0:0:0:
220,224,41012,1,0,0:0:0:0:
220,224,41106,1,2,0:0:0:0:
220,224,41296,1,0,0:0:0:0:
220,224,41486,1,8,0:0:0:0:
220,224,41581,1,0,0:0:0:0:
220,224,41676,1,0,0:0:0:0:
220,224,41771,1,0,0:0:0:0:
220,224,41865,1,8,0:0:0:0:
220,224,41960,1,0,0:0:0:0:
220,224,42055,1,8,0:0:0:0:
220,224,42150,1,0,0:0:0:0:
220,224,42245,1,8,0:0:0:0:
220,224,42340,1,0,0:0:0:0:
220,224,42435,1,8,0:0:0:0:
220,224,42530,1,0,0:0:0:0:
220,224,42625,1,0,0:0:0:0:
220,224,42719,1,0,0:0:0:0:
220,224,42814,1,8,0:0:0:0:
220,224,43004,1,8,0:0:0:0:
220,224,43194,1,0,0:0:0:0:
220,224,43289,1,0,0:0:0:0:
220,224,43384,1,8,0:0:0:0:
220,224,43573,1,0,0:0:0:0:
220,224,43668,1,0,0:0:0:0:
220,224,43763,1,8,0:0:0:0:
220,224,43953,1,0,0:0:0:0:
220,224,44048,1,0,0:0:0:0:
220,224,44143,1,2,0:0:0:0:
220,224,44332,1,0,0:0:0:0:
220,224,44522,1,8,0:0:0:0:
220,224,44617,1,0,0:0:0:0:
220,224,44712,1,0,0:0:0:0:
220,224,44807,1,0,0:0:0:0:
220,224,44902,1,8,0:0:0:0:
220,224,44997,1,8,0:0:0:0:
220,224,45091,1,8,0:0:0:0:
220,224,45186,1,0,0:0:0:0:
220,224,45281,1,8,0:0:0:0:
220,224,45376,1,0,0:0:0:0:
220,224,45471,1,8,0:0:0:0:
220,224,45566,1,0,0:0:0:0:
220,224,45661,1,0,0:0:0:0:
220,224,45850,1,0,0:0:0:0:
220,224,46040,1,8,0:0:0:0:
220,224,46230,1,0,0:0:0:0:
220,224,46325,1,0,0:0:0:0:
220,224,46420,1,8,0:0:0:0:
220,224,46610,1,8,0:0:0:0:
220,224,46704,1,0,0:0:0:0:
220,224,46799,1,8,0:0:0:0:
220,224,46989,1,0,0:0:0:0:
220,224,47084,1,0,0:0:0:0:
220,224,47179,1,2,0:0:0:0:
220,224,47369,1,0,0:0:0:0:
220,224,47558,1,8,0:0:0:0:
220,224,47653,1,0,0:0:0:0:
220,224,47748,1,0,0:0:0:0:
220,224,47843,1,0,0:0:0:0:
220,224,47938,1,8,0:0:0:0:
220,224,48033,1,0,0:0:0:0:
220,224,48128,1,8,0:0:0:0:
220,224,48223,1,0,0:0:0:0:
220,224,48317,1,8,0:0:0:0:
220,224,48412,1,0,0:0:0:0:
220,224,48507,1,8,0:0:0:0:
220,224,48602,1,0,0:0:0:0:
220,224,48697,1,0,0:0:0:0:
220,224,48792,1,0,0:0:0:0:
220,224,48887,1,8,0:0:0:0:
220,224,49076,1,8,0:0:0:0:
220,224,49266,1,0,0:0:0:0:
220,224,49361,1,0,0:0:0:0:
220,224,49456,1,8,0:0:0:0:
220,224,49646,1,8,0:0:0:0:
220,224,49741,1,0,0:0:0:0:
220,224,49835,1,8,0:0:0:0:
220,224,50025,1,0,0:0:0:0:
220,224,50120,1,0,0:0:0:0:
220,224,50215,1,2,0:0:0:0:
220,224,50405,1,0,0:0:0:0:
220,224,50595,1,8,0:0:0:0:
220,224,50689,1,0,0:0:0:0:
220,224,50784,1,0,0:0:0:0:
220,224,50879,1,0,0:0:0:0:
220,224,50974,1,8,0:0:0:0:
220,224,51069,1,0,0:0:0:0:
220,224,51164,1,8,0:0:0:0:
220,224,51259,1,0,0:0:0:0:
220,224,51354,1,8,0:0:0:0:
220,224,51448,1,8,0:0:0:0:
220,224,51543,1,8,0:0:0:0:
220,224,51638,1,0,0:0:0:0:
220,224,51733,1,0,0:0:0:0:
220,224,51923,1,8,0:0:0:0:
220,224,52018,1,8,0:0:0:0:
220,224,52113,1,2,0:0:0:0:
220,224,52302,1,0,0:0:0:0:
220,224,52492,1,8,0:0:0:0:
220,224,52682,1,0,0:0:0:0:
220,224,52872,1,2,0:0:0:0:
220,224,53061,1,0,0:0:0:0:
220,224,53251,1,8,0:0:0:0:
220,224,53346,1,8,0:0:0:0:
220,224,53441,1,0,0:0:0:0:
216,228,53536,1,0,0:0:0:0:
216,228,53631,1,8,0:0:0:0:
216,228,53821,1,0,0:0:0:0:
216,228,54010,1,8,0:0:0:0:
216,228,54200,1,8,0:0:0:0:
216,228,54390,1,2,0:0:0:0:
216,228,54580,1,0,0:0:0:0:
216,228,54674,1,8,0:0:0:0:
216,228,54769,1,0,0:0:0:0:
216,228,54864,1,0,0:0:0:0:
216,228,54959,1,0,0:0:0:0:
216,228,55149,1,10,0:0:0:0:
216,228,55244,1,0,0:0:0:0:
216,228,55339,1,0,0:0:0:0:
216,228,55434,1,0,0:0:0:0:
216,228,55528,1,0,0:0:0:0:
216,228,55623,1,0,0:0:0:0:
216,228,55718,1,0,0:0:0:0:
216,228,55813,1,0,0:0:0:0:
216,228,55908,1,8,0:0:0:0:
216,228,56003,1,0,0:0:0:0:
216,228,56098,1,0,0:0:0:0:
216,228,56193,1,0,0:0:0:0:
216,228,56287,1,0,0:0:0:0:
216,228,56382,1,0,0:0:0:0:
216,228,56477,1,0,0:0:0:0:
216,228,56572,1,0,0:0:0:0:
216,228,56667,1,8,0:0:0:0:
216,228,56762,1,0,0:0:0:0:
216,228,56857,1,0,0:0:0:0:
216,228,56952,1,0,0:0:0:0:
216,228,57046,1,0,0:0:0:0:
216,228,57141,1,0,0:0:0:0:
216,228,57236,1,0,0:0:0:0:
216,228,57331,1,0,0:0:0:0:
216,228,57426,1,0,0:0:0:0:
216,228,57521,1,0,0:0:0:0:
216,228,57616,1,0,0:0:0:0:
216,228,57711,1,0,0:0:0:0:
216,228,57806,1,8,0:0:0:0:
216,228,57900,1,8,0:0:0:0:
216,228,57995,1,2,0:0:0:0:
216,228,58090,1,0,0:0:0:0:
216,228,58185,1,4,0:0:0:0:
216,228,58375,1,0,0:0:0:0:
216,228,58470,1,0,0:0:0:0:
216,228,58565,1,8,0:0:0:0:
216,228,58754,1,8,0:0:0:0:
216,228,58944,1,8,0:0:0:0:
216,228,59134,1,0,0:0:0:0:
216,228,59229,1,0,0:0:0:0:
216,228,59324,1,2,0:0:0:0:
216,228,59513,1,0,0:0:0:0:
216,228,59703,1,8,0:0:0:0:
216,228,59798,1,0,0:0:0:0:
216,228,59893,1,0,0:0:0:0:
216,228,59988,1,0,0:0:0:0:
216,228,60083,1,8,0:0:0:0:
216,228,60178,1,0,0:0:0:0:
216,228,60272,1,8,0:0:0:0:
216,228,60367,1,0,0:0:0:0:
216,228,60462,1,8,0:0:0:0:
216,228,60557,1,0,0:0:0:0:
216,228,60652,1,8,0:0:0:0:
216,228,60747,1,0,0:0:0:0:
216,228,60842,1,0,0:0:0:0:
216,228,61032,1,0,0:0:0:0:
216,228,61221,1,8,0:0:0:0:
216,228,61411,1,0,0:0:0:0:
216,228,61506,1,0,0:0:0:0:
216,228,61601,1,8,0:0:0:0:
216,228,61791,1,8,0:0:0:0:
216,228,61885,1,0,0:0:0:0:
216,228,61980,1,8,0:0:0:0:
216,228,62170,1,0,0:0:0:0:
216,228,62265,1,0,0:0:0:0:
216,228,62360,1,2,0:0:0:0:
216,228,62550,1,0,0:0:0:0:
216,228,62739,1,8,0:0:0:0:
216,228,62834,1,0,0:0:0:0:
216,228,62929,1,0,0:0:0:0:
216,228,63024,1,0,0:0:0:0:
216,228,63119,1,8,0:0:0:0:
216,228,63214,1,0,0:0:0:0:
216,228,63309,1,8,0:0:0:0:
216,228,63404,1,0,0:0:0:0:
216,228,63498,1,8,0:0:0:0:
216,228,63593,1,0,0:0:0:0:
216,228,63688,1,8,0:0:0:0:
216,228,63783,1,0,0:0:0:0:
216,228,63878,1,0,0:0:0:0:
216,228,64068,1,8,0:0:0:0:
216,228,64257,1,8,0:0:0:0:
216,228,64447,1,0,0:0:0:0:
216,228,64542,1,0,0:0:0:0:
216,228,64637,1,8,0:0:0:0:
216,228,64827,1,8,0:0:0:0:
216,228,64922,1,0,0:0:0:0:
216,228,65017,1,8,0:0:0:0:
216,228,65206,1,0,0:0:0:0:
216,228,65301,1,0,0:0:0:0:
216,228,65396,1,2,0:0:0:0:
216,228,65586,1,0,0:0:0:0:
216,228,65776,1,8,0:0:0:0:
216,228,65870,1,0,0:0:0:0:
216,228,65965,1,0,0:0:0:0:
216,228,66060,1,0,0:0:0:0:
216,228,66155,1,8,0:0:0:0:
216,228,66250,1,8,0:0:0:0:
216,228,66345,1,8,0:0:0:0:
216,228,66440,1,0,0:0:0:0:
216,228,66535,1,8,0:0:0:0:
216,228,66630,1,0,0:0:0:0:
216,228,66724,1,8,0:0:0:0:
216,228,66819,1,0,0:0:0:0:
216,228,66914,1,0,0:0:0:0:
216,228,67104,1,0,0:0:0:0:
216,228,67199,1,0,0:0:0:0:
216,228,67294,1,8,0:0:0:0:
216,228,67483,1,8,0:0:0:0:
216,228,67578,1,0,0:0:0:0:
216,228,67673,1,8,0:0:0:0:
216,228,67863,1,0,0:0:0:0:
216,228,67958,1,0,0:0:0:0:
216,228,68053,1,8,0:0:0:0:
216,228,68242,1,0,0:0:0:0:
216,228,68337,1,0,0:0:0:0:
216,228,68432,1,2,0:0:0:0:
216,228,68622,1,0,0:0:0:0:
216,228,68812,1,8,0:0:0:0:
216,228,68907,1,0,0:0:0:0:
216,228,69002,1,0,0:0:0:0:
216,228,69096,1,0,0:0:0:0:
216,228,69191,1,8,0:0:0:0:
216,228,69286,1,0,0:0:0:0:
216,228,69381,1,8,0:0:0:0:
216,228,69476,1,0,0:0:0:0:
216,228,69571,1,8,0:0:0:0:
216,228,69666,1,0,0:0:0:0:
216,228,69761,1,8,0:0:0:0:
216,228,69855,1,0,0:0:0:0:
216,228,69950,1,0,0:0:0:0:
216,228,70140,1,0,0:0:0:0:
216,228,70330,1,8,0:0:0:0:
216,228,70520,1,0,0:0:0:0:
216,228,70709,1,8,0:0:0:0:
216,228,70899,1,0,0:0:0:0:
216,228,71089,1,2,0:0:0:0:
216,228,71279,1,0,0:0:0:0:
216,228,71468,1,0,0:0:0:0:
216,228,71658,1,0,0:0:0:0:
216,228,71753,1,0,0:0:0:0:
216,228,71848,1,8,0:0:0:0:
216,228,72038,1,0,0:0:0:0:
216,228,72228,1,0,0:0:0:0:
216,228,72417,1,0,0:0:0:0:
216,228,72607,1,8,0:0:0:0:
216,228,72797,1,0,0:0:0:0:
216,228,72892,1,0,0:0:0:0:
216,228,72987,1,2,0:0:0:0:
216,228,73176,1,0,0:0:0:0:
204,232,73366,1,8,0:0:0:0:
204,232,73461,1,0,0:0:0:0:
204,232,73556,1,0,0:0:0:0:
204,232,73651,1,0,0:0:0:0:
204,232,73746,1,0,0:0:0:0:
204,232,73840,1,0,0:0:0:0:
204,232,73935,1,0,0:0:0:0:
204,232,74030,1,0,0:0:0:0:
204,232,74125,1,8,0:0:0:0:
204,232,74220,1,0,0:0:0:0:
204,232,74315,1,0,0:0:0:0:
204,232,74410,1,0,0:0:0:0:
204,232,74505,1,0,0:0:0:0:
204,232,74600,1,0,0:0:0:0:
204,232,74694,1,0,0:0:0:0:
204,232,74789,1,0,0:0:0:0:
204,232,74884,1,8,0:0:0:0:
204,232,74979,1,0,0:0:0:0:
204,232,75074,1,0,0:0:0:0:
204,232,75169,1,0,0:0:0:0:
204,232,75264,1,0,0:0:0:0:
204,232,75359,1,0,0:0:0:0:
204,232,75453,1,0,0:0:0:0:
204,232,75548,1,0,0:0:0:0:
204,232,75643,1,2,0:0:0:0:
208,236,75738,1,0,0:0:0:0:
208,236,75833,1,0,0:0:0:0:
208,236,75928,1,0,0:0:0:0:
208,236,76023,1,8,0:0:0:0:
208,240,76213,1,8,0:0:0:0:
256,192,79674,5,8,0:0:0:0:
256,192,79879,1,0,0:0:0:0:
256,192,80085,1,0,0:0:0:0:
256,192,80291,1,0,0:0:0:0:
256,192,80497,1,2,0:0:0:0:
164,264,89548,6,0,L|338:100,1,220
184,128,90577,1,0,0:0:0:0:
256,196,90783,1,8,0:0:0:0:
256,196,90988,1,0,0:0:0:0:
256,196,91194,2,0,L|128:168,1,110,2|0,0:0|0:0,0:0:0:0:
256,196,91811,1,0,0:0:0:0:
256,196,92017,1,0,0:0:0:0:
256,196,92223,1,2,0:0:0:0:
256,192,92428,1,0,0:0:0:0:
256,192,92634,1,8,0:0:0:0:
256,196,92840,2,0,L|432:48,1,220
232,116,93868,1,2,0:0:0:0:
232,116,94074,1,0,0:0:0:0:
232,116,94280,1,0,0:0:0:0:
232,116,94486,5,8,0:0:0:0:
232,116,94691,1,0,0:0:0:0:
232,116,94897,1,0,0:0:0:0:
232,116,95103,1,8,0:0:0:0:
232,116,95309,1,0,0:0:0:0:
232,116,95514,5,2,0:0:0:0:
232,116,95720,1,0,0:0:0:0:
232,116,95926,1,2,0:0:0:0:
232,116,96131,1,0,0:0:0:0:
232,116,96337,2,8,L|152:204,1,110
232,116,96954,2,8,L|356:224,1,165
248,160,97777,1,8,0:0:0:0:
248,160,97983,1,0,0:0:0:0:
248,160,98189,1,0,0:0:0:0:
248,160,98394,1,0,0:0:0:0:
248,160,98600,2,0,L|104:244,1,165
240,160,99423,2,0,L|192:80,1,82.5
240,160,99834,2,0,L|272:64,1,82.5
240,160,100246,1,8,0:0:0:0:
240,160,100452,1,0,0:0:0:0:
240,160,100657,1,0,0:0:0:0:
240,160,100863,1,8,0:0:0:0:
240,160,101069,1,2,0:0:0:0:
240,160,101480,1,8,0:0:0:0:
240,160,101686,1,0,0:0:0:0:
240,160,101892,1,0,0:0:0:0:
240,160,102097,1,8,0:0:0:0:
240,160,102303,1,0,0:0:0:0:
240,160,102509,1,2,0:0:0:0:
240,160,102715,1,8,0:0:0:0:
240,160,103126,1,8,0:0:0:0:
240,160,103537,1,8,0:0:0:0:
240,160,103743,1,0,0:0:0:0:
240,160,103949,1,0,0:0:0:0:
240,160,104155,1,0,0:0:0:0:
240,160,104360,1,8,0:0:0:0:
240,160,104566,1,0,0:0:0:0:
240,160,104772,1,0,0:0:0:0:
240,160,104977,1,8,0:0:0:0:
240,160,105183,1,0,0:0:0:0:
240,160,105389,1,2,0:0:0:0:
240,160,105800,1,0,0:0:0:0:
240,160,106006,1,8,0:0:0:0:
244,180,106829,2,0,L|388:100,1,165
244,180,107652,1,8,0:0:0:0:
244,180,107858,1,0,0:0:0:0:
244,180,108063,1,0,0:0:0:0:
244,180,108269,1,0,0:0:0:0:
244,180,108475,1,2,0:0:0:0:
244,180,108680,1,0,0:0:0:0:
244,180,108886,1,0,0:0:0:0:
244,180,109092,1,0,0:0:0:0:
244,180,109298,2,0,L|296:88,1,82.5
244,180,109709,2,0,L|196:104,1,82.5
244,180,110121,1,8,0:0:0:0:
244,180,110326,1,2,0:0:0:0:
244,180,110532,1,0,0:0:0:0:
244,180,110738,1,8,0:0:0:0:
244,180,110943,1,8,0:0:0:0:
244,180,111149,1,0,0:0:0:0:
244,180,111355,1,0,0:0:0:0:
244,180,111561,1,0,0:0:0:0:
244,180,111766,1,8,0:0:0:0:
244,180,111972,1,2,0:0:0:0:
244,180,112178,1,8,0:0:0:0:
244,180,112383,1,0,0:0:0:0:
244,180,112589,1,8,0:0:0:0:
248,184,113001,1,0,0:0:0:0:
240,176,113206,1,0,0:0:0:0:
244,180,113412,1,8,0:0:0:0:
244,180,113618,2,0,L|80:264,1,165
244,180,114441,1,0,0:0:0:0:
244,180,114646,1,0,0:0:0:0:
244,180,114852,1,8,0:0:0:0:
244,180,115058,1,8,0:0:0:0:
244,180,115264,1,2,0:0:0:0:
244,180,115675,1,2,0:0:0:0:
244,180,115881,1,8,0:0:0:0:
244,180,116086,2,8,L|136:108,1,110
244,180,116704,1,8,0:0:0:0:
244,180,117115,1,0,0:0:0:0:
244,180,117321,1,2,0:0:0:0:
244,180,117527,1,8,0:0:0:0:
244,180,117732,1,0,0:0:0:0:
244,180,117938,1,0,0:0:0:0:
244,180,118144,1,0,0:0:0:0:
244,180,118349,1,2,0:0:0:0:
244,180,118555,1,0,0:0:0:0:
244,180,118761,1,0,0:0:0:0:
244,180,118967,1,0,0:0:0:0:
256,192,119172,12,0,120715,0:0:0:0:
252,192,122052,5,8,0:0:0:0:
252,192,122276,1,0,0:0:0:0:
252,192,122368,1,0,0:0:0:0:
252,192,122460,1,0,0:0:0:0:
252,192,122552,1,0,0:0:0:0:
252,192,122645,1,2,0:0:0:0:
256,192,122737,1,0,0:0:0:0:
252,192,122829,1,8,0:0:0:0:
252,192,122922,1,0,0:0:0:0:
252,192,123014,1,8,0:0:0:0:
252,192,123106,1,0,0:0:0:0:
252,192,123199,1,0,0:0:0:0:
252,192,123291,1,0,0:0:0:0:
252,192,123383,1,0,0:0:0:0:
252,192,123476,1,0,0:0:0:0:
256,192,123568,1,0,0:0:0:0:
252,192,123660,1,0,0:0:0:0:
252,192,123752,1,8,0:0:0:0:
252,192,123845,1,0,0:0:0:0:
252,192,123937,1,0,0:0:0:0:
252,192,124029,1,0,0:0:0:0:
252,192,124122,1,2,0:0:0:0:
252,192,124214,1,0,0:0:0:0:
252,192,124306,1,0,0:0:0:0:
256,192,124399,1,0,0:0:0:0:
252,192,124491,1,8,0:0:0:0:
252,192,124583,1,0,0:0:0:0:
252,192,124676,1,0,0:0:0:0:
252,192,124768,1,0,0:0:0:0:
252,192,124860,1,2,0:0:0:0:
252,192,124952,1,0,0:0:0:0:
248,192,125045,1,0,0:0:0:0:
248,192,125137,1,0,0:0:0:0:
248,192,125229,1,8,0:0:0:0:
248,192,125322,1,0,0:0:0:0:
248,192,125414,1,0,0:0:0:0:
248,192,125506,1,0,0:0:0:0:
252,192,125599,1,2,0:0:0:0:
252,192,125691,1,0,0:0:0:0:
252,192,125783,1,0,0:0:0:0:
248,192,125876,1,0,0:0:0:0:
248,192,125968,1,8,0:0:0:0:
248,192,126060,1,0,0:0:0:0:
248,192,126152,1,0,0:0:0:0:
248,192,126245,1,0,0:0:0:0:
248,192,126337,1,0,0:0:0:0:
252,192,126429,1,0,0:0:0:0:
252,192,126522,1,0,0:0:0:0:
252,192,126614,1,0,0:0:0:0:
248,192,126706,1,8,0:0:0:0:
248,192,126799,1,0,0:0:0:0:
248,192,126891,1,0,0:0:0:0:
248,192,126983,1,0,0:0:0:0:
248,192,127076,1,0,0:0:0:0:
248,192,127168,1,0,0:0:0:0:
252,192,127260,1,0,0:0:0:0:
252,192,127352,1,0,0:0:0:0:
252,192,127445,1,8,0:0:0:0:
248,192,127537,1,0,0:0:0:0:
248,192,127629,1,0,0:0:0:0:
248,192,127722,1,0,0:0:0:0:
248,192,127814,1,2,0:0:0:0:
248,192,127906,1,0,0:0:0:0:
248,192,127999,1,0,0:0:0:0:
252,192,128091,1,0,0:0:0:0:
252,192,128183,1,8,0:0:0:0:
252,192,128276,1,0,0:0:0:0:
248,192,128368,1,8,0:0:0:0:
248,192,128460,1,0,0:0:0:0:
248,192,128552,1,2,0:0:0:0:
248,192,128645,1,0,0:0:0:0:
248,192,128737,1,8,0:0:0:0:
248,192,128829,1,0,0:0:0:0:
252,192,128922,1,8,0:0:0:0:
252,192,129014,1,0,0:0:0:0:
252,192,129106,1,0,0:0:0:0:
248,192,129199,1,0,0:0:0:0:
248,192,129291,1,0,0:0:0:0:
248,192,129383,1,0,0:0:0:0:
248,192,129476,1,0,0:0:0:0:
248,192,129568,1,0,0:0:0:0:
248,192,129660,1,8,0:0:0:0:
252,192,129752,1,0,0:0:0:0:
252,192,129845,1,0,0:0:0:0:
252,192,129937,1,0,0:0:0:0:
248,192,130029,1,2,0:0:0:0:
248,192,130122,1,0,0:0:0:0:
248,192,130214,1,0,0:0:0:0:
248,192,130306,1,0,0:0:0:0:
248,192,130399,1,8,0:0:0:0:
248,192,130491,1,0,0:0:0:0:
252,192,130583,1,0,0:0:0:0:
252,192,130676,1,0,0:0:0:0:
252,192,130768,1,0,0:0:0:0:
248,192,130860,1,0,0:0:0:0:
248,192,130952,1,0,0:0:0:0:
248,192,131045,1,0,0:0:0:0:
248,192,131137,1,8,0:0:0:0:
248,192,131229,1,0,0:0:0:0:
248,192,131322,1,0,0:0:0:0:
252,192,131414,1,0,0:0:0:0:
252,192,131506,1,8,0:0:0:0:
252,192,131599,1,2,0:0:0:0:
248,192,131691,1,0,0:0:0:0:
248,192,131783,1,0,0:0:0:0:
248,192,131876,1,8,0:0:0:0:
248,192,131968,1,0,0:0:0:0:
248,192,132060,1,0,0:0:0:0:
248,192,132152,1,0,0:0:0:0:
252,192,132245,1,0,0:0:0:0:
252,192,132337,1,0,0:0:0:0:
252,192,132429,1,0,0:0:0:0:
248,192,132522,1,0,0:0:0:0:
248,192,132614,1,8,0:0:0:0:
248,192,132706,1,0,0:0:0:0:
248,192,132799,1,0,0:0:0:0:
248,192,132891,1,0,0:0:0:0:
248,192,132983,1,2,0:0:0:0:
252,192,133076,1,0,0:0:0:0:
252,192,133168,1,0,0:0:0:0:
252,192,133260,1,0,0:0:0:0:
248,192,133352,1,8,0:0:0:0:
248,192,133445,1,0,0:0:0:0:
248,192,133537,1,0,0:0:0:0:
248,192,133629,1,0,0:0:0:0:
248,192,133722,1,0,0:0:0:0:
248,192,133814,1,0,0:0:0:0:
244,192,133906,1,0,0:0:0:0:
244,192,133999,1,0,0:0:0:0:
244,192,134091,1,8,0:0:0:0:
248,192,134183,1,0,0:0:0:0:
248,192,134276,1,8,0:0:0:0:
248,192,134368,1,0,0:0:0:0:
248,192,134460,1,0,0:0:0:0:
248,192,134552,1,2,0:0:0:0:
248,192,134645,1,0,0:0:0:0:
244,192,134737,1,0,0:0:0:0:
244,192,134829,1,8,0:0:0:0:
244,192,134922,1,2,0:0:0:0:
248,192,135014,1,0,0:0:0:0:
248,192,135106,1,0,0:0:0:0:
248,192,135199,1,0,0:0:0:0:
248,192,135291,1,0,0:0:0:0:
248,192,135383,1,0,0:0:0:0:
248,192,135476,1,0,0:0:0:0:
248,196,135568,1,8,0:0:0:0:
244,192,135660,1,0,0:0:0:0:
244,192,135752,1,0,0:0:0:0:
248,192,135845,1,0,0:0:0:0:
248,192,135937,1,2,0:0:0:0:
248,192,136029,1,0,0:0:0:0:
248,192,136122,1,0,0:0:0:0:
248,192,136214,1,0,0:0:0:0:
248,192,136306,1,8,0:0:0:0:
248,196,136399,1,0,0:0:0:0:
244,192,136491,1,0,0:0:0:0:
244,192,136583,1,0,0:0:0:0:
248,192,136676,1,2,0:0:0:0:
248,192,136768,1,0,0:0:0:0:
248,192,136860,1,0,0:0:0:0:
248,192,136952,1,0,0:0:0:0:
248,192,137045,1,8,0:0:0:0:
248,192,137137,1,0,0:0:0:0:
248,196,137229,1,0,0:0:0:0:
244,192,137322,1,0,0:0:0:0:
244,192,137414,1,8,0:0:0:0:
248,192,137506,1,0,0:0:0:0:
248,192,137599,1,0,0:0:0:0:
248,192,137691,1,0,0:0:0:0:
248,192,137783,1,8,0:0:0:0:
248,192,137876,1,0,0:0:0:0:
248,192,137968,1,0,0:0:0:0:
248,196,138060,1,0,0:0:0:0:
244,192,138152,1,2,0:0:0:0:
244,192,138245,1,0,0:0:0:0:
248,192,138337,1,0,0:0:0:0:
248,192,138429,1,0,0:0:0:0:
248,192,138522,1,8,0:0:0:0:
248,192,138614,1,0,0:0:0:0:
248,192,138706,1,0,0:0:0:0:
248,192,138799,1,0,0:0:0:0:
248,196,138891,1,2,0:0:0:0:
244,192,138983,1,0,0:0:0:0:
244,192,139076,1,0,0:0:0:0:
248,192,139168,1,0,0:0:0:0:
248,192,139260,1,8,0:0:0:0:
248,192,139352,1,0,0:0:0:0:
248,192,139445,1,0,0:0:0:0:
248,192,139537,1,0,0:0:0:0:
248,192,139629,1,0,0:0:0:0:
248,196,139722,1,0,0:0:0:0:
244,192,139814,1,0,0:0:0:0:
244,192,139906,1,0,0:0:0:0:
248,192,139999,1,8,0:0:0:0:
248,192,140091,1,0,0:0:0:0:
248,192,140183,1,8,0:0:0:0:
248,192,140276,1,0,0:0:0:0:
248,192,140368,1,2,0:0:0:0:
248,192,140460,1,0,0:0:0:0:
248,196,140552,1,8,0:0:0:0:
244,192,140645,1,0,0:0:0:0:
244,192,140737,1,8,0:0:0:0:
248,192,140829,1,0,0:0:0:0:
248,192,140922,1,0,0:0:0:0:
248,192,141014,1,0,0:0:0:0:
248,192,141106,1,2,0:0:0:0:
248,192,141199,1,0,0:0:0:0:
248,192,141291,1,0,0:0:0:0:
248,196,141383,1,0,0:0:0:0:
244,192,141476,1,8,0:0:0:0:
244,192,141568,1,0,0:0:0:0:
248,192,141660,1,0,0:0:0:0:
248,192,141752,1,0,0:0:0:0:
248,192,141845,1,2,0:0:0:0:
248,192,141937,1,0,0:0:0:0:
248,192,142029,1,0,0:0:0:0:
248,192,142122,1,0,0:0:0:0:
248,196,142214,1,8,0:0:0:0:
244,192,142306,1,0,0:0:0:0:
244,192,142399,1,0,0:0:0:0:
248,192,142491,1,0,0:0:0:0:
248,192,142583,1,2,0:0:0:0:
248,192,142676,1,0,0:0:0:0:
248,192,142768,1,8,0:0:0:0:
248,192,142860,1,0,0:0:0:0:
248,192,142952,1,8,0:0:0:0:
248,196,143045,1,0,0:0:0:0:
244,192,143137,1,0,0:0:0:0:
244,192,143229,1,0,0:0:0:0:
248,192,143322,1,8,0:0:0:0:
248,192,143414,1,0,0:0:0:0:
248,192,143506,1,0,0:0:0:0:
248,192,143599,1,0,0:0:0:0:
248,192,143691,1,8,0:0:0:0:
248,192,143783,1,0,0:0:0:0:
248,196,143876,1,0,0:0:0:0:
244,192,143968,1,0,0:0:0:0:
244,192,144060,1,0,0:0:0:0:
248,192,144152,1,0,0:0:0:0:
248,192,144245,1,0,0:0:0:0:
248,192,144337,1,0,0:0:0:0:
248,192,144429,1,8,0:0:0:0:
248,192,144522,1,0,0:0:0:0:
248,192,144614,1,0,0:0:0:0:
248,196,144706,1,0,0:0:0:0:
244,192,144799,1,0,0:0:0:0:
244,192,144891,1,0,0:0:0:0:
248,192,144983,1,0,0:0:0:0:
248,192,145076,1,0,0:0:0:0:
248,192,145168,1,8,0:0:0:0:
248,192,145260,1,0,0:0:0:0:
248,192,145352,1,0,0:0:0:0:
248,192,145445,1,0,0:0:0:0:
248,196,145537,1,10,0:0:0:0:
244,192,145629,1,2,0:0:0:0:
244,192,145722,1,0,0:0:0:0:
248,192,145814,1,2,0:0:0:0:
252,192,148176,5,8,0:0:0:0:
256,188,148556,5,8,0:0:0:0:
252,196,148936,1,12,0:0:0:0:
252,196,149125,1,0,0:0:0:0:
252,196,149220,1,0,0:0:0:0:
252,196,149315,1,8,0:0:0:0:
252,196,149505,1,0,0:0:0:0:
252,196,149695,1,8,0:0:0:0:
252,196,149790,1,0,0:0:0:0:
252,196,149885,1,0,0:0:0:0:
252,196,149979,1,0,0:0:0:0:
252,196,150074,1,2,0:0:0:0:
252,196,150264,1,0,0:0:0:0:
252,196,150454,1,8,0:0:0:0:
252,196,150549,1,0,0:0:0:0:
252,196,150644,1,0,0:0:0:0:
252,196,150739,1,0,0:0:0:0:
252,196,150834,1,8,0:0:0:0:
252,196,150929,1,0,0:0:0:0:
252,196,151023,1,8,0:0:0:0:
252,196,151118,1,0,0:0:0:0:
252,196,151213,1,8,0:0:0:0:
252,196,151308,1,0,0:0:0:0:
252,196,151403,1,8,0:0:0:0:
252,196,151498,1,0,0:0:0:0:
252,196,151593,1,0,0:0:0:0:
252,196,151783,1,0,0:0:0:0:
252,196,151973,1,8,0:0:0:0:
252,196,152162,1,8,0:0:0:0:
252,196,152257,1,0,0:0:0:0:
252,196,152352,1,8,0:0:0:0:
252,196,152542,1,0,0:0:0:0:
252,196,152732,1,8,0:0:0:0:
252,196,152827,1,0,0:0:0:0:
252,196,152922,1,0,0:0:0:0:
252,196,153016,1,0,0:0:0:0:
252,196,153111,1,2,0:0:0:0:
252,196,153301,1,0,0:0:0:0:
252,196,153491,1,8,0:0:0:0:
252,196,153586,1,0,0:0:0:0:
252,196,153681,1,0,0:0:0:0:
252,196,153776,1,0,0:0:0:0:
252,196,153871,1,8,0:0:0:0:
252,196,153966,1,0,0:0:0:0:
252,196,154060,1,8,0:0:0:0:
252,196,154155,1,0,0:0:0:0:
252,196,154250,1,8,0:0:0:0:
252,196,154345,1,0,0:0:0:0:
252,196,154440,1,8,0:0:0:0:
252,196,154535,1,0,0:0:0:0:
252,196,154630,1,0,0:0:0:0:
252,196,154820,1,0,0:0:0:0:
252,196,155010,1,8,0:0:0:0:
252,196,155199,1,0,0:0:0:0:
252,196,155294,1,0,0:0:0:0:
252,196,155389,1,8,0:0:0:0:
252,196,155579,1,0,0:0:0:0:
252,196,155769,1,8,0:0:0:0:
252,196,155864,1,0,0:0:0:0:
252,196,155959,1,0,0:0:0:0:
252,196,156053,1,0,0:0:0:0:
252,196,156148,1,2,0:0:0:0:
252,196,156338,1,0,0:0:0:0:
252,196,156528,1,8,0:0:0:0:
252,196,156623,1,0,0:0:0:0:
252,196,156718,1,0,0:0:0:0:
252,196,156813,1,0,0:0:0:0:
252,196,156908,1,8,0:0:0:0:
252,196,157003,1,0,0:0:0:0:
252,196,157097,1,8,0:0:0:0:
252,196,157192,1,0,0:0:0:0:
252,196,157287,1,8,0:0:0:0:
252,196,157382,1,0,0:0:0:0:
252,196,157477,1,8,0:0:0:0:
252,196,157572,1,0,0:0:0:0:
252,196,157667,1,0,0:0:0:0:
252,196,157857,1,0,0:0:0:0:
252,196,158047,1,8,0:0:0:0:
252,196,158236,1,0,0:0:0:0:
252,196,158331,1,8,0:0:0:0:
252,196,158426,1,8,0:0:0:0:
252,196,158616,1,0,0:0:0:0:
252,196,158806,1,8,0:0:0:0:
252,196,158901,1,0,0:0:0:0:
252,196,158996,1,0,0:0:0:0:
252,196,159090,1,0,0:0:0:0:
252,196,159185,1,2,0:0:0:0:
252,196,159375,1,0,0:0:0:0:
252,196,159565,1,8,0:0:0:0:
252,196,159660,1,0,0:0:0:0:
252,196,159755,1,8,0:0:0:0:
252,196,159850,1,8,0:0:0:0:
252,196,159945,1,0,0:0:0:0:
252,196,160040,1,0,0:0:0:0:
256,200,160134,1,8,0:0:0:0:
256,200,160229,1,0,0:0:0:0:
252,196,160324,1,8,0:0:0:0:
252,196,160514,1,0,0:0:0:0:
256,200,160704,2,8,L|300:132,1,55
196,276,161084,1,4,0:0:0:0:
