osu file format v14

[General]
AudioFilename: audio.mp3
AudioLeadIn: 0
PreviewTime: 3249
Countdown: 0
SampleSet: Normal
StackLeniency: 0.7
Mode: 2
LetterboxInBreaks: 0
WidescreenStoryboard: 0

[Editor]
DistanceSpacing: 3.8
BeatDivisor: 4
GridSize: 4
TimelineZoom: 4.379998

[Metadata]
Title:Imaginary Places
TitleUnicode:Imaginary Places
Artist:Busdriver
ArtistUnicode:Busdriver
Creator:Moreon
Version:Asrasz's Cup
Source:
Tags:phoon NeBu Busdriver Rdzeniu Streams Hatiso Moreon Rap sbsonic Andemu Asrasz LukerMaster Chalwa CptSqBany DominiGG AnySense squirrelpascals Fieryrage tem Squishi Soiplox Script
BeatmapID:1343290
BeatmapSetID:632870

[Difficulty]
HPDrainRate:6.5
CircleSize:3
OverallDifficulty:9.4
ApproachRate:9.4
SliderMultiplier:2
SliderTickRate:2

[Events]
//Background and Video events
0,0,"BG.jpg",0,0
//Break Periods
//Storyboard Layer 0 (Background)
//Storyboard Layer 1 (Fail)
//Storyboard Layer 2 (Pass)
//Storyboard Layer 3 (Foreground)
//Storyboard Sound Samples

[TimingPoints]
497.668789808917,379.525605095541,4,1,0,66,1,0
699,-50,4,1,0,66,0,0
3154,-50,4,1,0,70,0,0
34180,-66.6666666666667,4,1,0,70,0,0
34560,-100,4,1,0,70,0,0
35224,-50,4,1,0,70,0,0
36837,-133.333333333333,4,1,0,70,0,0
37596,-66.6666666666667,4,1,0,70,0,0
38545,-50,4,1,0,70,0,0
75928,-100,4,1,0,70,0,0
76794,411.444676258992,4,1,0,60,1,0
80291,-100,4,1,0,60,0,0
88623,-100,4,1,0,60,0,0
89754,-100,4,1,0,60,0,0
90268,-100,4,1,0,60,0,0
92531,-100,4,1,0,60,0,0
99320,-100,4,1,0,60,0,0
100349,-100,4,1,0,60,0,0
102406,-100,4,1,0,60,0,0
104772,-100,4,1,0,60,0,0
116601,-100,4,1,0,60,0,0
118864,-100,4,1,0,60,0,0
122276,369.230769230769,4,1,0,80,1,1
128091,-100,4,1,0,80,0,1
129660,-100,4,1,0,80,0,1
130761,-100,4,1,0,80,0,1
136676,-100,4,1,0,80,0,1
138522,-100,4,1,0,80,0,1
145899,379.625605095541,4,1,0,80,1,1
145993,-66.6666666666667,4,1,0,20,0,1
146373,-66.6666666666667,4,1,0,25,0,1
146753,-66.6666666666667,4,1,0,35,0,1
147132,-66.6666666666667,4,1,0,50,0,1
147512,-66.6666666666667,4,1,0,65,0,1
147892,-66.6666666666667,4,1,0,80,0,1
148271,-66.6666666666667,4,1,0,85,0,1
149030,-66.6666666666667,4,1,0,85,0,1
161107,369.125605095541,4,1,0,70,1,0
161107,-100,4,1,0,70,0,0
185007,-100,4,1,0,70,0,0
187459,426.625605095542,4,1,0,60,1,0
193538,-100,4,1,0,5,0,0

[HitObjects]
256,192,118861,12,0,122049,0:0:0:0:
396,204,122273,6,0,L|476:204,2,50
344,204,122549,1,0,0:0:0:0:
108,192,122642,2,0,L|28:192,2,50
160,192,122919,1,0,0:0:0:0:
348,180,123011,5,0,0:0:0:0:
386,151,123103,1,0,0:0:0:0:
385,103,123195,1,0,0:0:0:0:
344,77,123287,1,0,0:0:0:0:
152,68,123381,1,0,0:0:0:0:
113,96,123473,1,0,0:0:0:0:
114,144,123565,1,0,0:0:0:0:
155,170,123657,1,0,0:0:0:0:
348,228,123749,6,0,L|272:232,1,50
108,232,123934,2,0,L|28:232,1,50
352,264,124119,2,0,L|360:348,1,50
168,292,124303,2,0,L|168:368,1,50
384,288,124488,6,0,L|392:372,1,50
200,316,124673,2,0,L|200:392,1,50
412,352,124857,1,0,0:0:0:0:
462,353,124949,1,0,0:0:0:0:
512,355,125041,1,0,0:0:0:0:
462,353,125134,1,0,0:0:0:0:
196,356,125226,6,0,L|128:356,1,50
328,324,125411,2,0,L|396:324,1,50
136,304,125596,2,0,L|68:304,1,50
384,256,125781,2,0,L|452:256,1,50
80,256,125965,5,0,0:0:0:0:
37,236,126057,1,0,0:0:0:0:
41,189,126149,1,0,0:0:0:0:
86,178,126241,1,0,0:0:0:0:
272,180,126334,2,0,L|344:176,1,50
136,152,126519,2,0,L|68:156,1,50
368,212,126704,5,0,0:0:0:0:
411,192,126796,1,0,0:0:0:0:
407,145,126888,1,0,0:0:0:0:
362,134,126981,1,0,0:0:0:0:
172,120,127073,2,0,L|168:52,1,50
360,72,127257,2,0,L|364:8,1,50
172,16,127442,5,0,0:0:0:0:
147,19,127488,1,0,0:0:0:0:
127,33,127534,1,0,0:0:0:0:
117,56,127580,1,0,0:0:0:0:
120,81,127626,1,0,0:0:0:0:
135,100,127672,1,0,0:0:0:0:
158,110,127718,1,0,0:0:0:0:
183,107,127765,1,0,0:0:0:0:
352,132,127811,6,0,L|416:132,1,50
168,192,127996,2,0,L|92:196,1,50
432,232,128180,6,0,L|436:308,1,50
244,280,128365,2,0,L|244:348,1,50
56,328,128549,2,0,L|56:400,1,50
248,380,128734,2,0,L|316:380,1,50
52,376,128919,6,0,L|-24:376,1,50
312,360,129103,2,0,L|392:352,1,50
112,340,129288,2,0,L|24:344,1,50
376,328,129473,2,0,L|380:268,1,50
192,244,129657,5,0,0:0:0:0:
149,223,129749,1,0,0:0:0:0:
149,176,129841,1,0,0:0:0:0:
192,156,129933,1,0,0:0:0:0:
416,168,130027,1,0,0:0:0:0:
458,147,130119,1,0,0:0:0:0:
458,100,130211,1,0,0:0:0:0:
415,80,130304,1,0,0:0:0:0:
180,136,130396,5,0,0:0:0:0:
155,132,130442,1,0,0:0:0:0:
135,117,130488,1,0,0:0:0:0:
126,95,130534,1,0,0:0:0:0:
128,70,130580,1,0,0:0:0:0:
143,50,130626,1,0,0:0:0:0:
166,40,130672,1,0,0:0:0:0:
190,43,130719,1,0,0:0:0:0:
380,36,130765,6,0,L|444:36,2,50
192,40,131042,1,0,0:0:0:0:
380,84,131134,6,0,L|384:152,1,50
200,184,131319,2,0,L|196:108,1,50
468,104,131503,2,0,L|472:176,1,50
124,264,131688,2,0,L|120:200,1,50
280,192,131873,6,0,L|412:180,1,100
324,152,132149,1,0,0:0:0:0:
132,164,132242,2,0,L|48:160,1,50
272,144,132426,2,0,L|336:144,1,50
64,200,132611,5,0,0:0:0:0:
20,216,132703,1,0,0:0:0:0:
24,262,132795,1,0,0:0:0:0:
70,271,132887,1,0,0:0:0:0:
260,284,132980,2,0,L|344:280,1,50
120,256,133165,2,0,L|32:260,1,50
320,232,133349,5,0,0:0:0:0:
512,216,133442,1,0,0:0:0:0:
320,204,133534,1,0,0:0:0:0:
128,192,133626,1,0,0:0:0:0:
320,180,133719,1,0,0:0:0:0:
508,172,133811,1,0,0:0:0:0:
320,152,133903,1,0,0:0:0:0:
128,144,133996,1,0,0:0:0:0:
320,120,134088,5,0,0:0:0:0:
369,116,134180,1,0,0:0:0:0:
419,113,134272,1,0,0:0:0:0:
364,100,134365,1,0,0:0:0:0:
176,96,134457,5,0,0:0:0:0:
176,88,134480,5,0,0:0:0:0:
127,92,134550,1,0,0:0:0:0:
128,84,134573,1,0,0:0:0:0:
77,89,134642,1,0,0:0:0:0:
76,80,134665,1,0,0:0:0:0:
132,76,134734,1,0,0:0:0:0:
132,72,134757,1,0,0:0:0:0:
364,40,134826,5,0,0:0:0:0:
364,48,134849,5,0,0:0:0:0:
407,50,134918,1,0,0:0:0:0:
408,56,134942,1,0,0:0:0:0:
411,98,135010,1,0,0:0:0:0:
412,108,135034,1,0,0:0:0:0:
371,123,135102,1,0,0:0:0:0:
372,132,135126,1,0,0:0:0:0:
192,196,135196,6,0,L|132:196,1,50
356,204,135380,2,0,L|432:208,1,50
128,248,135565,5,0,0:0:0:0:
84,265,135657,1,0,0:0:0:0:
81,313,135749,1,0,0:0:0:0:
123,334,135841,1,0,0:0:0:0:
344,344,135934,2,0,L|340:252,1,50
128,344,136118,2,0,L|132:252,1,50
392,312,136303,6,0,L|388:220,1,50
80,300,136488,2,0,L|84:208,1,50
272,224,136673,2,0,L|360:224,2,50
216,224,136949,1,0,0:0:0:0:
392,160,137042,5,0,0:0:0:0:
419,200,137134,1,0,0:0:0:0:
420,249,137226,1,0,0:0:0:0:
394,291,137318,1,0,0:0:0:0:
164,160,137411,1,0,0:0:0:0:
137,200,137504,1,0,0:0:0:0:
136,249,137596,1,0,0:0:0:0:
162,291,137688,1,0,0:0:0:0:
384,140,137780,6,0,L|456:140,1,50
176,124,137965,2,0,L|112:128,1,50
448,192,138149,2,0,L|452:264,1,50
120,200,138334,2,0,L|120:284,1,50
304,296,138519,5,0,0:0:0:0:
346,275,138611,1,0,0:0:0:0:
341,228,138703,1,0,0:0:0:0:
296,216,138795,1,0,0:0:0:0:
96,212,138888,1,0,0:0:0:0:
53,191,138981,1,0,0:0:0:0:
58,144,139073,1,0,0:0:0:0:
103,132,139165,1,0,0:0:0:0:
292,128,139257,5,0,0:0:0:0:
341,126,139349,1,0,0:0:0:0:
391,124,139441,1,0,0:0:0:0:
336,116,139534,1,0,0:0:0:0:
88,92,139626,2,0,L|24:88,1,50
344,80,139811,2,0,L|408:76,1,50
168,144,139996,5,0,0:0:0:0:
165,193,140088,1,0,0:0:0:0:
162,243,140180,1,0,0:0:0:0:
216,252,140273,1,0,0:0:0:0:
408,228,140365,1,0,0:0:0:0:
410,277,140457,1,0,0:0:0:0:
413,327,140550,1,0,0:0:0:0:
360,336,140642,1,0,0:0:0:0:
172,340,140734,6,0,L|112:344,1,50
364,356,140919,2,0,L|448:352,1,50
96,276,141103,2,0,L|20:280,1,50
413,327,141288,2,0,L|480:320,1,50
220,264,141473,6,0,L|212:204,1,50
264,192,141657,2,0,L|344:188,1,50
124,164,141842,2,0,L|36:168,1,50
336,104,142026,2,0,L|336:48,1,50
56,88,142211,5,0,0:0:0:0:
31,47,142303,1,0,0:0:0:0:
56,7,142395,1,0,0:0:0:0:
103,12,142487,1,0,0:0:0:0:
384,160,142581,1,0,0:0:0:0:
408,119,142673,1,0,0:0:0:0:
383,79,142765,1,0,0:0:0:0:
336,84,142857,1,0,0:0:0:0:
164,188,142949,6,0,L|168:120,1,50
400,224,143134,2,0,L|404:360,1,100
144,332,143411,1,0,0:0:0:0:
400,348,143503,2,0,L|496:352,1,50
128,344,143688,6,0,L|60:344,1,50
268,332,143873,2,0,L|352:332,1,50
56,272,144057,2,0,L|-16:272,1,50
336,264,144242,2,0,L|336:188,1,50
136,184,144426,5,0,0:0:0:0:
92,168,144518,1,0,0:0:0:0:
100,122,144610,1,0,0:0:0:0:
146,122,144702,1,0,0:0:0:0:
340,116,144796,2,0,L|424:120,1,50
148,68,144980,2,0,L|68:64,1,50
476,68,145168,1,0,0:0:0:0:
494,113,145260,1,0,0:0:0:0:
479,159,145352,1,0,0:0:0:0:
438,186,145444,1,0,0:0:0:0:
176,152,145534,1,0,0:0:0:0:
174,201,145627,1,0,0:0:0:0:
172,251,145719,1,0,0:0:0:0:
468,276,145804,1,0,0:0:0:0:
120,144,145896,5,0,0:0:0:0:
288,148,146275,1,0,0:0:0:0:
288,140,146299,1,0,0:0:0:0:
128,132,146655,5,0,0:0:0:0:
296,120,147035,1,0,0:0:0:0:
296,112,147059,1,0,0:0:0:0:
136,100,147414,1,0,0:0:0:0:
136,100,147438,1,0,0:0:0:0:
308,92,147794,5,0,0:0:0:0:
308,92,147817,5,0,0:0:0:0:
308,92,147841,5,0,0:0:0:0:
308,92,147865,5,0,0:0:0:0:
100,80,148173,5,0,0:0:0:0:
100,80,148197,5,0,0:0:0:0:
100,80,148221,5,0,0:0:0:0:
100,80,148244,5,0,0:0:0:0:
312,132,148553,5,0,0:0:0:0:
312,132,148554,5,0,0:0:0:0:
312,132,148554,5,0,0:0:0:0:
312,132,148554,5,0,0:0:0:0:
312,132,148554,5,0,0:0:0:0:
312,132,148554,5,0,0:0:0:0:
312,132,148554,5,0,0:0:0:0:
312,132,148554,5,0,0:0:0:0:
312,132,148554,5,0,0:0:0:0:
312,132,148554,5,0,0:0:0:0:
312,132,148554,5,0,0:0:0:0:
312,132,148554,5,0,0:0:0:0:
112,168,148743,5,0,0:0:0:0:
74,189,148790,1,0,0:0:0:0:
77,232,148837,1,0,0:0:0:0:
116,248,148885,1,0,0:0:0:0:
280,264,148933,6,0,L|356:268,2,75.0000028610231
108,280,149218,2,0,L|32:284,2,75.0000028610231
276,284,149502,2,0,L|364:284,1,75.0000028610231
92,192,149692,6,0,L|0:200,1,75.0000028610231
348,368,149882,2,0,L|448:372,1,75.0000028610231
8,116,150071,1,0,0:0:0:0:
260,116,150451,5,0,0:0:0:0:
148,112,150546,1,0,0:0:0:0:
268,108,150642,1,0,0:0:0:0:
156,104,150737,1,0,0:0:0:0:
280,100,150830,1,0,0:0:0:0:
168,96,150925,1,0,0:0:0:0:
292,92,151021,1,0,0:0:0:0:
180,88,151116,1,0,0:0:0:0:
400,88,151210,6,0,L|408:224,1,131.25000500679
164,144,151400,2,0,L|156:280,1,131.25000500679
380,320,151590,2,0,L|472:324,2,75.0000028610231
312,316,151875,1,0,0:0:0:0:
128,320,151970,5,0,0:0:0:0:
65,288,152064,1,0,0:0:0:0:
80,220,152159,1,0,0:0:0:0:
149,218,152254,1,0,0:0:0:0:
432,216,152350,1,0,0:0:0:0:
494,184,152445,1,0,0:0:0:0:
479,116,152540,1,0,0:0:0:0:
410,114,152635,1,0,0:0:0:0:
144,144,152729,6,0,L|132:0,1,131.25000500679
376,132,152919,2,0,L|388:-12,1,131.25000500679
112,8,153108,2,0,P|48:56|172:144,1,281.250010728837
368,160,153488,5,0,0:0:0:0:
436,169,153582,1,0,0:0:0:0:
442,238,153677,1,0,0:0:0:0:
376,258,153772,1,0,0:0:0:0:
208,264,153869,1,0,0:0:0:0:
312,264,153963,1,0,0:0:0:0:
196,272,154058,1,0,0:0:0:0:
300,272,154153,1,0,0:0:0:0:
184,280,154248,5,0,0:0:0:0:
288,280,154343,1,0,0:0:0:0:
176,288,154438,1,0,0:0:0:0:
280,288,154533,1,0,0:0:0:0:
168,296,154628,1,0,0:0:0:0:
272,296,154723,1,0,0:0:0:0:
164,304,154818,1,0,0:0:0:0:
268,304,154913,1,0,0:0:0:0:
76,324,155007,6,0,L|64:184,1,112.500004291535
264,176,155196,2,0,L|400:168,1,112.500004291535
140,128,155386,2,0,L|24:136,1,112.500004291535
372,92,155576,2,0,P|436:72|448:12,1,112.500004291535
148,40,155766,6,0,L|40:44,2,75.0000028610231
216,40,156050,1,0,0:0:0:0:
432,36,156145,2,0,P|452:120|312:136,1,262.500010013581
64,140,156525,6,0,L|64:220,1,75.0000028610231
288,196,156715,2,0,L|292:288,1,75.0000028610231
48,160,156905,2,0,L|48:240,1,75.0000028610231
272,216,157095,2,0,L|276:308,1,75.0000028610231
56,288,157284,6,0,L|160:292,1,75.0000028610231
360,316,157474,2,0,L|256:312,1,75.0000028610231
16,320,157664,2,0,L|112:324,1,75.0000028610231
384,312,157854,2,0,L|392:212,1,75.0000028610231
208,192,158044,6,0,P|144:172|128:108,1,112.500004291535
336,112,158233,6,0,L|344:56,1,37.5000014305115
52,80,158328,2,0,L|52:32,1,37.5000014305115
356,40,158423,6,0,L|488:36,1,112.500004291535
152,172,158613,2,0,L|20:176,1,112.500004291535
400,184,158803,5,0,0:0:0:0:
462,217,158897,1,0,0:0:0:0:
454,287,158992,1,0,0:0:0:0:
386,305,159087,1,0,0:0:0:0:
176,312,159182,2,0,L|92:308,1,75.0000028610231
312,280,159372,2,0,L|408:284,1,75.0000028610231
80,208,159562,5,0,0:0:0:0:
76,133,159656,1,0,0:0:0:0:
72,58,159751,1,0,0:0:0:0:
136,40,159847,1,0,0:0:0:0:
456,48,159942,2,0,L|460:136,1,75.0000028610231
200,200,160131,2,0,L|192:116,1,75.0000028610231
468,240,160321,6,0,L|348:252,1,75.0000028610231
160,36,160511,2,0,L|272:28,1,75.0000028610231
471,110,160701,5,0,0:0:0:0:
481,145,160748,1,0,0:0:0:0:
476,182,160795,1,0,0:0:0:0:
458,215,160843,1,0,0:0:0:0:
429,238,160890,1,0,0:0:0:0:
393,247,160938,1,0,0:0:0:0:
356,243,160985,1,0,0:0:0:0:
324,224,161033,1,0,0:0:0:0:
56,212,161080,5,0,0:0:0:0:
