osu file format v14

[General]
AudioFilename: audio.mp3
AudioLeadIn: 0
PreviewTime: 3249
Countdown: 0
SampleSet: Normal
StackLeniency: 0.2
Mode: 0
LetterboxInBreaks: 0
WidescreenStoryboard: 0

[Editor]
Bookmarks: 509,2027,3356,5063,6582,8100,9618,11136,12654,14172,15690,17208,18726,20245,21763,23281,24799,26317,27835,29353,30871,32389,33907,35426,36944,38462,39980,41498,43016,44534,46052,47570,49088,50607,52125,53643,55161,56679,58197,59715,61233,62751,64269,65788,67306,68824,70342,71860,73378,74896,76414,77411,79056,80497,83788,87080,89548,90371,92017,93663,95103,96954,98600,100246,101892,103537,104977,106829,108475,110121,111766,113412,114852,116704,118349,122258,123752,125229,126706,128183,129660,131137,132614,134091,135568,137045,138522,139999,141476,142952,144429,148746,150454,151973,153491,155010,156528,158047,159565,164060,167013,169966,172919,175872,178825,181778,184731,187672,190872,193431
DistanceSpacing: 1
BeatDivisor: 1
GridSize: 32
TimelineZoom: 1.6

[Metadata]
Title:Imaginary Places
TitleUnicode:Imaginary Places
Artist:Busdriver
ArtistUnicode:Busdriver
Creator:Moreon
Version:Andemu's through ivy to connector
Source:
Tags:phoon NeBu Busdriver Rdzeniu Streams Hatiso Moreon Rap sbsonic Andemu Asrasz LukerMaster Chalwa CptSqBany DominiGG AnySense squirrelpascals Fieryrage tem Squishi Soiplox Script
BeatmapID:1343878
BeatmapSetID:632870

[Difficulty]
HPDrainRate:4
CircleSize:3.8
OverallDifficulty:5.5
ApproachRate:8
SliderMultiplier:2.5
SliderTickRate:1

[Events]
//Background and Video events
0,0,"BG.jpg",0,0
//Break Periods
2,80697,87988
//Storyboard Layer 0 (Background)
//Storyboard Layer 1 (Fail)
//Storyboard Layer 2 (Pass)
//Storyboard Layer 3 (Foreground)
//Storyboard Sound Samples

[TimingPoints]
509.668789808917,379.525605095541,4,1,0,60,1,0
3533,-100,4,1,0,80,0,1
4672,-166.666666666667,4,1,0,80,0,1
5051,-100,4,1,0,80,0,1
7708,-166.666666666667,4,1,0,80,0,1
8088,-100,4,1,0,80,0,1
13781,-166.666666666667,4,1,0,80,0,1
13970,-100,4,1,0,80,0,1
15678,-100,4,1,0,60,0,0
21751,-100,4,1,0,80,0,1
22889,-166.666666666667,4,1,0,80,0,1
23269,-100,4,1,0,80,0,1
25925,-166.666666666667,4,1,0,80,0,1
26305,-100,4,1,0,80,0,1
28962,-166.666666666667,4,1,0,80,0,1
29341,-100,4,1,0,80,0,1
31998,-166.666666666667,4,1,0,80,0,1
32377,-100,4,1,0,80,0,1
33895,-100,4,1,0,60,0,0
39968,-100,4,1,0,80,0,1
41106,-166.666666666667,4,1,0,80,0,1
41486,-100,4,1,0,80,0,1
44143,-166.666666666667,4,1,0,80,0,1
44522,-100,4,1,0,80,0,1
47179,-166.666666666667,4,1,0,80,0,1
47558,-100,4,1,0,80,0,1
50215,-166.666666666667,4,1,0,80,0,1
50595,-100,4,1,0,80,0,1
52113,-100,4,1,0,60,0,0
58185,-100,4,1,0,80,0,1
59324,-166.666666666667,4,1,0,80,0,1
59703,-100,4,1,0,80,0,1
62360,-166.666666666667,4,1,0,80,0,1
62739,-100,4,1,0,80,0,1
65396,-166.666666666667,4,1,0,80,0,1
65776,-100,4,1,0,80,0,1
68349,-166.666666666667,4,1,0,80,0,1
68824,-100,4,1,0,80,0,1
70330,-100,4,1,0,60,0,0
76402,-166.666666666667,4,1,0,40,0,0
76794,411.444676258992,4,1,0,40,1,0
76896,-166.666666666667,4,1,0,40,0,0
78028,-166.666666666667,4,1,0,40,0,0
78954,-166.666666666667,4,1,0,40,0,0
79056,-166.666666666667,4,1,0,40,0,0
80394,-166.666666666667,4,3,0,50,0,0
80599,-166.666666666667,4,1,0,60,0,0
90371,-100,4,1,0,40,0,0
92840,-166.666666666667,4,1,0,40,0,0
93251,-100,4,1,0,40,0,0
95103,-100,4,1,0,40,0,0
96954,-100,4,1,0,40,0,0
97777,-166.666666666667,4,1,0,40,0,0
98189,-100,4,1,0,40,0,0
102715,-166.666666666667,4,1,0,40,0,0
103126,-100,4,1,0,40,0,0
104977,-100,4,1,0,40,0,0
107240,-100,4,1,0,40,0,0
112589,-166.666666666667,4,1,0,40,0,0
113001,-100,4,1,0,40,0,0
114852,-100,4,1,0,40,0,0
117115,-100,4,1,0,40,0,0
117527,-166.666666666667,4,1,0,40,0,0
117938,-100,4,1,0,40,0,0
118658,-1000,4,1,0,5,0,0
118658,-1000,4,1,0,50,0,0
121332,-100,4,1,0,40,0,0
122276,369.230769230769,4,3,0,70,1,0
145899,379.625605095541,4,1,0,60,1,0
148936,-100,4,1,0,80,0,1
161107,369.125605095541,4,1,0,60,1,0
167013,-166.666666666667,4,1,0,60,0,0
169227,-200,4,1,0,60,0,0
169966,-166.666666666667,4,1,0,60,0,0
172180,-200,4,1,0,60,0,0
172919,-166.666666666667,4,1,0,60,0,0
175133,-200,4,1,0,60,0,0
175872,-166.666666666667,4,1,0,60,0,0
178086,-200,4,1,0,60,0,0
178825,-166.666666666667,4,1,0,60,0,0
181039,-200,4,1,0,60,0,0
181778,-166.666666666667,4,1,0,60,0,0
183992,-200,4,1,0,60,0,0
184731,-166.666666666667,4,1,0,60,0,0
186945,-500,4,1,0,60,0,0
187459,426.625605095542,4,1,0,60,1,0
187778,-100,4,1,0,10,0,0
193325,-100,4,3,0,35,0,0

[Colours]
Combo1 : 255,192,0
Combo2 : 0,174,174
Combo3 : 41,101,31
Combo4 : 242,24,57

[HitObjects]
395,278,3355,5,0,0:0:0:0:
344,176,3545,6,0,B|313:252|313:252|275:271,1,125,2|0,0:0|0:0,0:0:0:0:
157,167,3924,1,0,0:0:0:0:
192,252,4114,1,0,0:0:0:0:
230,108,4303,2,0,B|274:102|274:102|314:116|314:116|351:109,1,125,2|0,0:0|0:0,0:0:0:0:
432,123,4683,2,0,L|422:200,1,74.9999977111817
326,220,5062,5,2,0:0:0:0:
290,313,5252,1,0,0:0:0:0:
196,348,5442,1,0,0:0:0:0:
99,322,5632,1,0,0:0:0:0:
36,243,5822,1,2,0:0:0:0:
17,145,6011,1,0,0:0:0:0:
51,51,6201,2,0,B|112:45|148:85|148:85|135:97,1,125,2|0,0:0|0:0,0:0:0:0:
161,199,6581,6,0,L|285:211,1,125,2|0,0:0|0:0,0:0:0:0:
386,219,6960,1,0,0:0:0:0:
286,212,7150,1,0,0:0:0:0:
317,303,7340,2,0,P|254:295|211:254,1,125
134,119,7719,2,0,L|132:193,1,74.9999977111817
214,105,8099,5,2,0:0:0:0:
237,181,8288,1,0,0:0:0:0:
310,212,8478,1,0,0:0:0:0:
380,173,8668,1,0,0:0:0:0:
327,90,8858,5,2,0:0:0:0:
380,173,9047,1,0,0:0:0:0:
382,273,9237,1,2,0:0:0:0:
297,326,9427,1,0,0:0:0:0:
181,288,9617,6,0,P|235:267|264:208,1,125,2|0,0:0|0:0,0:0:0:0:
215,121,9996,1,0,0:0:0:0:
265,208,10186,1,0,0:0:0:0:
319,121,10376,2,0,L|443:116,1,125,2|0,0:0|0:0,0:0:0:0:
444,116,10755,1,0,0:0:0:0:
345,241,11135,5,2,0:0:0:0:
314,336,11325,1,0,0:0:0:0:
244,264,11514,1,0,0:0:0:0:
281,167,11704,1,0,0:0:0:0:
352,97,11894,5,2,0:0:0:0:
281,167,12084,1,0,0:0:0:0:
187,200,12273,1,2,0:0:0:0:
86,204,12463,1,0,0:0:0:0:
29,148,12653,6,0,B|59:110|119:112|142:150,1,125,2|0,0:0|0:0,0:0:0:0:
138,254,13033,2,0,B|155:287|215:290|247:254,1,125
254,154,13412,2,0,L|244:93,2,62.5,2|0|0,0:0|0:0|0:0,0:0:0:0:
389,203,13792,2,0,P|355:219|315:222,1,74.9999977111817
229,267,14171,5,2,0:0:0:0:
319,223,14361,1,0,0:0:0:0:
320,122,14551,1,0,0:0:0:0:
248,52,14740,1,0,0:0:0:0:
162,104,14930,1,2,0:0:0:0:
248,52,15120,1,0,0:0:0:0:
348,47,15310,1,2,0:0:0:0:
437,91,15499,1,0,0:0:0:0:
290,172,15689,5,10,0:0:0:0:
285,266,15879,1,0,0:0:0:0:
215,90,16069,1,0,0:0:0:0:
218,201,16258,1,0,0:0:0:0:
361,91,16448,2,0,L|348:218,1,125,8|0,0:0|0:0,0:0:0:0:
153,280,16828,2,0,L|137:153,1,125
256,92,17207,5,8,0:0:0:0:
234,189,17397,1,0,0:0:0:0:
326,150,17587,2,0,B|394:141|394:141|458:158,1,125
382,231,17966,1,8,0:0:0:0:
404,328,18156,1,0,0:0:0:0:
312,289,18346,2,0,B|244:280|244:280|180:297,1,125
431,123,18725,6,0,L|407:251,1,125,2|0,0:0|0:0,0:0:0:0:
294,169,19105,1,0,0:0:0:0:
333,260,19295,1,0,0:0:0:0:
267,335,19484,1,2,0:0:0:0:
168,351,19674,1,0,0:0:0:0:
219,265,19864,1,0,0:0:0:0:
319,260,20054,1,0,0:0:0:0:
401,202,20244,6,0,P|436:151|431:88,1,125,2|0,0:0|0:0,0:0:0:0:
204,24,20623,2,0,P|205:85|246:133,1,125
364,132,21003,1,2,0:0:0:0:
274,272,21192,1,0,0:0:0:0:
450,198,21382,1,0,0:0:0:0:
200,196,21572,1,0,0:0:0:0:
359,278,21762,6,0,L|485:283,1,125,2|0,0:0|0:0,0:0:0:0:
324,200,22141,2,0,L|198:195,1,125,2|0,0:0|0:0,0:0:0:0:
151,115,22521,2,0,L|97:158,2,62.5
238,58,22900,2,0,P|277:58|312:77,1,74.9999977111817
242,146,23280,5,2,0:0:0:0:
251,245,23469,1,0,0:0:0:0:
345,277,23659,1,0,0:0:0:0:
421,212,23849,1,0,0:0:0:0:
438,113,24039,1,2,0:0:0:0:
345,163,24229,1,0,0:0:0:0:
258,213,24418,1,2,0:0:0:0:
170,261,24608,1,0,0:0:0:0:
79,303,24798,6,0,P|79:244|114:191,1,125,2|0,0:0|0:0,0:0:0:0:
325,155,25177,2,0,B|258:189|268:112|186:165,1,125
185,228,25557,2,0,L|198:289,2,62.5,2|0|0,0:0|0:0|0:0,0:0:0:0:
152,94,25936,2,0,B|176:78|176:78|225:74,1,74.9999977111817
398,148,26316,5,2,0:0:0:0:
330,221,26506,1,0,0:0:0:0:
230,223,26695,1,0,0:0:0:0:
150,162,26885,1,0,0:0:0:0:
78,231,27075,1,2,0:0:0:0:
150,162,27265,1,0,0:0:0:0:
249,152,27454,1,2,0:0:0:0:
335,202,27644,1,0,0:0:0:0:
360,287,27834,6,0,L|229:288,1,125,2|0,0:0|0:0,0:0:0:0:
195,210,28214,2,0,L|133:209,2,62.5
350,202,28593,1,2,0:0:0:0:
195,210,28783,1,0,0:0:0:0:
350,202,28973,2,0,P|370:169|367:131,1,74.9999977111817
195,210,29352,5,2,0:0:0:0:
166,114,29542,1,0,0:0:0:0:
253,64,29732,1,0,0:0:0:0:
345,101,29921,1,0,0:0:0:0:
324,257,30111,1,2,0:0:0:0:
261,178,30301,1,0,0:0:0:0:
160,178,30491,1,2,0:0:0:0:
92,251,30680,1,0,0:0:0:0:
191,274,30870,6,0,P|241:237|258:177,1,125,2|0,0:0|0:0,0:0:0:0:
309,64,31250,2,0,B|358:105|358:105|373:167,1,125
373,256,31629,2,0,L|315:295,2,62.5,2|0|0,0:0|0:0|0:0,0:0:0:0:
468,192,32009,2,0,B|464:147|464:147|468:142|468:142|463:137|463:137|462:115,1,74.9999977111817
198,40,32388,5,2,0:0:0:0:
287,34,32578,1,0,0:0:0:0:
355,106,32768,2,0,P|409:146|464:142,1,125
446,243,33147,5,2,0:0:0:0:
386,310,33337,1,0,0:0:0:0:
300,331,33527,1,2,0:0:0:0:
214,279,33717,1,0,0:0:0:0:
214,279,33906,1,8,0:0:0:0:
287,217,34096,5,0,0:0:0:0:
170,156,34286,1,0,0:0:0:0:
287,217,34476,1,0,0:0:0:0:
133,227,34665,1,8,0:0:0:0:
317,132,34855,1,0,0:0:0:0:
133,227,35045,1,0,0:0:0:0:
317,132,35235,1,0,0:0:0:0:
212,136,35425,6,0,L|87:136,1,125,8|0,0:0|0:0,0:0:0:0:
320,213,35804,2,0,L|445:213,1,125
445,313,36184,1,8,0:0:0:0:
351,348,36373,1,0,0:0:0:0:
275,282,36563,1,8,0:0:0:0:
284,182,36752,1,0,0:0:0:0:
284,182,36943,6,0,L|302:123,2,62.5,8|0|0,0:0|0:0|0:0,0:0:0:0:
196,177,37322,2,0,P|162:139|183:68,1,125
359,44,37702,2,0,P|393:82|372:153,1,125,8|0,0:0|0:0,0:0:0:0:
196,177,38081,2,0,P|162:139|183:68,1,125
376,148,38461,5,8,0:0:0:0:
291,200,38650,1,0,0:0:0:0:
314,297,38840,2,0,P|279:358|218:353,1,125
401,348,39220,1,8,0:0:0:0:
314,297,39410,1,0,0:0:0:0:
214,295,39599,1,0,0:0:0:0:
120,329,39789,1,0,0:0:0:0:
145,211,39979,6,0,P|212:193|267:199,1,125,2|0,0:0|0:0,0:0:0:0:
362,257,40358,2,0,L|362:323,2,62.5
449,189,40738,2,0,B|450:145|450:145|406:69,1,125,2|0,0:0|0:0,0:0:0:0:
275,65,41117,2,0,B|251:46|269:8|303:18,1,74.9999977111817
380,66,41497,5,2,0:0:0:0:
403,163,41687,1,0,0:0:0:0:
355,250,41876,1,0,0:0:0:0:
259,280,42066,1,0,0:0:0:0:
174,225,42256,1,2,0:0:0:0:
268,193,42446,1,0,0:0:0:0:
355,250,42636,1,2,0:0:0:0:
452,230,42825,1,0,0:0:0:0:
399,144,43015,6,0,P|338:124|274:130,1,125,2|0,0:0|0:0,0:0:0:0:
281,309,43395,2,0,P|342:329|406:323,1,125
356,234,43774,1,2,0:0:0:0:
256,226,43964,1,0,0:0:0:0:
156,233,44154,2,0,B|147:272|179:279|179:279|186:260,1,74.9999977111817
228,146,44533,5,2,0:0:0:0:
287,226,44723,1,0,0:0:0:0:
384,201,44913,1,0,0:0:0:0:
402,103,45102,1,0,0:0:0:0:
313,150,45292,1,2,0:0:0:0:
248,73,45482,1,0,0:0:0:0:
153,106,45672,1,2,0:0:0:0:
130,203,45861,1,0,0:0:0:0:
229,213,46051,6,0,L|359:210,1,125,2|0,0:0|0:0,0:0:0:0:
415,105,46431,2,0,L|355:91,2,62.5
472,193,46810,2,0,B|476:261|476:261|456:323,1,125,2|0,0:0|0:0,0:0:0:0:
369,255,47190,2,0,P|350:275|383:275,1,74.9999977111817
376,168,47569,5,2,0:0:0:0:
276,162,47759,1,0,0:0:0:0:
178,195,47949,1,0,0:0:0:0:
115,272,48139,1,0,0:0:0:0:
49,346,48328,1,2,0:0:0:0:
115,272,48518,1,0,0:0:0:0:
102,172,48708,1,2,0:0:0:0:
61,80,48898,1,0,0:0:0:0:
160,76,49087,6,0,P|141:149|99:172,1,125,2|0,0:0|0:0,0:0:0:0:
54,241,49467,2,0,B|81:276|81:276|84:320|84:320|108:352,1,125
197,295,49846,2,0,L|238:341,2,62.5,2|0|0,0:0|0:0|0:0,0:0:0:0:
255,202,50226,2,0,B|336:203,1,74.9999977111817
277,105,50606,5,2,0:0:0:0:
255,202,50795,1,0,0:0:0:0:
277,299,50985,1,0,0:0:0:0:
364,347,51175,1,0,0:0:0:0:
343,249,51365,1,2,0:0:0:0:
255,202,51554,1,0,0:0:0:0:
155,213,51744,1,2,0:0:0:0:
71,267,51934,1,0,0:0:0:0:
71,267,52124,6,0,P|129:294|185:279,1,125,8|0,0:0|0:0,0:0:0:0:
241,123,52503,2,0,P|188:94|135:122,1,125
272,194,52883,1,10,0:0:0:0:
111,192,53072,1,0,0:0:0:0:
272,194,53262,1,0,0:0:0:0:
111,192,53452,1,0,0:0:0:0:
211,278,53642,6,0,L|339:329,1,125,8|0,0:0|0:0,0:0:0:0:
411,138,54021,2,0,L|283:87,1,125
408,251,54401,1,8,0:0:0:0:
216,174,54591,1,0,0:0:0:0:
408,251,54780,1,0,0:0:0:0:
216,174,54970,1,0,0:0:0:0:
248,272,55160,5,8,0:0:0:0:
150,295,55350,1,0,0:0:0:0:
78,225,55539,1,0,0:0:0:0:
107,129,55729,1,0,0:0:0:0:
219,98,55919,5,8,0:0:0:0:
183,191,56109,1,0,0:0:0:0:
236,274,56298,1,0,0:0:0:0:
330,306,56488,1,0,0:0:0:0:
390,226,56678,5,8,0:0:0:0:
293,199,56868,1,0,0:0:0:0:
193,202,57057,1,0,0:0:0:0:
105,251,57247,1,0,0:0:0:0:
148,341,57437,2,0,L|274:312,1,125,8|0,0:0|0:0,0:0:0:0:
121,167,57817,2,0,L|-7:167,1,125
226,230,58196,6,0,P|245:170|296:136,1,125,2|0,0:0|0:0,0:0:0:0:
456,71,58576,2,0,B|394:83|394:83|332:64,1,125
238,39,58955,1,2,0:0:0:0:
152,90,59145,1,0,0:0:0:0:
152,187,59335,2,0,B|162:230|162:230|195:260,1,74.9999977111817
399,200,59714,6,0,P|343:208|333:154,1,125,2|0,0:0|0:0,0:0:0:0:
395,114,60094,2,0,L|253:106,1,125
133,138,60473,2,0,L|96:191,2,62.5,2|0|0,0:0|0:0|0:0,0:0:0:0:
212,184,60853,2,0,B|239:264|239:264|228:303,1,125,2|0,0:0|0:0,0:0:0:0:
26,341,61232,6,0,P|90:317|155:326,1,125,2|0,0:0|0:0,0:0:0:0:
311,333,61612,1,0,0:0:0:0:
145,322,61802,1,0,0:0:0:0:
249,258,61991,2,0,P|312:244|386:269,1,125,2|0,0:0|0:0,0:0:0:0:
447,324,62371,2,0,B|455:290|455:290|448:251,1,74.9999977111817
352,130,62750,5,2,0:0:0:0:
336,228,62940,1,0,0:0:0:0:
240,256,63130,1,0,0:0:0:0:
154,204,63320,1,0,0:0:0:0:
180,108,63509,1,2,0:0:0:0:
253,175,63699,1,0,0:0:0:0:
290,81,63889,1,2,0:0:0:0:
208,22,64079,1,0,0:0:0:0:
115,60,64268,6,0,L|100:200,1,125,2|0,0:0|0:0,0:0:0:0:
182,263,64648,2,0,P|203:200|257:174,1,125
359,132,65028,2,0,L|335:75,2,62.5,2|0|0,0:0|0:0|0:0,0:0:0:0:
473,234,65407,2,0,B|461:252|440:260|440:260|434:229,1,74.9999977111817
376,161,65787,5,2,0:0:0:0:
316,240,65976,1,0,0:0:0:0:
218,264,66166,1,0,0:0:0:0:
118,255,66356,1,0,0:0:0:0:
50,183,66546,5,2,0:0:0:0:
118,253,66735,1,0,0:0:0:0:
218,264,66925,1,2,0:0:0:0:
316,240,67115,1,0,0:0:0:0:
420,203,67305,6,0,B|426:184|426:184|415:160|415:160|423:143,4,62.5,2|0|0|0|0,0:0|0:0|0:0|0:0|0:0,0:0:0:0:
331,156,67874,1,0,0:0:0:0:
247,210,68064,2,0,P|280:262|245:311,1,125,2|0,0:0|0:0,0:0:0:0:
140,246,68443,2,0,L|141:168,1,74.9999977111817
172,77,68823,5,2,0:0:0:0:
142,172,69013,1,0,0:0:0:0:
215,239,69202,1,0,0:0:0:0:
311,211,69392,1,0,0:0:0:0:
332,113,69582,1,2,0:0:0:0:
387,196,69772,1,0,0:0:0:0:
342,285,69961,1,2,0:0:0:0:
247,317,70151,1,0,0:0:0:0:
249,221,70341,5,10,0:0:0:0:
95,278,70531,1,0,0:0:0:0:
249,221,70720,1,0,0:0:0:0:
95,278,70910,1,0,0:0:0:0:
302,294,71100,1,8,0:0:0:0:
103,199,71290,1,0,0:0:0:0:
302,294,71479,1,0,0:0:0:0:
103,199,71669,1,0,0:0:0:0:
300,216,71859,6,0,B|346:221|346:221|391:207|391:207|421:214,1,125,8|0,0:0|0:0,0:0:0:0:
320,114,72239,2,0,B|247:117|247:117|198:160,1,125
182,246,72618,2,0,L|172:307,2,62.5,8|0|0,0:0|0:0|0:0,0:0:0:0:
281,205,72998,2,0,P|303:265|262:304,1,125
182,246,73377,5,8,0:0:0:0:
281,205,73567,1,0,0:0:0:0:
369,251,73757,1,0,0:0:0:0:
440,320,73946,1,0,0:0:0:0:
469,224,74136,1,8,0:0:0:0:
369,251,74326,1,0,0:0:0:0:
282,300,74516,1,0,0:0:0:0:
189,263,74705,1,0,0:0:0:0:
169,164,74895,6,0,L|59:235,1,125,8|0,0:0|0:0,0:0:0:0:
271,68,75275,2,0,L|381:139,1,125
458,319,75654,1,8,0:0:0:0:
427,197,75844,1,0,0:0:0:0:
465,77,76034,1,8,0:0:0:0:
328,170,76413,6,0,L|232:170,1,74.9999977111817,4|0,0:0|0:0,0:0:0:0:
264,234,77411,6,0,L|168:234,1,62.5
201,234,77822,1,0,0:0:0:0:
264,138,78028,2,0,L|360:138,1,74.9999977111817
456,330,79056,5,0,0:0:0:0:
456,234,79263,2,0,L|381:234,1,74.9999977111817
264,330,79674,2,0,L|360:330,1,74.9999977111817
264,170,80085,2,0,L|168:170,1,74.9999977111817
40,170,80497,5,6,0:0:0:0:
178,87,89548,6,0,L|274:87,1,74.9999977111817
389,170,89960,2,0,L|293:170,1,74.9999977111817
105,186,90371,5,0,0:0:0:0:
204,178,90577,1,0,0:0:0:0:
267,255,90783,1,0,0:0:0:0:
170,279,90988,2,0,P|103:280|47:313,2,125,0|8|0,0:0|0:0|0:0,0:0:0:0:
282,335,91606,2,0,P|341:341|412:301,1,125
407,194,92017,5,0,0:0:0:0:
407,194,92223,1,0,0:0:0:0:
313,187,92428,2,0,B|348:114|348:114|389:95,1,125
264,92,92840,2,0,P|196:105|118:64,1,149.999995422363,8|0,0:0|0:0,0:0:0:0:
126,72,93457,1,0,0:0:0:0:
216,220,93663,5,0,0:0:0:0:
216,220,93868,1,0,0:0:0:0:
311,248,94074,1,0,0:0:0:0:
311,248,94280,1,0,0:0:0:0:
360,343,94486,2,0,L|228:347,1,125,8|0,0:0|0:0,0:0:0:0:
53,216,94897,1,0,0:0:0:0:
53,216,95103,6,0,B|213:56|309:152|309:152|213:248|73:81|73:81|261:-52|435:145,1,962.499970626832
415,123,96954,5,0,0:0:0:0:
415,123,97160,1,0,0:0:0:0:
480,184,97366,2,0,B|456:216|456:216|452:314,1,125
276,273,97777,2,0,P|318:230|361:290,1,149.999995422363,8|0,0:0|0:0,0:0:0:0:
363,288,98394,1,0,0:0:0:0:
423,198,98600,6,0,L|402:69,1,125
289,29,99012,2,0,L|284:159,1,125
166,159,99423,1,8,0:0:0:0:
166,159,99629,1,0,0:0:0:0:
281,277,99834,1,0,0:0:0:0:
281,277,100040,1,0,0:0:0:0:
239,158,100246,6,0,B|305:116|372:150|338:183|402:212|470:171,1,250
470,173,100863,1,0,0:0:0:0:
411,59,101069,2,0,B|361:41|361:41|250:47,1,125,8|0,0:0|0:0,0:0:0:0:
213,175,101480,1,0,0:0:0:0:
289,44,101686,1,0,0:0:0:0:
326,139,101892,2,0,B|317:196|317:196|262:252,1,125
80,181,102303,2,0,P|143:183|195:215,1,125
233,313,102715,2,0,P|175:298|93:340,1,149.999995422363,8|0,0:0|0:0,0:0:0:0:
97,337,103332,1,0,0:0:0:0:
167,211,103537,6,0,B|239:211|239:211|247:205|247:205|255:211|255:211|287:211,1,125
388,209,103949,1,0,0:0:0:0:
333,293,104155,1,0,0:0:0:0:
467,257,104360,2,0,B|464:172|464:172|431:135,1,125,8|0,0:0|0:0,0:0:0:0:
218,212,104772,1,0,0:0:0:0:
218,212,104977,6,0,B|273:127|247:58|247:58|182:123|44:175|58:23|161:-40|199:30|221:115|162:172|60:265|60:265|174:266|239:306|239:306|296:271|327:182,1,1000
466,184,106829,5,0,0:0:0:0:
326,184,107035,1,0,0:0:0:0:
466,184,107240,2,0,B|467:256|467:256|474:264|474:264|467:272|467:272|468:308,1,125
366,269,107652,1,8,0:0:0:0:
366,269,107858,1,0,0:0:0:0:
306,189,108063,1,0,0:0:0:0:
306,189,108269,1,0,0:0:0:0:
239,263,108475,6,0,P|284:304|255:351,1,125
86,243,108886,2,0,B|100:284|113:289|134:277|169:283|175:316,1,125
286,221,109298,1,8,0:0:0:0:
289,359,109503,1,0,0:0:0:0:
399,222,109709,1,0,0:0:0:0:
408,357,109914,1,0,0:0:0:0:
286,221,110121,6,0,B|211:312|74:229|148:104,1,250
130,145,110738,1,0,0:0:0:0:
242,46,110943,2,0,B|227:107|227:107|233:180,1,125,8|0,0:0|0:0,0:0:0:0:
399,174,111355,2,0,B|414:113|414:113|408:40,1,125
322,38,111766,5,0,0:0:0:0:
322,38,111972,1,0,0:0:0:0:
324,171,112178,1,0,0:0:0:0:
324,171,112383,1,0,0:0:0:0:
192,254,112589,2,0,P|245:251|206:307,1,149.999995422363,8|0,0:0|0:0,0:0:0:0:
213,310,113206,1,0,0:0:0:0:
325,247,113412,6,0,P|409:263|460:290,1,125
363,148,113824,2,0,P|278:158|221:148,1,125
150,199,114235,1,8,0:0:0:0:
150,199,114441,1,0,0:0:0:0:
271,144,114646,1,0,0:0:0:0:
271,144,114852,6,0,B|337:203|376:219|376:219|213:217|78:231|78:231|169:297|169:297|182:327|182:327|260:371|260:371|248:305|314:285|314:285|247:257|139:107,1,1000
227,64,116704,5,0,0:0:0:0:
227,64,116909,1,0,0:0:0:0:
88,162,117115,2,0,P|80:101|122:52,1,125
357,117,117527,2,0,P|326:150|333:86,1,149.999995422363,8|0,0:0|0:0,0:0:0:0:
320,85,118144,1,0,0:0:0:0:
431,84,118349,6,0,B|432:152|432:152|398:210,1,125
243,233,118761,2,0,B|259:233|259:233|251:233|251:233|325:234|325:234|304:233|283:212,1,143.75
233,114,122276,6,0,L|154:122,2,62.5,8|0|0,0:0|0:0|0:0,0:0:0:0:
298,188,122645,2,0,L|377:196,2,62.5,8|0|0,0:0|0:0|0:0,0:0:0:0:
200,210,123014,1,8,0:0:0:0:
236,303,123199,1,8,0:0:0:0:
333,321,123383,1,8,0:0:0:0:
422,276,123568,1,8,0:0:0:0:
366,189,123752,6,0,L|336:252,2,62.5,8|0|0,0:0|0:0|0:0,0:0:0:0:
326,103,124122,2,0,L|341:33,2,62.5,8|0|0,0:0|0:0|0:0,0:0:0:0:
233,149,124491,1,8,0:0:0:0:
271,241,124676,1,8,0:0:0:0:
194,304,124860,1,8,0:0:0:0:
106,255,125045,1,8,0:0:0:0:
190,161,125229,6,0,B|198:183|198:183|186:205|186:205|194:226,4,62.5,2|0|0|0|0,0:0|0:0|0:0|0:0|0:0,0:0:0:0:
276,158,125783,1,0,0:0:0:0:
335,95,125968,2,0,B|327:73|327:73|339:51|339:51|331:30,4,62.5,2|0|0|0|0,0:0|0:0|0:0|0:0|0:0,0:0:0:0:
276,158,126522,1,0,0:0:0:0:
241,273,126706,6,0,P|170:249|150:175,1,125,2|0,0:0|0:0,0:0:0:0:
218,154,126983,1,0,0:0:0:0:
218,154,127076,2,0,B|273:156|273:156|344:201,1,125
301,293,127445,2,0,L|368:332,2,62.5,2|0|0,0:0|0:0|0:0,0:0:0:0:
208,227,127814,2,0,L|153:258,2,62.5,2|0|0,0:0|0:0|0:0,0:0:0:0:
359,132,128183,5,8,0:0:0:0:
308,218,128368,1,0,0:0:0:0:
208,227,128552,1,8,0:0:0:0:
118,182,128737,1,0,0:0:0:0:
199,123,128922,1,8,0:0:0:0:
208,227,129106,1,8,0:0:0:0:
161,315,129291,1,8,0:0:0:0:
62,332,129476,1,8,0:0:0:0:
128,221,129660,6,0,B|105:225|105:225|92:247|92:247|70:252,4,62.5,2|0|0|0|0,0:0|0:0|0:0|0:0|0:0,0:0:0:0:
204,165,130214,1,0,0:0:0:0:
214,250,130399,2,0,P|283:249|325:197,1,125,8|8,0:0|0:0,0:0:0:0:
379,97,130676,1,0,0:0:0:0:
379,97,130768,2,0,L|404:232,1,125,8|8,0:0|0:0,0:0:0:0:
367,306,131137,5,8,0:0:0:0:
295,235,131322,1,0,0:0:0:0:
197,214,131506,1,8,0:0:0:0:
97,225,131691,1,0,0:0:0:0:
71,322,131876,1,8,0:0:0:0:
161,279,132061,1,0,0:0:0:0:
260,274,132245,1,8,0:0:0:0:
358,294,132430,1,0,0:0:0:0:
260,274,132614,6,0,L|176:289,2,62.5,8|0|0,0:0|0:0|0:0,0:0:0:0:
291,157,132983,2,0,L|207:142,2,62.5,8|0|0,0:0|0:0|0:0,0:0:0:0:
372,223,133352,2,0,L|433:212,2,62.5,8|0|8,0:0|0:0|0:0,0:0:0:0:
380,36,133721,2,0,L|441:46,2,62.5,8|0|8,0:0|0:0|0:0,0:0:0:0:
265,192,134091,5,8,0:0:0:0:
352,144,134276,1,0,0:0:0:0:
345,44,134460,1,8,0:0:0:0:
250,12,134645,1,0,0:0:0:0:
185,87,134829,1,8,0:0:0:0:
285,87,135014,1,8,0:0:0:0:
367,143,135199,1,8,0:0:0:0:
381,241,135383,1,8,0:0:0:0:
295,308,135568,6,0,B|266:330|266:330|237:339,3,62.5,2|0|0|0,0:0|0:0|0:0|0:0,0:0:0:0:
271,227,135937,2,0,B|297:204|297:204|328:195,3,62.5,2|0|0|0,0:0|0:0|0:0|0:0,0:0:0:0:
404,162,136306,2,0,L|441:286,1,125,2|0,0:0|0:0,0:0:0:0:
462,41,136676,2,0,L|499:165,1,125
360,241,137045,5,2,0:0:0:0:
273,289,137229,1,0,0:0:0:0:
175,274,137414,1,0,0:0:0:0:
108,221,137599,1,0,0:0:0:0:
172,138,137783,2,0,P|229:145|215:206,1,125,2|0,0:0|0:0,0:0:0:0:
108,221,138060,1,0,0:0:0:0:
108,221,138152,2,2,B|89:180|89:180|85:100,1,125
214,68,138522,6,0,L|152:26,2,62.5,8|0|0,0:0|0:0|0:0,0:0:0:0:
228,161,138891,2,0,L|290:203,2,62.5
303,82,139260,1,8,0:0:0:0:
398,112,139445,1,0,0:0:0:0:
435,204,139629,1,8,0:0:0:0:
400,298,139814,1,8,0:0:0:0:
271,339,139999,5,8,0:0:0:0:
333,261,140183,1,0,0:0:0:0:
320,161,140368,1,0,0:0:0:0:
232,112,140552,1,0,0:0:0:0:
185,258,140737,2,0,L|184:328,2,62.5,8|0|0,0:0|0:0|0:0,0:0:0:0:
231,174,141106,2,0,L|232:104,2,62.5
363,283,141476,5,8,0:0:0:0:
323,191,141660,1,0,0:0:0:0:
334,91,141845,1,8,0:0:0:0:
409,26,142029,1,0,0:0:0:0:
462,116,142214,1,8,0:0:0:0:
434,212,142398,1,8,0:0:0:0:
363,283,142583,1,8,0:0:0:0:
266,310,142767,1,8,0:0:0:0:
271,219,142952,6,0,B|281:199|281:199|306:193|306:193|314:180,3,62.5,2|0|0|0,0:0|0:0|0:0|0:0,0:0:0:0:
344,280,143322,2,0,P|409:238|414:183,1,125
392,105,143599,1,0,0:0:0:0:
392,105,143691,2,0,L|255:114,1,125,2|0,0:0|0:0,0:0:0:0:
180,204,144060,2,0,L|107:204,2,62.5
321,292,144429,6,0,P|247:323|195:322,1,125,2|0,0:0|0:0,0:0:0:0:
144,273,144706,1,0,0:0:0:0:
180,204,144799,2,0,P|254:173|306:174,1,125
394,254,145168,2,0,B|434:312|477:312|477:312|477:270,1,125,2|0,0:0|0:0,0:0:0:0:
429,152,145537,1,2,0:0:0:0:
226,98,145722,1,0,0:0:0:0:
374,147,148746,5,0,0:0:0:0:
374,147,148936,6,0,P|356:237|290:238,1,125,2|0,0:0|0:0,0:0:0:0:
197,240,149315,2,0,P|132:244|79:283,1,125
242,314,149695,2,0,L|314:321,2,62.5,2|0|0,0:0|0:0|0:0,0:0:0:0:
271,184,150074,1,0,0:0:0:0:
365,334,150454,5,2,0:0:0:0:
303,255,150644,1,0,0:0:0:0:
202,256,150834,1,0,0:0:0:0:
303,255,151023,1,0,0:0:0:0:
381,193,151213,1,2,0:0:0:0:
378,92,151403,1,0,0:0:0:0:
455,155,151593,1,2,0:0:0:0:
440,253,151782,1,0,0:0:0:0:
300,163,151973,6,0,P|222:166|176:140,1,125,2|0,0:0|0:0,0:0:0:0:
201,25,152257,1,0,0:0:0:0:
201,25,152352,2,0,B|249:24|249:24|324:65,1,125
375,212,152732,2,0,P|390:154|459:148,1,125,2|0,0:0|0:0,0:0:0:0:
460,230,153111,1,0,0:0:0:0:
375,212,153491,5,2,0:0:0:0:
303,141,153681,1,0,0:0:0:0:
224,203,153871,1,0,0:0:0:0:
160,125,154060,1,0,0:0:0:0:
89,196,154250,1,2,0:0:0:0:
31,118,154440,1,0,0:0:0:0:
89,196,154630,1,2,0:0:0:0:
160,125,154820,1,0,0:0:0:0:
70,273,155010,6,0,B|119:271|119:271|149:249|149:249|193:246,1,125,2|0,0:0|0:0,0:0:0:0:
274,184,155294,1,0,0:0:0:0:
274,184,155389,2,0,B|267:253|267:253|291:319,1,125
363,229,155769,2,0,P|367:267|429:237,1,125,2|0,0:0|0:0,0:0:0:0:
428,158,156148,1,0,0:0:0:0:
227,126,156528,5,2,0:0:0:0:
279,211,156718,1,0,0:0:0:0:
377,190,156908,1,0,0:0:0:0:
399,93,157097,1,0,0:0:0:0:
377,190,157287,1,2,0:0:0:0:
405,285,157477,1,0,0:0:0:0:
377,190,157667,1,2,0:0:0:0:
278,172,157856,1,0,0:0:0:0:
239,264,158047,6,0,B|201:300|160:299|160:299|122:270,1,125,2|0,0:0|0:0,0:0:0:0:
56,206,158331,1,0,0:0:0:0:
56,206,158426,2,0,L|198:195,1,125
450,210,158806,2,0,L|308:199,1,125,2|0,0:0|0:0,0:0:0:0:
180,196,159185,1,0,0:0:0:0:
336,321,159565,5,2,0:0:0:0:
277,239,159755,1,0,0:0:0:0:
375,219,159945,1,0,0:0:0:0:
336,321,160134,1,0,0:0:0:0:
191,221,160324,5,2,0:0:0:0:
292,124,160514,1,0,0:0:0:0:
243,351,160704,1,2,0:0:0:0:
292,124,160894,1,0,0:0:0:0:
256,192,161107,12,0,166643,0:0:0:0:
369,245,167013,6,0,P|321:259|351:200,1,149.999995422363
435,182,167566,1,0,0:0:0:0:
463,96,167751,2,0,P|455:35|415:81,1,149.999995422363,8|0,0:0|0:0,0:0:0:0:
359,148,168304,1,0,0:0:0:0:
337,235,168489,2,0,P|276:246|308:194,1,149.999995422363
304,93,169043,1,0,0:0:0:0:
304,93,169227,2,0,P|291:48|330:85,1,125,8|0,0:0|0:0,0:0:0:0:
235,135,169966,6,0,B|264:164|264:164|259:219|259:219|209:245,1,149.999995422363
130,205,170519,1,0,0:0:0:0:
64,142,170704,2,0,B|64:102|64:102|107:68|107:68|160:86,1,149.999995422363,8|0,0:0|0:0,0:0:0:0:
243,55,171257,1,0,0:0:0:0:
275,139,171442,2,0,B|224:125|224:125|183:162|183:162|186:204,1,149.999995422363
273,227,171996,1,0,0:0:0:0:
273,227,172180,2,0,B|310:234|310:234|329:280|329:280|311:312,1,125,8|0,0:0|0:0,0:0:0:0:
409,161,172919,6,0,L|257:150,1,149.999995422363
180,193,173472,1,0,0:0:0:0:
244,256,173657,2,0,L|396:266,1,149.999995422363,8|0,0:0|0:0,0:0:0:0:
453,199,174210,1,0,0:0:0:0:
383,141,174395,2,0,L|218:148,1,149.999995422363
193,66,174949,1,0,0:0:0:0:
193,66,175133,2,0,L|328:70,1,125,8|0,0:0|0:0,0:0:0:0:
322,163,175872,6,0,B|277:184|277:184|255:222|255:222|206:248,1,149.999995422363
124,287,176425,1,0,0:0:0:0:
206,324,176610,2,0,B|256:321|256:321|291:346|291:346|348:346,1,149.999995422363,8|0,0:0|0:0,0:0:0:0:
401,273,177163,1,0,0:0:0:0:
388,183,177348,2,0,B|349:152|349:152|336:111|336:111|292:75,1,149.999995422363
183,128,177902,1,0,0:0:0:0:
183,128,178086,2,0,B|224:116|224:116|250:87|250:87|297:73,1,125,8|0,0:0|0:0,0:0:0:0:
359,292,178825,6,0,B|296:253|296:253|266:179,1,149.999995422363
234,99,179378,1,0,0:0:0:0:
311,53,179563,2,0,B|386:47|386:47|454:88,1,149.999995422363,8|0,0:0|0:0,0:0:0:0:
415,168,180116,1,0,0:0:0:0:
373,247,180301,2,0,B|320:194|320:194|308:115,1,149.999995422363
299,30,180855,1,0,0:0:0:0:
299,30,181039,2,0,B|239:61|239:61|172:52,1,125,8|0,0:0|0:0,0:0:0:0:
175,137,181778,6,0,B|201:177|167:238|167:238|139:199,1,149.999995422363
82,135,182331,1,0,0:0:0:0:
175,137,182516,2,0,B|216:112|276:148|276:148|236:175,1,149.999995422363,8|0,0:0|0:0,0:0:0:0:
164,220,183069,1,0,0:0:0:0:
213,295,183254,2,0,B|226:249|294:235|294:235|283:281,1,149.999995422363
326,358,183808,1,0,0:0:0:0:
326,358,183992,2,0,B|333:317|286:281|286:281|277:320,1,125,8|0,0:0|0:0,0:0:0:0:
353,183,184731,6,0,P|265:163|217:190,1,149.999995422363
162,243,185284,1,0,0:0:0:0:
216,190,185469,2,0,P|283:160|352:182,1,149.999995422363,8|0,0:0|0:0,0:0:0:0:
416,235,186022,1,0,0:0:0:0:
352,182,186207,2,0,P|283:160|216:190,1,149.999995422363
161,244,186761,1,0,0:0:0:0:
301,314,186945,2,0,B|297:307|297:307|301:301|301:301|297:294|297:294|301:288|301:288|297:281|297:281|301:275|301:275|297:269,1,50,8|0,0:0|0:0,0:0:0:0:
296,131,187672,5,4,0:0:0:0:
256,192,187885,12,4,190872,0:0:0:0:
256,192,190978,12,0,193431,0:0:0:0:
