osu file format v14

[General]
AudioFilename: audio.mp3
AudioLeadIn: 0
PreviewTime: 3249
Countdown: 0
SampleSet: Soft
StackLeniency: 0.4
Mode: 0
LetterboxInBreaks: 0
WidescreenStoryboard: 0

[Editor]
Bookmarks: 39968
DistanceSpacing: 1.1
BeatDivisor: 2
GridSize: 32
TimelineZoom: 1.6

[Metadata]
Title:Imaginary Places
TitleUnicode:Imaginary Places
Artist:Busdriver
ArtistUnicode:Busdriver
Creator:Moreon
Version:- Squishi's "how do play game"
Source:
Tags:phoon NeBu Busdriver Rdzeniu Streams Hatiso Moreon Rap sbsonic Andemu Asrasz LukerMaster Chalwa CptSqBany DominiGG AnySense squirrelpascals Fieryrage tem Squishi Soiplox Script
BeatmapID:1395956
BeatmapSetID:632870

[Difficulty]
HPDrainRate:5
CircleSize:2.5
OverallDifficulty:1
ApproachRate:1.5
SliderMultiplier:0.799999999999998
SliderTickRate:1

[Events]
//Background and Video events
0,0,"BG.jpg",0,0
//Break Periods
2,76223,78877
2,145737,147316
//Storyboard Layer 0 (Background)
//Storyboard Layer 1 (Fail)
//Storyboard Layer 2 (Pass)
//Storyboard Layer 3 (Foreground)
//Storyboard Sound Samples

[TimingPoints]
497.668789808917,379.525605095541,4,2,0,65,1,0
76794,411.444676258992,4,2,0,60,1,0
94486,-100,4,2,1,60,0,0
94511,-100,4,2,0,60,0,0
122276,369.230769230769,4,2,0,60,1,0
122276,-100,4,2,0,60,0,1
145899,379.625605095541,4,2,0,10,1,0
148936,-100,4,2,0,60,0,0
160704,-100,4,1,0,25,0,0
161107,369.125605095541,4,2,0,40,1,0
187459,426.625605095542,4,2,0,20,1,0

[Colours]
Combo1 : 255,192,0
Combo2 : 0,174,174
Combo3 : 41,101,31
Combo4 : 242,24,57

[HitObjects]
224,56,497,6,0,B|176:56|176:56|128:72,1,79.9999999999998,0|4,0:0|0:0,0:0:0:0:
63,35,1256,2,0,P|71:115|78:125,1,79.9999999999998,0|4,0:0|0:0,0:0:0:0:
35,193,2015,2,0,B|75:200|75:200|118:187,1,79.9999999999998,0|4,0:0|0:0,0:0:0:0:
167,119,2774,2,0,P|191:147|199:204,1,79.9999999999998,0|4,0:0|0:0,0:0:0:0:
186,275,3533,6,0,P|302:278|350:251,1,160,2|8,0:0|0:0,0:0:0:0:
394,190,4672,1,0,0:0:0:0:
367,106,5051,2,0,L|288:77,1,79.9999999999998,8|0,0:0|0:0,0:0:0:0:
235,146,5811,2,0,L|159:175,1,79.9999999999998,8|0,0:0|0:0,0:0:0:0:
80,212,6570,6,0,P|59:264|118:346,1,160,2|8,0:0|0:0,0:0:0:0:
182,290,7708,1,0,0:0:0:0:
246,229,8088,2,0,L|326:155,1,79.9999999999998,8|0,0:0|0:0,0:0:0:0:
383,135,8847,2,0,B|352:106|352:106|321:72,1,79.9999999999998,8|0,0:0|0:0,0:0:0:0:
254,128,9606,6,0,P|173:95|147:26,1,160,2|8,0:0|0:0,0:0:0:0:
70,75,10744,1,0,0:0:0:0:
35,156,11124,2,0,P|72:169|99:198,1,79.9999999999998,8|0,0:0|0:0,0:0:0:0:
150,270,11883,2,0,P|282:287|293:282,1,79.9999999999998,8|0,0:0|0:0,0:0:0:0:
311,287,12642,2,0,P|355:230|300:113,1,160,8|10,0:0|0:0,0:0:0:0:
255,126,13781,1,0,0:0:0:0:
167,131,14160,2,0,L|113:190,1,79.9999999999998,8|0,0:0|0:0,0:0:0:0:
36,233,14919,2,0,P|53:268|58:308,1,79.9999999999998,8|0,0:0|0:0,0:0:0:0:
142,337,15678,6,0,B|137:296|181:246|181:246|239:246,1,160,0|8,0:0|0:0,0:0:0:0:
306,189,16817,1,0,0:0:0:0:
370,129,17196,6,0,B|406:108|406:108|429:137|437:235,1,160,0|8,0:0|0:0,0:0:0:0:
424,308,18335,1,0,0:0:0:0:
343,343,18714,2,0,P|306:357|263:358,1,79.9999999999998,4|0,0:0|0:0,0:0:0:0:
182,329,19473,2,0,P|168:292|167:249,1,79.9999999999998,4|0,0:0|0:0,0:0:0:0:
203,172,20233,2,0,P|243:160|286:159,1,79.9999999999998,4|0,0:0|0:0,0:0:0:0:
364,191,20992,2,0,P|378:228|379:271,1,79.9999999999998,4|0,0:0|0:0,0:0:0:0:
437,334,21751,6,0,B|466:279|466:279|456:223|469:171,1,160,8|2,0:0|0:0,0:0:0:0:
422,105,22889,1,0,0:0:0:0:
334,118,23269,2,0,B|297:127|297:127|253:153,1,79.9999999999998,0|8,0:0|0:0,0:0:0:0:
216,224,24028,2,0,B|176:243|176:243|135:259,1,79.9999999999998,0|8,0:0|0:0,0:0:0:0:
64,215,24787,2,0,P|23:231|7:344,1,160,0|10,0:0|0:0,0:0:0:0:
86,355,25925,1,0,0:0:0:0:
173,345,26305,6,0,L|252:305,1,79.9999999999998,8|0,0:0|0:0,0:0:0:0:
299,240,27064,2,0,P|332:232|370:166,1,79.9999999999998,8|0,0:0|0:0,0:0:0:0:
404,121,27823,2,8,P|298:88|250:89,1,160
269,174,28962,1,0,0:0:0:0:
213,241,29341,2,0,P|192:267|131:277,1,79.9999999999998,0|8,0:0|0:0,0:0:0:0:
61,267,30100,2,0,L|50:187,1,79.9999999999998,8|8,0:0|0:0,0:0:0:0:
29,102,30859,6,0,P|91:57|162:87,1,160,0|8,0:0|0:0,0:0:0:0:
228,146,31998,1,0,0:0:0:0:
311,119,32377,2,0,P|349:137|386:142,1,79.9999999999998,0|8,0:0|0:0,0:0:0:0:
433,216,33136,2,0,L|360:249,1,79.9999999999998,8|0,0:0|0:0,0:0:0:0:
290,303,33895,6,0,B|233:248|233:248|228:135,1,160,4|4,0:0|0:0,0:0:0:0:
307,126,35034,1,0,0:0:0:0:
235,74,35414,2,0,B|150:61|150:61|77:106,1,160,4|4,0:0|0:0,0:0:0:0:
3,115,36552,1,0,0:0:0:0:
54,186,36932,2,0,P|93:227|129:242,1,79.9999999999998,0|2,0:0|0:0,0:0:0:0:
193,273,37691,2,0,P|216:234|259:209,1,79.9999999999998,0|2,0:0|0:0,0:0:0:0:
292,287,38450,6,0,B|335:297|335:297|375:291,1,79.9999999999998,0|2,0:0|0:0,0:0:0:0:
433,229,39209,2,0,B|443:186|443:186|437:150,1,79.9999999999998,2|2,0:0|0:0,0:0:0:0:
357,113,39968,2,0,B|318:46|318:46|228:49,1,160,4|10,0:0|0:0,0:0:0:0:
160,94,41106,1,0,0:0:0:0:
125,174,41486,2,0,L|158:260,1,79.9999999999998,2|0,0:0|0:0,0:0:0:0:
239,231,42245,2,0,L|334:255,1,79.9999999999998,2|0,0:0|0:0,0:0:0:0:
346,167,43004,6,0,P|398:144|466:56,1,160,8|2,0:0|0:0,0:0:0:0:
385,22,44143,1,0,0:0:0:0:
298,35,44522,2,0,B|299:76|299:76|278:113,1,79.9999999999998,8|0,0:0|0:0,0:0:0:0:
189,111,45281,2,0,P|204:148|206:209,1,79.9999999999998,8|0,0:0|0:0,0:0:0:0:
120,184,46040,6,8,P|104:256|137:343,1,160,8|10,0:0|0:0,0:0:0:0:
205,287,47179,1,0,0:0:0:0:
277,237,47558,2,0,B|285:253|308:259|308:259|325:277|349:277,1,79.9999999999998,0|8,0:0|0:0,0:0:0:0:
409,218,48317,2,0,P|425:194|425:138,1,79.9999999999998,0|8,0:0|0:0,0:0:0:0:
367,79,49076,6,0,P|287:71|239:135,1,160,0|8,0:0|0:0,0:0:0:0:
161,165,50215,1,0,0:0:0:0:
83,122,50595,2,0,P|51:162|35:202,1,79.9999999999998,0|8,0:0|0:0,0:0:0:0:
95,255,51354,2,0,P|119:295|159:319,1,79.9999999999998,0|8,0:0|0:0,0:0:0:0:
224,273,52113,6,0,P|288:249|336:161,1,160,0|4,0:0|0:0,0:0:0:0:
397,111,53251,1,0,0:0:0:0:
367,28,53631,2,0,P|289:26|235:83,1,160,0|4,0:0|0:0,0:0:0:0:
167,137,54769,1,0,0:0:0:0:
93,184,55149,6,0,P|108:220|134:250,1,79.9999999999998,0|8,0:0|0:0,0:0:0:0:
222,252,55908,2,0,P|270:220|302:164,1,79.9999999999998,0|8,0:0|0:0,0:0:0:0:
291,115,56667,2,0,P|275:78|249:48,1,79.9999999999998,0|8,0:0|0:0,0:0:0:0:
158,39,57426,2,0,P|110:71|78:127,1,79.9999999999998,0|8,0:0|0:0,0:0:0:0:
136,166,58185,6,0,B|66:153|66:153|21:237,1,160,2|8,0:0|0:0,0:0:0:0:
107,260,59324,1,0,0:0:0:0:
194,249,59703,2,0,P|205:287|222:323,1,79.9999999999998,0|8,0:0|0:0,0:0:0:0:
301,283,60462,2,0,P|325:218|315:178,1,79.9999999999998,0|8,0:0|0:0,0:0:0:0:
293,126,61221,6,0,B|220:138|220:138|148:90,1,160,0|8,0:0|0:0,0:0:0:0:
60,95,62360,1,0,0:0:0:0:
75,181,62739,2,0,P|51:277|35:293,1,79.9999999999998
129,316,63498,2,0,P|168:319|207:311,1,79.9999999999998,8|0,0:0|0:0,0:0:0:0:
263,242,64257,6,0,P|215:162|207:42,1,160,0|8,0:0|0:0,0:0:0:0:
116,79,65396,1,0,0:0:0:0:
90,163,65776,2,0,B|58:187|58:187|18:195,1,79.9999999999998,0|8,0:0|0:0,0:0:0:0:
52,276,66535,2,0,P|108:284|140:300,1,79.9999999999998,0|8,0:0|0:0,0:0:0:0:
202,342,67294,6,0,P|262:293|260:216,1,160,0|8,0:0|0:0,0:0:0:0:
238,130,68432,1,0,0:0:0:0:
155,160,68812,2,0,B|123:136|123:136|99:88,1,79.9999999999998,0|8,0:0|0:0,0:0:0:0:
181,56,69571,2,0,B|205:16|205:16|235:3,1,79.9999999999998,0|8,0:0|0:0,0:0:0:0:
317,35,70330,6,0,B|365:83|309:139|341:187,1,160,0|4,0:0|0:0,0:0:0:0:
428,339,71848,2,0,B|476:291|420:251|460:179,1,160,0|4,0:0|0:0,0:0:0:0:
229,104,73366,2,0,L|246:191,1,79.9999999999998,0|8,0:0|0:0,0:0:0:0:
176,238,74125,2,0,P|221:276|245:284,1,79.9999999999998,0|8,0:0|0:0,0:0:0:0:
320,240,74884,2,0,L|329:319,1,79.9999999999998,0|8,0:0|0:0,0:0:0:0:
416,352,75643,1,0,0:0:0:0:
488,304,76023,1,4,0:0:0:0:
48,48,80497,6,0,B|96:80|136:64|136:64|152:104|192:120,1,160,4|8,0:0|0:0,0:0:0:0:
280,256,82142,2,0,B|320:288|360:288|360:288|384:248|392:216,1,160,4|8,0:0|0:0,0:0:0:0:
312,64,83788,2,0,P|256:40|184:96,1,160,4|8,0:0|0:0,0:0:0:0:
96,248,85434,2,0,B|128:304|128:304|176:312|216:256,1,160,4|8,0:0|0:0,0:0:0:0:
272,104,87080,2,0,B|288:152|328:192|328:192|360:192|384:224,1,160,4|8,0:0|0:0,0:0:0:0:
240,328,88725,2,0,P|152:344|104:288,1,160,4|8,0:0|0:0,0:0:0:0:
72,216,89960,1,0,0:0:0:0:
104,136,90371,6,0,P|160:112|264:144,1,160,4|8,0:0|0:0,0:0:0:0:
368,264,92017,2,0,P|408:184|408:104,1,160,4|8,0:0|0:0,0:0:0:0:
256,40,93663,2,0,B|232:64|224:112|224:112|256:128|264:168|264:168|232:184|224:248|224:248|256:264|256:320,1,319.999999999999,4|0,0:0|0:0,0:0:0:0:
88,248,96131,1,4,0:0:0:0:
24,80,96954,2,0,P|64:72|192:104,1,160,4|8,0:0|0:0,0:0:0:0:
216,264,98600,2,0,B|264:288|288:280|288:280|320:256|344:264|344:264|376:272,1,160,4|8,0:0|0:0,0:0:0:0:
456,288,99834,1,0,0:0:0:0:
480,200,100246,6,0,P|456:136|360:120,1,160,4|8,0:0|0:0,0:0:0:0:
208,168,101892,2,0,B|160:216|160:216|128:208|112:128,1,160,4|8,0:0|0:0,0:0:0:0:
232,8,103537,2,0,P|328:56|360:112,1,160,4|8,0:0|0:0,0:0:0:0:
312,272,105183,2,0,B|232:288|232:288|152:280,1,160,4|8,0:0|0:0,0:0:0:0:
168,104,106829,2,0,P|232:80|320:120,1,160,4|8,0:0|0:0,0:0:0:0:
232,272,108475,2,0,P|298:228|376:216,1,160,4|8,0:0|0:0,0:0:0:0:
432,144,109709,1,0,0:0:0:0:
400,64,110121,6,0,P|352:48|248:88,1,160,4|8,0:0|0:0,0:0:0:0:
104,176,111766,2,0,P|40:296|48:320,1,160,4|8,0:0|0:0,0:0:0:0:
216,328,113412,2,0,P|344:264|360:248,1,160,4|8,0:0|0:0,0:0:0:0:
240,120,115058,2,0,P|160:80|88:112,2,160,4|8|4,0:0|0:0|0:0,0:0:0:0:
256,192,116806,12,4,122276,0:0:0:0:
229,111,122645,6,0,B|261:119|261:119|317:151,1,79.9999999999998,0|8,0:0|0:0,0:0:0:0:
326,226,123383,1,0,0:0:0:0:
279,300,123752,2,0,P|215:324|191:324,1,79.9999999999998,4|0,0:0|0:0,0:0:0:0:
120,280,124491,1,8,0:0:0:0:
151,197,124860,1,0,0:0:0:0:
110,119,125229,2,0,P|157:95|174:63,1,79.9999999999998,4|0,0:0|0:0,0:0:0:0:
243,23,125968,2,0,P|275:63|283:103,1,79.9999999999998,8|0,0:0|0:0,0:0:0:0:
260,175,126706,2,0,P|292:191|340:199,1,79.9999999999998,4|0,0:0|0:0,0:0:0:0:
403,254,127445,2,0,P|419:230|427:174,1,79.9999999999998,8|0,0:0|0:0,0:0:0:0:
368,114,128183,6,0,L|288:82,1,79.9999999999998,4|0,0:0|0:0,0:0:0:0:
206,98,128922,2,0,P|182:138|174:170,1,79.9999999999998,8|0,0:0|0:0,0:0:0:0:
149,254,129660,2,0,L|173:342,1,79.9999999999998,4|0,0:0|0:0,0:0:0:0:
257,345,130399,2,0,P|313:353|345:337,1,79.9999999999998,8|0,0:0|0:0,0:0:0:0:
375,267,131137,2,0,B|343:235|343:203|343:203|367:187|383:163|383:163|375:123|375:123,1,160,4|8,0:0|0:0,0:0:0:0:
301,89,132245,1,0,0:0:0:0:
220,124,132614,2,0,B|188:156|188:156|148:164,1,79.9999999999998,4|0,0:0|0:0,0:0:0:0:
83,110,133352,1,8,0:0:0:0:
27,178,133722,1,0,0:0:0:0:
54,261,134091,6,0,P|94:293|126:301,1,79.9999999999998,4|0,0:0|0:0,0:0:0:0:
203,270,134829,2,0,L|291:246,1,79.9999999999998,8|0,0:0|0:0,0:0:0:0:
368,254,135568,2,0,P|392:198|392:174,1,79.9999999999998,4|0,0:0|0:0,0:0:0:0:
360,97,136306,2,0,B|321:92|321:92|272:97,1,79.9999999999998,8|0,0:0|0:0,0:0:0:0:
212,152,137045,2,0,P|148:176|124:176,1,79.9999999999998,4|0,0:0|0:0,0:0:0:0:
51,156,137783,2,0,P|35:188|43:244,1,79.9999999999998,8|0,0:0|0:0,0:0:0:0:
88,303,138522,2,0,B|119:335|119:335|152:351,1,79.9999999999998,4|0,0:0|0:0,0:0:0:0:
236,329,139260,1,8,0:0:0:0:
289,259,139629,1,0,0:0:0:0:
376,272,139999,6,0,P|408:240|424:208,1,79.9999999999998,4|0,0:0|0:0,0:0:0:0:
366,142,140737,2,0,P|358:86|342:54,1,79.9999999999998,8|0,0:0|0:0,0:0:0:0:
261,80,141476,2,0,P|229:64|189:32,1,79.9999999999998,4|0,0:0|0:0,0:0:0:0:
121,86,142214,2,0,P|113:142|121:174,1,79.9999999999998,8|0,0:0|0:0,0:0:0:0:
176,230,142952,6,0,P|208:238|248:278,1,79.9999999999998,4|0,0:0|0:0,0:0:0:0:
313,320,143691,2,0,P|361:320|401:312,1,79.9999999999998,8|0,0:0|0:0,0:0:0:0:
425,232,144429,1,4,0:0:0:0:
345,192,144799,1,0,0:0:0:0:
260,217,145168,1,8,0:0:0:0:
177,187,145537,1,0,0:0:0:0:
207,141,148936,6,0,P|153:128|91:210,1,160,2|8,0:0|0:0,0:0:0:0:
139,272,150074,1,0,0:0:0:0:
226,282,150454,2,0,P|307:266|342:283,1,79.9999999999998,8|0,0:0|0:0,0:0:0:0:
356,334,151213,2,8,P|402:324|460:299,1,79.9999999999998,8|0,0:0|0:0,0:0:0:0:
461,228,151973,2,0,B|429:151|429:151|328:122|308:119,1,160,8|2,0:0|0:0,0:0:0:0:
269,150,153111,1,0,0:0:0:0:
191,108,153491,2,0,P|170:181|191:219,1,79.9999999999998,8|0,0:0|0:0,0:0:0:0:
245,226,154250,2,0,P|246:318|242:328,1,79.9999999999998,8|0,0:0|0:0,0:0:0:0:
167,337,155010,6,0,P|45:329|1:307,1,160,0|2,0:0|0:0,0:0:0:0:
52,235,156148,1,0,0:0:0:0:
55,146,156528,2,0,P|160:109|182:85,1,79.9999999999998,8|0,0:0|0:0,0:0:0:0:
200,183,157287,2,0,P|272:227|290:255,1,79.9999999999998,8|0,0:0|0:0,0:0:0:0:
335,279,158047,2,8,P|393:179|394:105,1,160,8|2,0:0|0:0,0:0:0:0:
321,92,159185,1,0,0:0:0:0:
237,120,159565,2,0,L|117:78,1,79.9999999999998
92,148,160324,6,4,P|29:217|68:325,1,160
