osu file format v14

[General]
AudioFilename: audio.mp3
AudioLeadIn: 0
PreviewTime: 3249
Countdown: 0
SampleSet: Normal
StackLeniency: 0.7
Mode: 0
LetterboxInBreaks: 0
WidescreenStoryboard: 0

[Editor]
DistanceSpacing: 0.7
BeatDivisor: 4
GridSize: 4
TimelineZoom: 2.200001

[Metadata]
Title:Imaginary Places
TitleUnicode:Imaginary Places
Artist:Busdriver
ArtistUnicode:Busdriver
Creator:Moreon
Version:Doing it sideways
Source:
Tags:phoon NeBu Busdriver Rdzeniu Streams Hatiso Moreon Rap sbsonic Andemu Asrasz LukerMaster Chalwa CptSqBany DominiGG AnySense squirrelpascals Fieryrage tem Squishi Soiplox Script
BeatmapID:1343925
BeatmapSetID:632870

[Difficulty]
HPDrainRate:6.7
CircleSize:4
OverallDifficulty:8
ApproachRate:9.6
SliderMultiplier:1.4
SliderTickRate:1

[Events]
//Background and Video events
0,0,"BG.jpg",0,0
//Break Periods
//Storyboard Layer 0 (Background)
//Storyboard Layer 1 (Fail)
//Storyboard Layer 2 (Pass)
//Storyboard Layer 3 (Foreground)
//Storyboard Sound Samples

[TimingPoints]
497.668789808917,379.525605095541,4,1,0,66,1,0
699,-50,4,1,0,66,0,0
3154,-50,4,1,0,70,0,0
35224,-50,4,1,0,70,0,0
36837,-133.333333333333,4,1,0,70,0,0
37596,-66.6666666666667,4,1,0,70,0,0
38545,-50,4,1,0,70,0,0
75928,-200,4,1,0,70,0,0
76794,411.444676258992,4,1,0,60,1,0
80291,-166.666666666667,4,1,0,60,0,0
88623,-100,4,1,0,60,0,0
89754,-66.6666666666667,4,1,0,60,0,0
90268,-125,4,1,0,60,0,0
92531,-153.846153846153,4,1,0,60,0,0
95000,-200,4,1,0,60,0,0
96440,-153.846153846154,4,1,0,60,0,0
99320,-66.6666666666667,4,1,0,60,0,0
100246,-111.111111111111,4,1,0,60,0,0
101583,-66.6666666666667,4,1,0,60,0,0
102406,-90.9090909090909,4,1,0,60,0,0
104772,-153.846153846153,4,1,0,60,0,0
116601,-100,4,1,0,60,0,0
118041,-100,4,1,0,60,0,0
118864,-111.111111111111,4,1,0,60,0,0
122276,369.230769230769,4,1,0,80,1,0
122276,-100,4,1,0,80,0,0
128091,-83.3333333333333,4,1,0,80,0,0
129660,-50,4,1,0,80,0,0
130761,-83.3333333333333,4,1,0,80,0,0
136676,-50,4,1,0,80,0,0
138522,-83.3333333333333,4,1,0,80,0,0
145899,379.625605095541,4,1,0,80,1,1
145993,-83.3333333333333,4,1,0,20,0,1
146373,-83.3333333333333,4,1,0,25,0,1
146753,-83.3333333333333,4,1,0,35,0,1
147132,-83.3333333333333,4,1,0,50,0,1
147512,-83.3333333333333,4,1,0,65,0,1
147892,-83.3333333333333,4,1,0,80,0,1
148271,-83.3333333333333,4,1,0,85,0,1
149030,-50,4,1,0,85,0,1
161107,369.125605095541,4,1,0,70,1,0
161107,-83.3333333333333,4,1,0,70,0,0
185007,-111.111111111111,4,1,0,70,0,0
187459,426.625605095542,4,1,0,60,1,0
193538,-100,4,1,0,5,0,0

[HitObjects]
140,320,497,5,0,0:0:0:0:
100,216,687,1,0,0:0:0:0:
93,191,782,1,0,0:0:0:0:
86,167,877,1,0,0:0:0:0:
164,64,1066,5,0,0:0:0:0:
188,56,1161,1,0,0:0:0:0:
212,48,1256,1,0,0:0:0:0:
392,140,1446,5,0,0:0:0:0:
402,172,1541,1,0,0:0:0:0:
412,200,1636,1,0,0:0:0:0:
168,304,1826,5,0,0:0:0:0:
146,315,1920,1,0,0:0:0:0:
125,327,2015,1,0,0:0:0:0:
336,264,2205,2,0,B|379:254|379:254|433:190,2,70
152,76,2585,2,0,P|116:92|104:128,2,70
380,220,2964,2,0,P|385:259|361:288,2,70
88,216,3344,5,0,0:0:0:0:
352,56,3533,1,0,0:0:0:0:
320,248,3723,5,0,0:0:0:0:
306,265,3818,1,0,0:0:0:0:
293,282,3913,1,0,0:0:0:0:
144,112,4103,1,0,0:0:0:0:
120,86,4197,1,0,0:0:0:0:
96,60,4292,1,0,0:0:0:0:
360,156,4482,2,0,L|262:215,1,70
152,256,4672,1,0,0:0:0:0:
312,320,4862,6,0,B|236:320|236:320|212:260,1,140
440,64,5241,1,0,0:0:0:0:
408,196,5431,1,0,0:0:0:0:
364,220,5526,1,0,0:0:0:0:
316,228,5621,1,0,0:0:0:0:
268,220,5716,1,0,0:0:0:0:
224,196,5810,1,0,0:0:0:0:
180,172,5905,1,0,0:0:0:0:
132,164,6000,1,0,0:0:0:0:
84,172,6095,1,0,0:0:0:0:
40,196,6190,1,0,0:0:0:0:
240,76,6380,1,0,0:0:0:0:
272,240,6570,5,0,0:0:0:0:
368,88,6759,1,0,0:0:0:0:
368,88,6854,1,0,0:0:0:0:
368,88,6949,1,0,0:0:0:0:
62,320,7139,2,0,L|132:320,2,70
216,148,7518,1,0,0:0:0:0:
226,123,7613,1,0,0:0:0:0:
236,100,7708,6,0,P|280:40|348:32,1,140
420,332,8088,1,0,0:0:0:0:
84,240,8277,1,0,0:0:0:0:
216,328,8467,1,0,0:0:0:0:
222,278,8562,1,0,0:0:0:0:
244,234,8657,1,0,0:0:0:0:
278,200,8752,1,0,0:0:0:0:
324,179,8846,1,0,0:0:0:0:
369,157,8941,1,0,0:0:0:0:
404,123,9036,1,0,0:0:0:0:
425,79,9131,1,0,0:0:0:0:
432,30,9226,1,0,0:0:0:0:
116,192,9416,5,0,0:0:0:0:
160,332,9606,2,0,P|188:268|292:252,1,140
260,244,9890,1,0,0:0:0:0:
266,249,9985,1,0,0:0:0:0:
80,244,10175,5,0,0:0:0:0:
80,244,10270,1,0,0:0:0:0:
80,244,10365,1,0,0:0:0:0:
208,96,10555,5,0,0:0:0:0:
230,69,10649,1,0,0:0:0:0:
253,42,10744,1,0,0:0:0:0:
408,196,10934,5,0,0:0:0:0:
364,220,11029,1,0,0:0:0:0:
316,228,11124,1,0,0:0:0:0:
268,220,11219,1,0,0:0:0:0:
224,196,11313,1,0,0:0:0:0:
180,172,11408,1,0,0:0:0:0:
132,164,11503,1,0,0:0:0:0:
84,172,11598,1,0,0:0:0:0:
40,196,11693,1,0,0:0:0:0:
64,239,11788,1,0,0:0:0:0:
101,271,11883,1,0,0:0:0:0:
146,290,11978,1,0,0:0:0:0:
196,293,12073,1,0,0:0:0:0:
244,288,12168,1,0,0:0:0:0:
292,276,12262,1,0,0:0:0:0:
328,76,12452,5,0,0:0:0:0:
416,304,12642,1,0,0:0:0:0:
140,236,12832,2,0,P|133:165|136:162,1,70
372,176,13022,1,0,0:0:0:0:
224,276,13211,5,0,0:0:0:0:
224,276,13306,1,0,0:0:0:0:
224,276,13401,1,0,0:0:0:0:
126,134,13591,5,0,0:0:0:0:
108,120,13686,1,0,0:0:0:0:
89,105,13781,1,0,0:0:0:0:
312,44,13970,1,0,0:0:0:0:
108,320,14160,1,0,0:0:0:0:
132,335,14255,1,0,0:0:0:0:
160,343,14350,1,0,0:0:0:0:
190,340,14445,1,0,0:0:0:0:
216,328,14540,1,0,0:0:0:0:
238,308,14635,1,0,0:0:0:0:
255,279,14730,1,0,0:0:0:0:
267,305,14824,5,0,0:0:0:0:
288,326,14919,1,0,0:0:0:0:
314,340,15014,1,0,0:0:0:0:
343,343,15109,1,0,0:0:0:0:
372,338,15204,1,0,0:0:0:0:
397,323,15299,1,0,0:0:0:0:
272,152,15488,1,0,0:0:0:0:
112,260,15678,1,0,0:0:0:0:
384,84,15868,5,0,0:0:0:0:
92,92,16058,1,0,0:0:0:0:
384,84,16247,1,0,0:0:0:0:
148,128,16437,1,0,0:0:0:0:
384,84,16627,1,0,0:0:0:0:
204,160,16817,1,0,0:0:0:0:
384,84,17007,1,0,0:0:0:0:
56,48,17196,5,0,0:0:0:0:
200,80,17386,1,0,0:0:0:0:
76,168,17576,1,0,0:0:0:0:
300,128,17766,1,0,0:0:0:0:
120,288,17955,1,0,0:0:0:0:
328,240,18145,1,0,0:0:0:0:
224,324,18335,1,0,0:0:0:0:
336,336,18525,1,0,0:0:0:0:
32,267,18714,5,0,0:0:0:0:
68,289,18809,1,0,0:0:0:0:
108,296,18904,1,0,0:0:0:0:
150,290,18999,1,0,0:0:0:0:
187,270,19094,1,0,0:0:0:0:
214,239,19189,1,0,0:0:0:0:
230,200,19284,1,0,0:0:0:0:
242,160,19379,1,0,0:0:0:0:
242,119,19473,1,0,0:0:0:0:
260,81,19568,5,0,0:0:0:0:
292,55,19663,1,0,0:0:0:0:
333,46,19758,1,0,0:0:0:0:
373,55,19853,1,0,0:0:0:0:
406,81,19948,1,0,0:0:0:0:
424,119,20043,1,0,0:0:0:0:
437,158,20138,1,0,0:0:0:0:
435,197,20233,5,0,0:0:0:0:
425,249,20327,1,0,0:0:0:0:
394,291,20422,1,0,0:0:0:0:
347,314,20517,1,0,0:0:0:0:
296,314,20612,1,0,0:0:0:0:
251,299,20707,1,0,0:0:0:0:
209,268,20802,1,0,0:0:0:0:
183,226,20897,5,0,0:0:0:0:
189,175,20992,1,0,0:0:0:0:
222,135,21086,1,0,0:0:0:0:
273,124,21181,1,0,0:0:0:0:
323,119,21276,1,0,0:0:0:0:
368,141,21371,1,0,0:0:0:0:
407,169,21466,1,0,0:0:0:0:
439,206,21561,1,0,0:0:0:0:
440,254,21656,1,0,0:0:0:0:
418,298,21751,1,0,0:0:0:0:
228,104,21940,5,0,0:0:0:0:
228,104,22035,1,0,0:0:0:0:
228,104,22130,1,0,0:0:0:0:
156,260,22321,5,0,0:0:0:0:
142,292,22415,1,0,0:0:0:0:
128,324,22510,1,0,0:0:0:0:
296,100,22699,2,0,B|340:124|340:124|376:160,1,70
296,212,22889,2,0,B|264:276|264:276|196:306,1,140
248,120,23269,1,0,0:0:0:0:
96,208,23458,1,0,0:0:0:0:
200,100,23648,5,0,0:0:0:0:
214,80,23743,1,0,0:0:0:0:
233,64,23838,1,0,0:0:0:0:
255,53,23933,1,0,0:0:0:0:
278,48,24028,1,0,0:0:0:0:
303,49,24123,1,0,0:0:0:0:
328,56,24218,1,0,0:0:0:0:
355,67,24312,1,0,0:0:0:0:
380,80,24407,2,0,P|429:133|429:226,1,140
100,108,24787,5,0,0:0:0:0:
368,204,24977,2,0,L|438:248,2,70
144,204,25356,2,0,L|74:248,2,70
368,112,25736,1,0,0:0:0:0:
387,91,25831,1,0,0:0:0:0:
406,71,25925,1,0,0:0:0:0:
232,260,26115,6,0,B|162:303|162:303|79:287,1,140
260,76,26495,1,0,0:0:0:0:
140,112,26684,1,0,0:0:0:0:
109,125,26779,1,0,0:0:0:0:
84,147,26874,1,0,0:0:0:0:
66,175,26969,1,0,0:0:0:0:
56,208,27064,1,0,0:0:0:0:
56,241,27159,1,0,0:0:0:0:
66,273,27254,1,0,0:0:0:0:
84,301,27349,1,0,0:0:0:0:
109,323,27443,1,0,0:0:0:0:
452,216,27633,1,0,0:0:0:0:
312,56,27823,5,0,0:0:0:0:
160,232,28013,2,0,L|96:280,2,70
344,136,28392,5,0,0:0:0:0:
377,126,28486,1,0,0:0:0:0:
411,117,28581,1,0,0:0:0:0:
152,168,28772,5,0,0:0:0:0:
116,169,28867,1,0,0:0:0:0:
82,171,28961,1,0,0:0:0:0:
344,288,29151,5,0,0:0:0:0:
128,64,29341,1,0,0:0:0:0:
156,300,29531,1,0,0:0:0:0:
304,56,29721,5,0,0:0:0:0:
338,73,29815,1,0,0:0:0:0:
368,96,29910,1,0,0:0:0:0:
394,125,30005,1,0,0:0:0:0:
413,158,30100,1,0,0:0:0:0:
426,194,30195,1,0,0:0:0:0:
432,232,30290,1,0,0:0:0:0:
431,271,30385,1,0,0:0:0:0:
424,312,30480,2,0,L|236:332,1,140
408,60,30859,5,0,0:0:0:0:
144,264,31049,2,0,L|77:302,2,70
388,168,31429,1,0,0:0:0:0:
411,161,31523,1,0,0:0:0:0:
435,155,31618,1,0,0:0:0:0:
124,204,31808,2,0,L|44:220,2,70
368,308,32188,2,0,P|439:290|399:255,2,140
84,56,32757,5,0,0:0:0:0:
78,94,32851,1,0,0:0:0:0:
82,132,32946,1,0,0:0:0:0:
96,168,33041,1,0,0:0:0:0:
118,199,33136,1,0,0:0:0:0:
136,232,33231,1,0,0:0:0:0:
161,261,33325,1,0,0:0:0:0:
192,282,33420,1,0,0:0:0:0:
228,296,33515,1,0,0:0:0:0:
32,212,33705,1,0,0:0:0:0:
232,112,33895,6,0,B|312:72|312:72|416:72,1,140
192,240,34275,2,0,B|124:298|124:298|23:323,1,140
320,188,34654,2,0,B|408:202|408:202|492:263,1,140
172,124,35034,1,0,0:0:0:0:
368,304,35224,1,0,0:0:0:0:
68,128,35414,6,0,P|88:56|160:48,2,140
240,36,35983,1,0,0:0:0:0:
176,216,36173,2,0,L|60:316,1,140
328,112,36552,2,0,P|372:51|442:70,1,140
32,116,36932,5,0,0:0:0:0:
68,94,37027,1,0,0:0:0:0:
108,87,37121,1,0,0:0:0:0:
150,93,37216,1,0,0:0:0:0:
187,113,37311,1,0,0:0:0:0:
214,144,37406,1,0,0:0:0:0:
230,183,37501,1,0,0:0:0:0:
242,223,37597,1,0,0:0:0:0:
242,264,37691,1,0,0:0:0:0:
260,302,37786,5,0,0:0:0:0:
292,328,37881,1,0,0:0:0:0:
333,337,37976,1,0,0:0:0:0:
373,328,38071,1,0,0:0:0:0:
406,302,38166,1,0,0:0:0:0:
424,264,38261,1,0,0:0:0:0:
437,225,38356,1,0,0:0:0:0:
435,186,38451,5,0,0:0:0:0:
425,134,38545,1,0,0:0:0:0:
394,92,38640,1,0,0:0:0:0:
347,69,38735,1,0,0:0:0:0:
296,69,38830,1,0,0:0:0:0:
251,84,38925,1,0,0:0:0:0:
209,115,39020,1,0,0:0:0:0:
183,157,39115,5,0,0:0:0:0:
189,208,39210,1,0,0:0:0:0:
222,248,39304,1,0,0:0:0:0:
273,259,39399,1,0,0:0:0:0:
323,264,39494,1,0,0:0:0:0:
368,242,39589,1,0,0:0:0:0:
407,214,39684,1,0,0:0:0:0:
439,177,39779,1,0,0:0:0:0:
80,224,39968,5,0,0:0:0:0:
328,260,40158,2,0,L|416:308,2,70
260,104,40537,1,0,0:0:0:0:
236,77,40632,1,0,0:0:0:0:
213,51,40727,1,0,0:0:0:0:
104,312,40917,2,0,B|133:290|133:290|162:266,1,70
328,120,41106,1,0,0:0:0:0:
392,272,41296,6,0,P|348:248|324:316,1,140
260,44,41676,1,0,0:0:0:0:
80,96,41865,5,0,0:0:0:0:
63,143,41959,1,0,0:0:0:0:
82,190,42054,1,0,0:0:0:0:
127,214,42149,1,0,0:0:0:0:
176,201,42245,1,0,0:0:0:0:
205,160,42340,1,0,0:0:0:0:
238,126,42435,1,0,0:0:0:0:
274,90,42530,1,0,0:0:0:0:
324,88,42625,1,0,0:0:0:0:
56,272,42814,5,0,0:0:0:0:
432,52,43004,1,0,0:0:0:0:
212,220,43194,1,0,0:0:0:0:
180,256,43289,1,0,0:0:0:0:
148,296,43384,1,0,0:0:0:0:
248,112,43573,1,0,0:0:0:0:
220,72,43668,1,0,0:0:0:0:
189,31,43763,1,0,0:0:0:0:
80,148,43953,1,0,0:0:0:0:
70,181,44048,1,0,0:0:0:0:
61,215,44143,1,0,0:0:0:0:
348,84,44332,1,0,0:0:0:0:
60,320,44522,5,0,0:0:0:0:
85,276,44617,1,0,0:0:0:0:
122,244,44712,1,0,0:0:0:0:
167,226,44807,1,0,0:0:0:0:
217,225,44901,1,0,0:0:0:0:
267,222,44996,1,0,0:0:0:0:
313,204,45091,1,0,0:0:0:0:
349,172,45186,1,0,0:0:0:0:
375,130,45281,1,0,0:0:0:0:
341,93,45376,1,0,0:0:0:0:
298,68,45471,1,0,0:0:0:0:
250,60,45566,1,0,0:0:0:0:
201,66,45661,1,0,0:0:0:0:
340,296,45850,1,0,0:0:0:0:
432,68,46040,5,0,0:0:0:0:
160,232,46230,1,0,0:0:0:0:
119,259,46325,1,0,0:0:0:0:
79,291,46420,1,0,0:0:0:0:
312,168,46610,1,0,0:0:0:0:
360,171,46705,1,0,0:0:0:0:
412,173,46800,1,0,0:0:0:0:
192,120,46989,1,0,0:0:0:0:
164,80,47084,1,0,0:0:0:0:
133,39,47179,1,0,0:0:0:0:
148,32,47558,5,0,0:0:0:0:
127,50,47653,1,0,0:0:0:0:
109,72,47748,1,0,0:0:0:0:
95,96,47843,1,0,0:0:0:0:
84,122,47938,1,0,0:0:0:0:
77,149,48033,1,0,0:0:0:0:
74,177,48128,1,0,0:0:0:0:
75,204,48223,1,0,0:0:0:0:
79,232,48317,1,0,0:0:0:0:
88,259,48412,1,0,0:0:0:0:
101,284,48507,1,0,0:0:0:0:
117,306,48602,1,0,0:0:0:0:
136,327,48697,1,0,0:0:0:0:
384,104,48887,1,0,0:0:0:0:
208,284,49076,5,0,0:0:0:0:
408,200,49266,2,0,P|421:142|378:104,1,70
168,76,49456,1,0,0:0:0:0:
320,264,49646,5,0,0:0:0:0:
347,286,49741,1,0,0:0:0:0:
374,308,49835,1,0,0:0:0:0:
132,204,50025,5,0,0:0:0:0:
98,214,50119,1,0,0:0:0:0:
65,225,50214,1,0,0:0:0:0:
240,36,50405,5,0,0:0:0:0:
448,112,50595,1,0,0:0:0:0:
445,150,50689,1,0,0:0:0:0:
438,188,50784,1,0,0:0:0:0:
424,224,50879,1,0,0:0:0:0:
405,257,50974,1,0,0:0:0:0:
381,287,51069,1,0,0:0:0:0:
352,312,51164,1,0,0:0:0:0:
316,327,51258,1,0,0:0:0:0:
280,339,51353,1,0,0:0:0:0:
242,345,51448,1,0,0:0:0:0:
203,344,51543,1,0,0:0:0:0:
165,337,51638,1,0,0:0:0:0:
132,328,51733,1,0,0:0:0:0:
332,64,51923,1,0,0:0:0:0:
48,180,52113,6,0,L|204:180,1,140
356,320,52492,2,0,L|168:320,1,140
356,144,52872,2,0,L|472:44,1,140
244,272,53251,2,0,B|200:340|112:340,1,140
100,136,53631,5,0,0:0:0:0:
125,70,53821,1,0,0:0:0:0:
190,95,54010,1,0,0:0:0:0:
165,161,54200,1,0,0:0:0:0:
100,136,54390,1,0,0:0:0:0:
144,32,54580,1,0,0:0:0:0:
256,80,54769,1,0,0:0:0:0:
204,188,54959,1,0,0:0:0:0:
60,88,55149,5,0,0:0:0:0:
50,125,55243,1,0,0:0:0:0:
52,163,55338,1,0,0:0:0:0:
63,200,55433,1,0,0:0:0:0:
84,232,55528,1,0,0:0:0:0:
113,257,55623,1,0,0:0:0:0:
147,274,55718,1,0,0:0:0:0:
185,281,55813,1,0,0:0:0:0:
224,280,55908,5,0,0:0:0:0:
261,273,56002,1,0,0:0:0:0:
296,256,56097,1,0,0:0:0:0:
325,231,56192,1,0,0:0:0:0:
346,198,56287,1,0,0:0:0:0:
357,162,56382,1,0,0:0:0:0:
358,123,56477,1,0,0:0:0:0:
349,86,56572,1,0,0:0:0:0:
340,56,56667,5,0,0:0:0:0:
306,36,56761,1,0,0:0:0:0:
269,26,56856,1,0,0:0:0:0:
231,26,56951,1,0,0:0:0:0:
194,37,57046,1,0,0:0:0:0:
161,57,57141,1,0,0:0:0:0:
135,85,57236,1,0,0:0:0:0:
118,119,57331,1,0,0:0:0:0:
112,148,57426,5,0,0:0:0:0:
102,185,57520,1,0,0:0:0:0:
104,223,57615,1,0,0:0:0:0:
115,260,57710,1,0,0:0:0:0:
136,292,57805,1,0,0:0:0:0:
165,317,57900,1,0,0:0:0:0:
199,334,57995,1,0,0:0:0:0:
237,341,58090,1,0,0:0:0:0:
268,344,58185,1,0,0:0:0:0:
392,184,58375,1,0,0:0:0:0:
425,175,58469,1,0,0:0:0:0:
456,159,58564,1,0,0:0:0:0:
220,240,58754,2,0,P|177:243|147:217,1,70
240,52,58944,1,0,0:0:0:0:
276,208,59134,5,0,0:0:0:0:
302,230,59229,1,0,0:0:0:0:
329,252,59324,2,0,L|444:344,1,140
208,316,59703,1,0,0:0:0:0:
376,56,59893,1,0,0:0:0:0:
152,244,60083,1,0,0:0:0:0:
168,220,60178,1,0,0:0:0:0:
192,200,60272,1,0,0:0:0:0:
215,184,60367,1,0,0:0:0:0:
241,170,60462,1,0,0:0:0:0:
266,155,60557,1,0,0:0:0:0:
291,139,60652,5,0,0:0:0:0:
315,122,60747,1,0,0:0:0:0:
337,102,60842,1,0,0:0:0:0:
240,316,61032,1,0,0:0:0:0:
72,144,61221,5,0,0:0:0:0:
352,200,61411,2,0,P|392:216|412:260,1,70
340,272,61601,1,0,0:0:0:0:
152,124,61791,1,0,0:0:0:0:
130,96,61885,1,0,0:0:0:0:
109,68,61980,1,0,0:0:0:0:
332,220,62170,5,0,0:0:0:0:
362,236,62264,1,0,0:0:0:0:
393,252,62359,1,0,0:0:0:0:
376,52,62550,1,0,0:0:0:0:
64,224,62739,1,0,0:0:0:0:
85,236,62834,1,0,0:0:0:0:
106,248,62929,1,0,0:0:0:0:
128,260,63024,1,0,0:0:0:0:
149,272,63119,1,0,0:0:0:0:
170,284,63214,1,0,0:0:0:0:
192,296,63309,5,0,0:0:0:0:
216,296,63404,1,0,0:0:0:0:
241,296,63498,1,0,0:0:0:0:
265,296,63593,1,0,0:0:0:0:
290,296,63688,1,0,0:0:0:0:
314,296,63783,1,0,0:0:0:0:
339,296,63878,1,0,0:0:0:0:
80,196,64068,1,0,0:0:0:0:
424,224,64257,5,0,0:0:0:0:
140,103,64447,1,0,0:0:0:0:
110,86,64542,1,0,0:0:0:0:
79,68,64637,1,0,0:0:0:0:
312,240,64827,1,0,0:0:0:0:
338,263,64922,1,0,0:0:0:0:
364,286,65017,1,0,0:0:0:0:
84,240,65206,6,0,P|90:170|129:184,1,70
292,44,65396,1,0,0:0:0:0:
228,280,65586,1,0,0:0:0:0:
76,40,65776,5,0,0:0:0:0:
102,52,65870,1,0,0:0:0:0:
127,67,65965,1,0,0:0:0:0:
150,85,66060,1,0,0:0:0:0:
172,105,66155,1,0,0:0:0:0:
193,125,66250,1,0,0:0:0:0:
216,144,66345,1,0,0:0:0:0:
241,160,66440,1,0,0:0:0:0:
267,174,66535,1,0,0:0:0:0:
294,185,66630,5,0,0:0:0:0:
321,196,66724,1,0,0:0:0:0:
349,207,66819,1,0,0:0:0:0:
376,224,66914,2,0,P|397:336|339:348,1,140
72,204,67294,5,0,0:0:0:0:
248,292,67483,2,0,L|328:355,2,70
168,132,67863,1,0,0:0:0:0:
154,99,67958,1,0,0:0:0:0:
140,67,68053,1,0,0:0:0:0:
92,264,68242,2,0,P|145:317|168:295,1,70
356,104,68432,1,0,0:0:0:0:
32,267,68622,5,0,0:0:0:0:
68,289,68717,1,0,0:0:0:0:
108,296,68812,1,0,0:0:0:0:
150,290,68907,1,0,0:0:0:0:
187,270,69002,1,0,0:0:0:0:
214,239,69096,1,0,0:0:0:0:
230,200,69191,1,0,0:0:0:0:
242,160,69286,1,0,0:0:0:0:
242,119,69381,1,0,0:0:0:0:
260,81,69476,5,0,0:0:0:0:
292,55,69571,1,0,0:0:0:0:
333,46,69666,1,0,0:0:0:0:
373,55,69761,1,0,0:0:0:0:
406,81,69856,1,0,0:0:0:0:
424,119,69951,1,0,0:0:0:0:
128,72,70140,1,0,0:0:0:0:
76,308,70330,6,0,L|264:308,1,140
453,238,70709,2,0,L|293:238,1,140
316,120,71089,2,0,P|380:68|444:100,1,140
160,208,71468,2,0,L|32:264,1,140
212,52,71848,5,0,0:0:0:0:
100,124,72038,1,0,0:0:0:0:
324,88,72228,1,0,0:0:0:0:
124,236,72417,1,0,0:0:0:0:
416,160,72607,1,0,0:0:0:0:
160,336,72797,1,0,0:0:0:0:
236,48,72987,1,0,0:0:0:0:
64,148,73176,1,0,0:0:0:0:
452,56,73366,5,0,0:0:0:0:
411,49,73461,1,0,0:0:0:0:
371,57,73556,1,0,0:0:0:0:
334,78,73651,1,0,0:0:0:0:
308,111,73746,1,0,0:0:0:0:
295,150,73840,1,0,0:0:0:0:
295,192,73935,1,0,0:0:0:0:
298,233,74030,1,0,0:0:0:0:
314,271,74125,1,0,0:0:0:0:
311,313,74220,5,0,0:0:0:0:
291,349,74315,1,0,0:0:0:0:
257,373,74410,1,0,0:0:0:0:
216,379,74505,1,0,0:0:0:0:
175,367,74600,1,0,0:0:0:0:
145,340,74695,1,0,0:0:0:0:
118,309,74790,1,0,0:0:0:0:
105,271,74885,5,0,0:0:0:0:
95,219,74979,1,0,0:0:0:0:
108,169,75074,1,0,0:0:0:0:
143,130,75169,1,0,0:0:0:0:
191,111,75264,1,0,0:0:0:0:
238,108,75359,1,0,0:0:0:0:
288,120,75454,1,0,0:0:0:0:
328,150,75549,5,0,0:0:0:0:
341,199,75644,1,0,0:0:0:0:
364,44,75833,1,0,0:0:0:0:
236,200,76023,2,0,L|154:275,1,70
72,148,80497,6,0,P|128:52|232:68,1,210
152,236,81731,2,0,L|136:288,3,41.9999987182618
332,168,82554,1,0,0:0:0:0:
160,108,82759,1,0,0:0:0:0:
232,228,82965,2,0,L|320:328,1,125.999996154785
320,48,83788,5,0,0:0:0:0:
180,216,83994,2,0,L|140:256,1,41.9999987182618
400,144,84405,2,0,P|427:120|444:125,3,41.9999987182618
192,72,85228,6,0,B|184:132|184:132|144:112|144:112|116:264,1,251.999992309571
228,28,86668,1,0,0:0:0:0:
344,132,86874,1,0,0:0:0:0:
160,264,87080,2,0,B|249:305|392:328|392:328|444:308,1,293.999991027832
224,84,88725,1,0,0:0:0:0:
96,164,88931,1,0,0:0:0:0:
256,208,89137,2,0,L|352:196,1,70
112,160,89548,2,0,L|88:80,1,70
196,144,89960,2,0,L|164:40,1,105.000004005432
408,296,90371,6,0,B|347:288|347:288|356:332|356:332|127:310,1,336
312,104,91811,1,0,0:0:0:0:
256,236,92017,1,0,0:0:0:0:
200,104,92223,1,0,0:0:0:0:
256,236,92428,1,0,0:0:0:0:
416,68,92634,2,0,B|448:140|408:208|408:208|400:308,1,227.499989585877
140,168,93868,5,0,0:0:0:0:
75,146,94074,1,0,0:0:0:0:
75,78,94280,1,0,0:0:0:0:
140,57,94485,1,0,0:0:0:0:
180,112,94691,1,0,0:0:0:0:
139,168,94897,1,0,0:0:0:0:
92,212,95103,2,0,P|128:316|216:348,1,210
344,288,96543,5,0,0:0:0:0:
284,168,96749,1,0,0:0:0:0:
52,260,96954,2,0,B|130:321|130:321|132:288|132:288|260:348,1,272.999987503052
176,216,98394,5,0,0:0:0:0:
221,101,98600,1,0,0:0:0:0:
346,157,98806,1,0,0:0:0:0:
290,282,99012,1,0,0:0:0:0:
165,226,99217,1,0,0:0:0:0:
248,32,99423,6,0,L|240:136,1,105.000004005432
432,64,99834,1,0,0:0:0:0:
312,184,100040,1,0,0:0:0:0:
104,216,100246,2,0,B|280:220|308:268|308:268|436:268|436:268|476:252,1,377.999988464356
256,68,101686,2,0,P|180:40|112:72,2,157.499995193482
404,324,102509,2,0,B|324:284|348:228|244:244|244:244|200:208,1,231.000007049561
398,92,103537,5,0,0:0:0:0:
374,152,103743,1,0,0:0:0:0:
334,203,103949,1,0,0:0:0:0:
282,242,104155,1,0,0:0:0:0:
220,261,104360,1,0,0:0:0:0:
155,265,104566,1,0,0:0:0:0:
104,232,104772,1,0,0:0:0:0:
76,176,104977,2,0,B|140:100|140:100|284:100,1,227.499989585877
402,250,106212,5,0,0:0:0:0:
402,250,106418,1,0,0:0:0:0:
402,250,106623,1,0,0:0:0:0:
52,32,106829,2,0,B|56:168|56:168|96:128|96:128|60:308,1,363.999983337403
380,48,108680,5,0,0:0:0:0:
380,48,108886,1,0,0:0:0:0:
380,48,109092,1,0,0:0:0:0:
436,168,109298,2,0,L|424:268,1,90.9999958343508
364,156,109915,2,0,L|356:220,1,45.4999979171754
98,58,110326,5,0,0:0:0:0:
368,328,110532,2,0,L|216:312,1,136.499993751526
188,80,111355,1,0,0:0:0:0:
265,116,111561,1,0,0:0:0:0:
193,165,111766,1,0,0:0:0:0:
336,36,111972,1,0,0:0:0:0:
356,224,112178,1,0,0:0:0:0:
193,165,112383,2,0,P|144:224|160:288,1,136.499993751526
140,104,113206,5,0,0:0:0:0:
204,124,113412,2,0,L|288:184,1,90.9999958343508
80,288,114029,1,0,0:0:0:0:
296,204,114235,1,0,0:0:0:0:
56,172,114441,1,0,0:0:0:0:
296,204,114646,1,0,0:0:0:0:
92,36,114852,2,0,L|144:176,1,136.499993751526
350,86,115675,5,0,0:0:0:0:
436,63,115881,1,0,0:0:0:0:
413,149,116086,1,0,0:0:0:0:
350,86,116292,1,0,0:0:0:0:
436,63,116498,1,0,0:0:0:0:
64,312,116704,2,0,B|176:312|176:312|204:272|320:228|476:332,1,420
196,68,118144,2,0,P|144:52|92:92,2,105
380,88,118967,2,0,B|348:200|348:200|428:180|428:180|348:276,1,314.999990386963
256,192,120201,12,0,122052,0:0:0:0:
96,32,122276,5,0,0:0:0:0:
74,77,122368,1,0,0:0:0:0:
66,127,122460,1,0,0:0:0:0:
70,177,122552,1,0,0:0:0:0:
88,224,122645,1,0,0:0:0:0:
116,265,122737,1,0,0:0:0:0:
155,297,122829,1,0,0:0:0:0:
200,319,122922,1,0,0:0:0:0:
250,328,123014,5,0,0:0:0:0:
300,324,123106,1,0,0:0:0:0:
348,308,123199,1,0,0:0:0:0:
385,274,123291,1,0,0:0:0:0:
413,232,123383,1,0,0:0:0:0:
431,185,123475,1,0,0:0:0:0:
436,135,123568,1,0,0:0:0:0:
124,300,123752,6,0,L|82:315,3,35
400,68,124122,2,0,L|452:36,3,35
80,156,124491,2,0,L|36:156,7,35
316,92,125229,5,0,0:0:0:0:
308,132,125322,1,0,0:0:0:0:
300,172,125414,2,0,L|288:232,1,35
208,76,125599,1,0,0:0:0:0:
200,116,125692,1,0,0:0:0:0:
192,156,125784,2,0,L|180:216,1,35
124,300,125968,2,0,L|76:300,3,35
388,300,126337,2,0,L|436:300,3,35
112,40,126706,5,0,0:0:0:0:
91,68,126798,1,0,0:0:0:0:
84,102,126890,1,0,0:0:0:0:
91,136,126982,1,0,0:0:0:0:
111,164,127075,1,0,0:0:0:0:
140,184,127167,1,0,0:0:0:0:
174,191,127259,1,0,0:0:0:0:
208,185,127352,1,0,0:0:0:0:
244,176,127445,5,0,0:0:0:0:
276,162,127537,1,0,0:0:0:0:
311,159,127629,1,0,0:0:0:0:
345,165,127721,1,0,0:0:0:0:
376,181,127814,1,0,0:0:0:0:
401,205,127906,1,0,0:0:0:0:
419,235,127998,1,0,0:0:0:0:
112,56,128183,6,0,L|36:64,3,41.9999987182618
224,96,128552,2,0,L|300:104,3,41.9999987182618
116,144,128922,6,0,L|40:152,3,41.9999987182618
224,184,129290,2,0,L|288:196,3,41.9999987182618
112,252,129660,6,0,P|116:292|148:304,1,70
164,136,129845,2,0,P|207:120|236:137,1,70
276,252,130029,2,0,P|272:292|240:304,1,70
164,136,130214,2,0,P|207:120|236:137,1,70
140,344,130399,2,0,P|93:338|75:309,1,70
340,252,130583,2,0,P|335:298|306:316,1,70
148,216,130768,2,0,L|100:192,3,41.9999987182618
436,32,131137,5,0,0:0:0:0:
437,73,131229,1,0,0:0:0:0:
432,115,131321,1,0,0:0:0:0:
421,155,131413,1,0,0:0:0:0:
404,194,131506,1,0,0:0:0:0:
380,229,131598,1,0,0:0:0:0:
352,260,131690,1,0,0:0:0:0:
319,286,131783,1,0,0:0:0:0:
283,306,131875,5,0,0:0:0:0:
243,321,131967,1,0,0:0:0:0:
202,330,132060,1,0,0:0:0:0:
160,332,132152,1,0,0:0:0:0:
122,314,132244,1,0,0:0:0:0:
94,283,132336,1,0,0:0:0:0:
83,243,132428,1,0,0:0:0:0:
400,56,132614,5,0,0:0:0:0:
392,96,132707,1,0,0:0:0:0:
384,136,132799,2,0,L|372:196,1,41.9999987182618
296,108,132983,1,0,0:0:0:0:
288,148,133076,1,0,0:0:0:0:
280,188,133168,2,0,L|268:248,1,41.9999987182618
188,168,133352,1,0,0:0:0:0:
180,208,133445,1,0,0:0:0:0:
172,248,133537,2,0,L|160:304,1,41.9999987182618
424,76,133722,2,0,L|387:116,3,41.9999987182618
60,316,134091,5,0,0:0:0:0:
78,278,134183,1,0,0:0:0:0:
97,240,134275,1,0,0:0:0:0:
116,203,134367,1,0,0:0:0:0:
132,164,134460,1,0,0:0:0:0:
150,126,134552,1,0,0:0:0:0:
182,100,134644,1,0,0:0:0:0:
223,90,134736,1,0,0:0:0:0:
263,98,134829,1,0,0:0:0:0:
297,123,134921,5,0,0:0:0:0:
317,160,135013,1,0,0:0:0:0:
320,200,135106,1,0,0:0:0:0:
305,238,135198,1,0,0:0:0:0:
269,258,135290,1,0,0:0:0:0:
228,251,135382,1,0,0:0:0:0:
202,220,135475,1,0,0:0:0:0:
201,179,135567,1,0,0:0:0:0:
220,144,135660,5,0,0:0:0:0:
254,108,135752,1,0,0:0:0:0:
299,89,135844,1,0,0:0:0:0:
348,91,135936,1,0,0:0:0:0:
393,112,136029,1,0,0:0:0:0:
425,149,136121,1,0,0:0:0:0:
436,196,136214,1,0,0:0:0:0:
448,243,136306,1,0,0:0:0:0:
435,290,136398,1,0,0:0:0:0:
399,323,136490,1,0,0:0:0:0:
352,333,136583,1,0,0:0:0:0:
304,344,136676,5,0,0:0:0:0:
264,344,136768,1,0,0:0:0:0:
224,340,136860,1,0,0:0:0:0:
84,216,137045,6,0,P|88:256|120:268,1,70
136,100,137230,2,0,P|179:84|208:101,1,70
248,216,137414,2,0,P|244:256|212:268,1,70
136,100,137599,2,0,P|179:84|208:101,1,70
128,328,137784,2,0,P|81:322|63:293,1,70
312,216,137968,2,0,P|307:262|278:280,1,70
136,64,138152,2,0,P|179:48|208:65,1,70
116,252,138337,2,0,P|69:246|51:217,1,70
152,136,138522,5,0,0:0:0:0:
152,136,138614,1,0,0:0:0:0:
152,136,138706,2,0,L|176:212,1,41.9999987182618
268,252,138891,1,0,0:0:0:0:
268,252,138983,1,0,0:0:0:0:
268,252,139075,2,0,L|244:176,1,41.9999987182618
308,108,139260,5,0,0:0:0:0:
308,108,139352,1,0,0:0:0:0:
308,108,139444,2,0,L|332:184,1,41.9999987182618
440,212,139629,1,0,0:0:0:0:
440,212,139721,1,0,0:0:0:0:
440,212,139813,2,0,L|416:136,1,41.9999987182618
400,56,139999,6,0,L|441:60,3,41.9999987182618
288,96,140368,2,0,L|246:100,3,41.9999987182618
396,144,140737,2,0,L|437:148,3,41.9999987182618
288,184,141106,2,0,L|246:188,3,41.9999987182618
72,44,141476,5,0,0:0:0:0:
78,85,141568,1,0,0:0:0:0:
98,121,141660,1,0,0:0:0:0:
130,149,141752,1,0,0:0:0:0:
169,164,141845,1,0,0:0:0:0:
210,165,141937,1,0,0:0:0:0:
250,152,142029,1,0,0:0:0:0:
288,136,142122,1,0,0:0:0:0:
320,109,142214,1,0,0:0:0:0:
360,99,142306,5,0,0:0:0:0:
401,107,142398,1,0,0:0:0:0:
434,132,142491,1,0,0:0:0:0:
453,169,142583,1,0,0:0:0:0:
454,211,142675,1,0,0:0:0:0:
437,249,142768,1,0,0:0:0:0:
416,284,142860,1,0,0:0:0:0:
384,308,142952,5,0,0:0:0:0:
338,333,143044,1,0,0:0:0:0:
286,336,143136,1,0,0:0:0:0:
238,315,143228,1,0,0:0:0:0:
205,276,143321,1,0,0:0:0:0:
188,232,143414,1,0,0:0:0:0:
184,180,143506,1,0,0:0:0:0:
200,133,143598,5,0,0:0:0:0:
243,105,143690,1,0,0:0:0:0:
295,105,143783,1,0,0:0:0:0:
336,136,143876,1,0,0:0:0:0:
372,172,143968,1,0,0:0:0:0:
384,220,144060,1,0,0:0:0:0:
388,268,144152,1,0,0:0:0:0:
380,316,144245,1,0,0:0:0:0:
104,72,144429,5,0,0:0:0:0:
96,112,144522,1,0,0:0:0:0:
88,152,144614,2,0,L|76:208,1,41.9999987182618
196,112,144799,5,0,0:0:0:0:
188,152,144892,1,0,0:0:0:0:
180,192,144984,2,0,L|168:248,1,41.9999987182618
292,144,145168,5,0,0:0:0:0:
284,184,145261,1,0,0:0:0:0:
276,224,145353,2,0,L|264:280,1,41.9999987182618
384,184,145538,5,0,0:0:0:0:
376,224,145629,1,0,0:0:0:0:
368,264,145723,2,0,L|352:336,1,41.9999987182618
220,44,145899,1,0,0:0:0:0:
124,112,146088,5,0,0:0:0:0:
124,112,146183,1,0,0:0:0:0:
124,112,146278,1,0,0:0:0:0:
212,288,146468,5,0,0:0:0:0:
212,288,146563,1,0,0:0:0:0:
212,288,146658,1,0,0:0:0:0:
64,216,146848,5,0,0:0:0:0:
64,216,146942,1,0,0:0:0:0:
64,216,147037,1,0,0:0:0:0:
260,132,147227,5,0,0:0:0:0:
260,132,147322,1,0,0:0:0:0:
260,132,147417,1,0,0:0:0:0:
108,256,147607,5,0,0:0:0:0:
86,283,147701,1,0,0:0:0:0:
65,311,147796,1,0,0:0:0:0:
176,128,147986,5,0,0:0:0:0:
177,93,148080,1,0,0:0:0:0:
178,58,148175,1,0,0:0:0:0:
256,212,148366,5,0,0:0:0:0:
288,239,148460,1,0,0:0:0:0:
320,264,148555,1,0,0:0:0:0:
60,164,148746,5,0,0:0:0:0:
352,64,148936,1,0,0:0:0:0:
260,216,149125,6,0,P|205:223|182:195,1,70
228,148,149315,1,0,0:0:0:0:
80,288,149505,1,0,0:0:0:0:
80,288,149600,1,0,0:0:0:0:
80,288,149695,1,0,0:0:0:0:
312,148,149885,2,0,L|368:92,1,70
388,72,150074,1,0,0:0:0:0:
80,148,150264,5,0,0:0:0:0:
240,304,150454,1,0,0:0:0:0:
176,64,150644,1,0,0:0:0:0:
440,224,150834,1,0,0:0:0:0:
421,276,150928,1,0,0:0:0:0:
379,312,151023,1,0,0:0:0:0:
325,324,151118,1,0,0:0:0:0:
272,309,151213,1,0,0:0:0:0:
233,269,151308,5,0,0:0:0:0:
196,228,151403,1,0,0:0:0:0:
168,180,151497,1,0,0:0:0:0:
152,128,151592,1,0,0:0:0:0:
80,296,151783,1,0,0:0:0:0:
288,40,151973,5,0,0:0:0:0:
360,320,152162,1,0,0:0:0:0:
360,320,152257,1,0,0:0:0:0:
360,320,152352,1,0,0:0:0:0:
80,136,152542,2,0,P|135:87|144:94,1,70
256,172,152732,1,0,0:0:0:0:
80,136,152922,6,0,P|135:87|144:94,1,70
324,200,153111,2,0,L|460:280,1,140
172,288,153491,1,0,0:0:0:0:
360,56,153681,1,0,0:0:0:0:
144,72,153871,2,0,P|79:122|150:179,1,140
260,56,154250,1,0,0:0:0:0:
164,284,154440,1,0,0:0:0:0:
308,216,154630,2,0,L|440:152,1,140
80,76,155010,5,0,0:0:0:0:
208,312,155199,1,0,0:0:0:0:
208,312,155294,1,0,0:0:0:0:
208,312,155389,1,0,0:0:0:0:
300,84,155579,5,0,0:0:0:0:
300,84,155674,1,0,0:0:0:0:
300,84,155769,1,0,0:0:0:0:
324,184,155959,5,0,0:0:0:0:
346,211,156053,1,0,0:0:0:0:
368,238,156148,2,0,L|460:348,1,140
132,212,156528,1,0,0:0:0:0:
264,40,156718,1,0,0:0:0:0:
52,256,156908,5,0,0:0:0:0:
92,288,157002,1,0,0:0:0:0:
139,309,157097,1,0,0:0:0:0:
190,318,157192,1,0,0:0:0:0:
241,313,157287,1,0,0:0:0:0:
290,295,157382,5,0,0:0:0:0:
336,272,157477,1,0,0:0:0:0:
380,252,157571,1,0,0:0:0:0:
416,220,157666,1,0,0:0:0:0:
92,104,157857,1,0,0:0:0:0:
368,44,158047,5,0,0:0:0:0:
204,188,158236,2,0,P|224:224|256:228,1,70
300,108,158426,1,0,0:0:0:0:
136,264,158617,5,0,0:0:0:0:
111,288,158711,1,0,0:0:0:0:
86,313,158806,1,0,0:0:0:0:
224,124,158996,5,0,0:0:0:0:
228,89,159090,1,0,0:0:0:0:
233,54,159185,1,0,0:0:0:0:
288,312,159375,1,0,0:0:0:0:
60,40,159565,5,0,0:0:0:0:
71,81,159659,1,0,0:0:0:0:
93,117,159754,1,0,0:0:0:0:
125,144,159849,1,0,0:0:0:0:
164,162,159944,1,0,0:0:0:0:
204,180,160040,1,0,0:0:0:0:
248,192,160134,1,0,0:0:0:0:
292,200,160229,5,0,0:0:0:0:
336,192,160324,1,0,0:0:0:0:
380,172,160419,1,0,0:0:0:0:
408,136,160514,1,0,0:0:0:0:
401,90,160608,1,0,0:0:0:0:
373,53,160703,1,0,0:0:0:0:
112,304,160894,1,0,0:0:0:0:
440,216,161107,6,0,B|420:268|420:268|476:276|476:276|424:356,1,167.999994873047
304,172,161660,1,0,0:0:0:0:
328,312,161845,1,0,0:0:0:0:
80,46,162214,5,0,0:0:0:0:
147,105,162399,1,0,0:0:0:0:
64,133,162583,1,0,0:0:0:0:
248,224,162952,5,0,0:0:0:0:
284,260,163137,1,0,0:0:0:0:
316,296,163321,2,0,P|400:304|416:212,1,167.999994873047
224,56,164060,5,0,0:0:0:0:
136,240,164429,2,0,L|88:312,2,83.9999974365235
324,152,165167,2,0,L|424:100,2,83.9999974365235
100,200,165905,1,0,0:0:0:0:
100,200,166090,1,0,0:0:0:0:
100,200,166274,2,0,P|184:236|280:216,1,167.999994873047
160,60,167013,5,0,0:0:0:0:
296,232,167382,1,0,0:0:0:0:
328,260,167566,1,0,0:0:0:0:
360,288,167751,1,0,0:0:0:0:
100,144,168120,1,0,0:0:0:0:
100,144,168304,1,0,0:0:0:0:
100,144,168489,1,0,0:0:0:0:
284,72,168858,5,0,0:0:0:0:
324,60,169043,1,0,0:0:0:0:
368,48,169227,2,0,P|456:76|452:160,1,167.999994873047
132,72,169966,5,0,0:0:0:0:
292,144,170335,2,0,L|388:108,2,83.9999974365235
220,240,171073,2,0,L|124:276,2,83.9999974365235
292,316,171811,2,0,L|388:280,1,83.9999974365235
220,176,172180,2,0,P|148:136|76:188,1,167.999994873047
172,296,172919,5,0,0:0:0:0:
288,48,173288,1,0,0:0:0:0:
288,48,173472,1,0,0:0:0:0:
288,48,173657,1,0,0:0:0:0:
356,232,174026,2,0,L|408:316,2,83.9999974365235
184,136,174764,1,0,0:0:0:0:
148,116,174949,1,0,0:0:0:0:
112,92,175133,2,0,P|64:120|104:224,1,167.999994873047
424,76,175872,5,0,0:0:0:0:
96,232,176241,1,0,0:0:0:0:
92,296,176425,1,0,0:0:0:0:
136,348,176610,1,0,0:0:0:0:
124,132,176979,2,0,L|116:40,2,83.9999974365235
240,192,177717,2,0,L|320:248,1,83.9999974365235
152,128,178086,2,0,P|220:56|312:56,1,167.999994873047
292,312,178825,5,0,0:0:0:0:
136,156,179194,1,0,0:0:0:0:
105,127,179378,1,0,0:0:0:0:
74,98,179563,1,0,0:0:0:0:
388,268,179932,2,0,L|284:220,2,83.9999974365235
180,196,180670,2,0,L|96:144,1,83.9999974365235
272,96,181039,2,0,P|364:88|436:132,1,167.999994873047
104,288,181778,5,0,0:0:0:0:
352,196,182147,1,0,0:0:0:0:
352,196,182331,1,0,0:0:0:0:
352,196,182516,1,0,0:0:0:0:
112,120,182885,5,0,0:0:0:0:
112,120,183069,1,0,0:0:0:0:
112,120,183254,1,0,0:0:0:0:
352,48,183623,1,0,0:0:0:0:
352,48,183808,1,0,0:0:0:0:
352,48,183992,2,0,B|384:136|384:136|332:212,1,167.999994873047
236,64,184731,5,0,0:0:0:0:
124,132,185100,2,0,L|36:140,2,62.9999980773926
236,172,185838,2,0,L|324:180,2,62.9999980773926
56,260,186576,2,0,L|144:252,1,62.9999980773926
164,248,186945,2,0,B|212:244|264:216|264:216|304:216,1,125.999996154785
256,192,187459,12,0,193645,0:0:0:0:
