osu file format v14

[General]
AudioFilename: audio.mp3
AudioLeadIn: 0
PreviewTime: 3249
Countdown: 0
SampleSet: Soft
StackLeniency: 0.4
Mode: 0
LetterboxInBreaks: 0
WidescreenStoryboard: 0

[Editor]
DistanceSpacing: 1.4
BeatDivisor: 4
GridSize: 8
TimelineZoom: 1.6

[Metadata]
Title:Imaginary Places
TitleUnicode:Imaginary Places
Artist:Busdriver
ArtistUnicode:Busdriver
Creator:Moreon
Version:Any Sense, At Your Service
Source:
Tags:phoon NeBu Busdriver Rdzeniu Streams Hatiso Moreon Rap sbsonic Andemu Asrasz LukerMaster Chalwa CptSqBany DominiGG AnySense squirrelpascals Fieryrage tem Squishi Soiplox Script
BeatmapID:1365213
BeatmapSetID:632870

[Difficulty]
HPDrainRate:5
CircleSize:4
OverallDifficulty:9
ApproachRate:9.7
SliderMultiplier:3
SliderTickRate:1

[Events]
//Background and Video events
0,0,"BG.jpg",0,0
//Break Periods
2,118961,121557
//Storyboard Layer 0 (Background)
//Storyboard Layer 1 (Fail)
//Storyboard Layer 2 (Pass)
//Storyboard Layer 3 (Foreground)
//Storyboard Sound Samples

[TimingPoints]
497.668789808917,379.525605095541,4,2,0,65,1,0
39968,-90.9090909090909,4,2,0,65,0,0
58185,-83.3333333333333,4,2,0,65,0,0
76794,411.444676258992,4,2,0,60,1,0
79674,-133.333333333333,4,2,0,60,0,0
80497,-200,4,2,0,60,0,0
122276,369.230769230769,4,2,0,60,1,0
122276,-100,4,2,0,60,0,1
145899,379.625605095541,4,2,0,10,1,0
148746,-76.9230769230769,4,1,0,25,0,0
160704,-100,4,1,0,25,0,0
161107,369.125605095541,4,2,0,40,1,0
187459,426.625605095542,4,2,0,20,1,0

[Colours]
Combo1 : 255,192,0
Combo2 : 0,174,174
Combo3 : 41,101,31
Combo4 : 242,24,57

[HitObjects]
261,95,497,6,0,B|205:99|205:99|174:118|174:118|95:125,1,150
52,59,782,1,0,0:0:0:0:
143,198,877,6,0,B|198:193|198:193|229:174|229:174|308:167,1,150
352,234,1162,1,0,0:0:0:0:
361,4,1256,6,0,B|388:51|388:51|370:160,1,150
436,209,1541,1,0,0:0:0:0:
278,279,1636,6,0,B|231:306|231:306|122:288,1,150
73,354,1921,1,0,0:0:0:0:
18,232,2015,6,0,L|31:80,1,150
95,18,2300,1,0,0:0:0:0:
136,290,2395,6,0,L|149:138,1,150
213,76,2680,1,0,0:0:0:0:
247,360,2774,6,0,L|260:208,1,150
324,146,3059,1,0,0:0:0:0:
473,158,3154,2,0,L|323:145,1,150
76,93,3533,6,0,P|139:56|218:83,1,150
151,142,3818,1,0,0:0:0:0:
36,230,3913,2,0,L|43:317,1,75
106,369,4103,1,0,0:0:0:0:
255,381,4292,6,0,L|105:368,1,150
42,304,4577,1,0,0:0:0:0:
110,77,4672,2,0,P|128:106|124:156,1,75
92,229,4862,1,0,0:0:0:0:
47,18,5051,5,0,0:0:0:0:
185,209,5146,1,0,0:0:0:0:
227,77,5241,2,0,L|301:70,1,75
366,135,5431,5,0,0:0:0:0:
162,12,5526,1,0,0:0:0:0:
376,144,5621,2,0,L|450:137,1,75
500,60,5811,5,0,0:0:0:0:
419,223,5905,1,0,0:0:0:0:
504,354,6000,2,0,P|466:337|422:339,1,75
347,367,6190,6,0,L|187:353,1,150
69,225,6570,6,0,P|56:188|65:138,1,75
122,89,6759,1,0,0:0:0:0:
293,55,6854,1,0,0:0:0:0:
100,80,6949,6,0,P|132:57|183:53,1,75
230,115,7139,1,0,0:0:0:0:
243,264,7329,6,0,L|229:112,1,150
152,193,7613,1,0,0:0:0:0:
319,179,7708,2,0,P|357:173|387:151,1,75
424,69,7898,1,0,0:0:0:0:
277,34,8088,5,0,0:0:0:0:
322,251,8183,2,0,P|328:214|318:178,1,75
235,350,8467,5,0,0:0:0:0:
190,133,8562,2,0,P|183:169|193:205,1,75
322,251,8847,5,0,0:0:0:0:
277,34,8942,1,0,0:0:0:0:
111,193,9036,2,0,P|114:230|133:261,1,75
322,251,9226,6,0,P|266:203|183:210,1,150
4,307,9606,6,0,P|77:308|132:261,1,150
48,228,9890,1,0,0:0:0:0:
193,205,9985,2,0,P|159:184|121:184,1,75
4,307,10175,1,0,0:0:0:0:
51,137,10270,1,0,0:0:0:0:
9,56,10365,6,0,B|81:34|83:76|166:50,1,150
232,3,10649,1,0,0:0:0:0:
140,218,10744,2,0,L|146:138,1,75
230,109,10934,1,0,0:0:0:0:
61,258,11124,5,0,0:0:0:0:
229,210,11219,1,0,0:0:0:0:
14,157,11314,1,0,0:0:0:0:
76,369,11409,1,0,0:0:0:0:
146,143,11503,2,0,L|152:63,1,75
88,3,11693,1,0,0:0:0:0:
229,210,11788,1,0,0:0:0:0:
364,0,11883,6,0,L|358:74,1,75
422,139,12073,1,0,0:0:0:0:
454,223,12168,1,0,0:0:0:0:
408,299,12262,6,0,P|343:334|263:318,1,150
153,359,12642,6,0,P|155:285|209:223,1,150
284,191,12927,1,0,0:0:0:0:
161,106,13022,2,0,L|167:31,1,75
97,169,13211,1,0,0:0:0:0:
334,102,13306,1,0,0:0:0:0:
39,101,13401,6,0,B|6:147|6:147|21:249,1,150
83,303,13686,1,0,0:0:0:0:
201,228,13781,2,0,L|296:219,1,75
339,285,13970,1,0,0:0:0:0:
418,123,14160,5,0,0:0:0:0:
457,236,14255,1,0,0:0:0:0:
510,34,14350,2,0,L|414:42,1,75
309,90,14540,1,0,0:0:0:0:
506,144,14634,1,0,0:0:0:0:
245,153,14729,2,0,L|253:248,1,75
187,292,14919,5,0,0:0:0:0:
332,178,15014,1,0,0:0:0:0:
161,110,15109,2,0,P|154:74|170:30,1,75
251,227,15299,6,0,P|277:289|246:365,1,150
225,364,15678,5,0,0:0:0:0:
343,40,15868,1,0,0:0:0:0:
121,304,16058,1,0,0:0:0:0:
420,132,16247,1,0,0:0:0:0:
80,192,16437,1,0,0:0:0:0:
420,252,16627,1,0,0:0:0:0:
121,79,16817,1,0,0:0:0:0:
343,343,17007,1,0,0:0:0:0:
225,19,17196,6,0,B|259:48|259:48|270:175,1,150
204,216,17481,1,0,0:0:0:0:
363,103,17576,2,0,L|356:182,1,75
349,268,17766,1,0,0:0:0:0:
173,92,17955,6,0,L|13:105,1,150
204,216,18335,2,0,L|197:295,1,75
133,355,18525,1,0,0:0:0:0:
52,265,18714,5,0,0:0:0:0:
289,228,18809,1,0,0:0:0:0:
383,361,18904,5,0,0:0:0:0:
352,165,18999,1,0,0:0:0:0:
197,290,19094,1,0,0:0:0:0:
434,253,19189,1,0,0:0:0:0:
284,67,19284,2,0,L|204:73,1,75
145,9,19473,5,0,0:0:0:0:
115,94,19568,1,0,0:0:0:0:
118,184,19663,1,0,0:0:0:0:
152,267,19758,1,0,0:0:0:0:
226,318,19853,6,0,L|300:311,1,75
365,247,20043,1,0,0:0:0:0:
138,360,20138,1,0,0:0:0:0:
444,296,20233,5,0,0:0:0:0:
477,118,20327,1,0,0:0:0:0:
307,179,20422,2,0,L|232:172,1,75
511,216,20612,5,0,0:0:0:0:
374,99,20706,1,0,0:0:0:0:
342,276,20801,2,0,L|298:338,1,75
477,118,20992,5,0,0:0:0:0:
307,178,21086,1,0,0:0:0:0:
444,294,21181,2,0,L|475:363,1,75
411,196,21371,5,0,0:0:0:0:
190,4,21466,1,0,0:0:0:0:
107,287,21561,1,0,0:0:0:0:
8,374,21751,6,0,B|63:369|63:369|89:382|89:382|176:375,1,150
217,313,22035,1,0,0:0:0:0:
347,379,22130,2,0,L|338:283,1,75
404,239,22320,1,0,0:0:0:0:
220,167,22510,6,0,B|224:222|224:222|211:248|211:248|218:335,1,150
427,329,22794,1,0,0:0:0:0:
490,265,22889,2,0,P|492:229|468:185,1,75
411,129,23079,1,0,0:0:0:0:
332,265,23269,5,0,0:0:0:0:
476,194,23364,1,0,0:0:0:0:
324,91,23458,2,0,P|308:57|310:20,1,75
400,35,23648,5,0,0:0:0:0:
259,154,23743,1,0,0:0:0:0:
476,194,23838,2,0,P|492:228|490:265,1,75
425,329,24028,5,0,0:0:0:0:
337,352,24123,1,0,0:0:0:0:
253,317,24218,2,0,L|165:324,1,75
0,216,24407,2,0,L|149:229,1,150
259,154,24787,6,0,P|293:84|263:17,1,150
177,21,25071,1,0,0:0:0:0:
379,143,25166,2,0,L|453:136,1,75
505,61,25356,1,0,0:0:0:0:
424,226,25451,1,0,0:0:0:0:
274,239,25546,2,0,L|423:225,1,150
487,290,25831,1,0,0:0:0:0:
215,296,25925,6,0,P|193:251|201:208,1,75
243,150,26115,1,0,0:0:0:0:
272,355,26305,6,0,P|227:377|184:369,1,75
125,327,26495,1,0,0:0:0:0:
65,137,26590,1,0,0:0:0:0:
56,306,26684,2,0,P|93:307|125:327,1,75
321,302,26874,2,0,P|293:343|251:358,1,75
186,75,27064,6,0,L|199:226,1,150
280,141,27349,1,0,0:0:0:0:
106,155,27443,2,0,P|70:103|81:14,1,150
308,276,27823,6,0,P|318:203|280:141,1,150
216,45,28203,2,0,P|245:28|306:33,1,75
366,66,28392,1,0,0:0:0:0:
230,225,28487,1,0,0:0:0:0:
130,128,28582,6,0,L|279:140,1,150
343,76,28867,1,0,0:0:0:0:
349,236,28962,2,0,P|378:253|439:248,1,75
501,219,29151,1,0,0:0:0:0:
268,268,29341,5,0,0:0:0:0:
405,176,29436,1,0,0:0:0:0:
416,341,29531,1,0,0:0:0:0:
164,201,29721,5,0,0:0:0:0:
349,236,29816,1,0,0:0:0:0:
223,379,29911,1,0,0:0:0:0:
213,104,30005,1,0,0:0:0:0:
14,187,30100,6,0,L|189:202,1,150
267,38,30480,5,0,0:0:0:0:
217,269,30575,1,0,0:0:0:0:
281,54,30669,2,0,P|296:88|295:126,1,75
443,197,30859,6,0,P|378:242|312:230,1,150
213,104,31144,1,0,0:0:0:0:
231,340,31239,2,0,P|216:306|217:268,1,75
241,181,31429,1,0,0:0:0:0:
305,381,31523,1,0,0:0:0:0:
99,336,31618,6,0,P|54:271|66:205,1,150
130,140,31903,1,0,0:0:0:0:
216,268,31998,2,0,L|311:259,1,75
355,197,32188,1,0,0:0:0:0:
193,363,32377,5,0,0:0:0:0:
250,181,32472,1,0,0:0:0:0:
334,351,32567,1,0,0:0:0:0:
331,47,32757,5,0,0:0:0:0:
256,284,32852,1,0,0:0:0:0:
147,62,32947,2,0,L|59:54,1,75
355,197,33136,6,0,L|429:203,1,75
494,139,33326,1,0,0:0:0:0:
384,282,33421,1,0,0:0:0:0:
301,124,33516,2,0,B|282:80|282:80|397:88,1,150
410,89,33895,5,0,0:0:0:0:
409,284,34085,1,0,0:0:0:0:
241,186,34275,1,0,0:0:0:0:
353,185,34465,5,0,0:0:0:0:
235,384,34655,1,0,0:0:0:0:
121,184,34845,1,0,0:0:0:0:
240,271,35034,5,0,0:0:0:0:
8,268,35224,1,0,0:0:0:0:
124,69,35414,2,0,P|156:49|211:46,1,75
282,48,35603,2,0,P|315:65|345:111,1,75
359,182,35793,2,0,L|199:168,1,150
74,0,36173,6,0,P|41:55|76:140,1,150
124,69,36457,1,0,0:0:0:0:
117,218,36552,2,0,L|109:305,1,75
46,357,36742,1,0,0:0:0:0:
204,264,36932,5,0,0:0:0:0:
45,174,37027,1,0,0:0:0:0:
186,350,37121,2,0,P|207:353|263:330,1,75
237,246,37311,1,0,0:0:0:0:
269,21,37406,1,0,0:0:0:0:
358,26,37501,1,0,0:0:0:0:
416,94,37596,1,0,0:0:0:0:
416,94,37691,6,0,L|401:261,1,150
186,350,38070,2,0,L|260:343,1,75
351,335,38260,1,0,0:0:0:0:
148,193,38355,1,0,0:0:0:0:
84,384,38450,6,0,L|77:309,1,75
13,245,38639,1,0,0:0:0:0:
233,157,38734,1,0,0:0:0:0:
85,16,38829,6,0,L|78:90,1,75
14,155,39018,1,0,0:0:0:0:
234,243,39113,1,0,0:0:0:0:
201,9,39209,1,0,0:0:0:0:
270,66,39304,1,0,0:0:0:0:
355,37,39399,2,0,L|450:45,1,75
493,107,39588,5,0,0:0:0:0:
234,243,39683,1,0,0:0:0:0:
497,384,39778,1,0,0:0:0:0:
234,243,39968,6,0,L|42:259,1,165.000005035401
0,327,40252,1,0,0:0:0:0:
333,355,40347,2,0,B|351:319|351:319|338:266,1,82.5000025177003
309,182,40537,1,0,0:0:0:0:
22,28,40727,6,0,B|-5:79|-5:79|18:198,1,165.000005035401
87,316,41012,1,0,0:0:0:0:
156,246,41106,2,0,L|251:254,1,82.5000025177003
309,182,41296,1,0,0:0:0:0:
94,70,41486,5,0,0:0:0:0:
229,20,41581,1,0,0:0:0:0:
22,28,41676,2,0,P|9:66|29:122,1,82.5000025177003
209,173,41865,5,0,0:0:0:0:
146,7,41960,1,0,0:0:0:0:
12,192,42055,2,0,P|51:184|89:138,1,82.5000025177003
94,70,42245,5,0,0:0:0:0:
310,35,42340,1,0,0:0:0:0:
232,239,42435,2,0,L|223:334,1,82.5000025177003
143,379,42625,1,0,0:0:0:0:
317,288,42719,1,0,0:0:0:0:
96,291,42814,1,0,0:0:0:0:
341,290,43004,6,0,P|381:217|345:137,1,165.000005035401
205,41,43289,1,0,0:0:0:0:
134,111,43384,2,0,L|142:206,1,82.5000025177003
71,263,43573,1,0,0:0:0:0:
225,140,43668,1,0,0:0:0:0:
42,69,43763,1,0,0:0:0:0:
131,345,43953,5,0,0:0:0:0:
203,162,44048,1,0,0:0:0:0:
9,192,44143,2,0,P|-16:235|-12:286,1,82.5000025177003
17,360,44332,1,0,0:0:0:0:
239,329,44522,5,0,0:0:0:0:
72,251,44617,1,0,0:0:0:0:
253,322,44712,2,0,L|348:313,1,82.5000025177003
483,365,44902,1,0,0:0:0:0:
406,243,44997,1,0,0:0:0:0:
511,141,45091,2,0,L|502:45,1,82.5000025177003
416,9,45281,5,0,0:0:0:0:
316,17,45376,1,0,0:0:0:0:
216,26,45471,1,0,0:0:0:0:
59,148,45661,2,0,L|234:163,1,165.000005035401
416,9,46040,6,0,B|449:59|449:59|433:165,1,165.000005035401
362,233,46325,1,0,0:0:0:0:
351,78,46420,2,0,L|268:70,1,82.5000025177003
169,61,46610,1,0,0:0:0:0:
434,296,46799,6,0,B|384:329|384:329|278:313,1,165.000005035401
180,308,47084,1,0,0:0:0:0:
26,274,47179,2,0,P|56:251|106:249,1,82.5000025177003
187,294,47369,1,0,0:0:0:0:
85,322,47558,5,0,0:0:0:0:
12,162,47653,1,0,0:0:0:0:
187,178,47748,2,0,L|178:82,1,82.5000025177003
108,24,47938,6,0,P|69:13|28:22,1,82.5000025177003
262,236,48128,2,0,P|301:247|342:238,1,82.5000025177003
411,168,48317,1,0,0:0:0:0:
451,314,48412,1,0,0:0:0:0:
414,145,48507,2,0,L|405:49,1,82.5000025177003
316,18,48697,6,0,P|279:75|318:176,1,165.000005035401
328,383,49076,6,0,P|365:326|326:225,1,165.000005035401
265,303,49361,1,0,0:0:0:0:
194,373,49456,2,0,L|98:364,1,82.5000025177003
40,294,49646,1,0,0:0:0:0:
223,228,49741,1,0,0:0:0:0:
75,103,49835,1,0,0:0:0:0:
110,208,50025,5,0,0:0:0:0:
293,142,50120,1,0,0:0:0:0:
145,17,50215,2,0,L|240:25,1,82.5000025177003
75,103,50405,1,0,0:0:0:0:
404,83,50595,5,0,0:0:0:0:
481,4,50689,1,0,0:0:0:0:
497,195,50784,1,0,0:0:0:0:
323,113,50879,1,0,0:0:0:0:
490,112,50974,2,0,L|498:207,1,82.5000025177003
253,237,51164,2,0,L|245:142,1,82.5000025177003
175,83,51354,5,0,0:0:0:0:
77,71,51448,1,0,0:0:0:0:
16,149,51543,2,0,L|24:244,1,82.5000025177003
186,321,51733,6,0,P|116:360|26:327,1,165.000005035401
114,81,52113,5,0,0:0:0:0:
482,193,52302,1,0,0:0:0:0:
114,305,52492,1,0,0:0:0:0:
448,16,52682,5,0,0:0:0:0:
32,192,52871,1,0,0:0:0:0:
448,368,53061,1,0,0:0:0:0:
256,352,53251,5,0,0:0:0:0:
192,272,53346,1,0,0:0:0:0:
256,192,53441,1,0,0:0:0:0:
320,112,53536,1,0,0:0:0:0:
256,32,53631,5,0,0:0:0:0:
80,368,53821,1,0,0:0:0:0:
432,368,54010,1,0,0:0:0:0:
32,16,54200,5,0,0:0:0:0:
480,16,54390,1,0,0:0:0:0:
256,352,54579,1,0,0:0:0:0:
185,281,54674,2,0,L|193:185,1,82.5000025177003
121,127,54864,1,0,0:0:0:0:
103,114,54959,1,0,0:0:0:0:
187,20,55149,5,0,0:0:0:0:
62,195,55244,1,0,0:0:0:0:
276,215,55339,2,0,P|291:178|275:124,1,82.5000025177003
121,127,55528,5,0,0:0:0:0:
345,70,55623,1,0,0:0:0:0:
103,114,55718,1,0,0:0:0:0:
263,302,55813,1,0,0:0:0:0:
333,372,55908,6,0,P|372:366|411:325,1,82.5000025177003
441,245,56098,1,0,0:0:0:0:
416,144,56193,1,0,0:0:0:0:
345,70,56287,2,0,L|233:79,1,82.5000025177003
191,6,56477,5,0,0:0:0:0:
85,186,56572,1,0,0:0:0:0:
11,60,56667,2,0,L|93:52,1,82.5000025177003
164,123,56857,1,0,0:0:0:0:
0,249,56952,1,0,0:0:0:0:
192,329,57046,2,0,L|274:321,1,82.5000025177003
246,115,57236,5,0,0:0:0:0:
82,241,57331,1,0,0:0:0:0:
289,347,57425,2,0,L|371:339,1,82.5000025177003
509,234,57616,2,0,L|427:242,1,82.5000025177003
356,171,57806,5,0,0:0:0:0:
506,41,57900,1,0,0:0:0:0:
246,115,57995,1,0,0:0:0:0:
442,322,58090,1,0,0:0:0:0:
384,14,58185,6,0,P|337:75|357:173,1,179.999994506836
449,226,58470,1,0,0:0:0:0:
273,232,58565,2,0,P|231:218|177:233,1,89.9999972534181
110,303,58754,1,0,0:0:0:0:
37,380,58944,6,0,B|15:319|15:319|42:199,1,179.999994506836
63,99,59229,1,0,0:0:0:0:
219,334,59324,2,0,P|261:348|315:333,1,89.9999972534181
382,263,59513,1,0,0:0:0:0:
325,54,59703,5,0,0:0:0:0:
222,123,59798,1,0,0:0:0:0:
404,160,59893,2,0,L|515:150,1,89.9999972534181
215,142,60083,2,0,L|125:149,1,89.9999972534181
48,73,60272,5,0,0:0:0:0:
179,241,60367,1,0,0:0:0:0:
280,51,60462,1,0,0:0:0:0:
21,201,60557,1,0,0:0:0:0:
281,351,60652,2,0,L|376:342,1,89.9999972534181
447,265,60842,6,0,P|488:185|438:92,1,179.999994506836
280,51,61221,6,0,P|239:131|289:224,1,179.999994506836
349,134,61506,1,0,0:0:0:0:
209,285,61601,2,0,L|113:293,1,89.9999972534181
42,215,61791,1,0,0:0:0:0:
174,379,61885,1,0,0:0:0:0:
270,209,61980,6,0,P|301:290|261:368,1,179.999994506836
209,285,62265,1,0,0:0:0:0:
386,264,62360,2,0,L|475:256,1,89.9999972534181
443,360,62550,1,0,0:0:0:0:
87,363,62739,5,0,0:0:0:0:
23,275,62834,1,0,0:0:0:0:
76,181,62929,2,0,L|187:190,1,89.9999972534181
375,82,63119,5,0,0:0:0:0:
439,170,63214,1,0,0:0:0:0:
386,264,63309,2,0,L|274:254,1,89.9999972534181
262,153,63498,2,0,B|234:66|290:59|257:-29,1,179.999994506836
159,21,63783,1,0,0:0:0:0:
367,106,63878,2,0,P|429:78|526:130,1,179.999994506836
254,343,64257,6,0,P|192:371|95:319,1,179.999994506836
59,221,64542,1,0,0:0:0:0:
218,168,64637,2,0,L|208:56,1,89.9999972534181
132,1,64827,1,0,0:0:0:0:
290,245,64922,1,0,0:0:0:0:
495,91,65017,6,0,L|303:107,1,179.999994506836
119,132,65301,1,0,0:0:0:0:
290,245,65396,2,0,L|299:356,1,89.9999972534181
390,277,65586,1,0,0:0:0:0:
92,365,65776,6,0,P|76:324|88:265,1,89.9999972534181
379,191,65965,2,0,P|395:232|383:291,1,89.9999972534181
123,47,66155,6,0,P|164:31|223:42,1,89.9999972534181
297,334,66344,2,0,P|256:350|197:338,1,89.9999972534181
14,210,66535,5,0,0:0:0:0:
175,110,66630,1,0,0:0:0:0:
245,269,66724,2,0,P|251:225|235:184,1,89.9999972534181
123,47,66914,6,0,P|97:128|164:199,1,179.999994506836
298,128,67199,1,0,0:0:0:0:
108,271,67294,2,0,P|102:315|118:356,1,89.9999972534181
245,269,67483,5,0,0:0:0:0:
7,324,67578,1,0,0:0:0:0:
235,291,67673,2,0,L|330:299,1,89.9999972534181
401,221,67863,5,0,0:0:0:0:
270,379,67958,1,0,0:0:0:0:
172,208,68053,2,0,L|180:112,1,89.9999972534181
103,41,68242,1,0,0:0:0:0:
271,174,68337,1,0,0:0:0:0:
85,276,68432,2,0,P|43:292|0:286,1,89.9999972534181
33,203,68622,1,0,0:0:0:0:
256,48,68812,5,0,0:0:0:0:
435,32,68907,1,0,0:0:0:0:
359,195,69002,2,0,L|367:290,1,89.9999972534181
443,361,69191,6,0,P|485:356|520:321,1,89.9999972534181
264,256,69381,2,0,P|222:261|187:296,1,89.9999972534181
271,364,69571,1,0,0:0:0:0:
168,170,69666,1,0,0:0:0:0:
65,364,69761,5,0,0:0:0:0:
8,272,69855,1,0,0:0:0:0:
57,175,69950,1,0,0:0:0:0:
5,35,70140,1,0,0:0:0:0:
193,300,70330,5,0,0:0:0:0:
193,83,70520,1,0,0:0:0:0:
380,192,70709,1,0,0:0:0:0:
103,192,70899,5,0,0:0:0:0:
332,60,71089,1,0,0:0:0:0:
332,323,71278,1,0,0:0:0:0:
153,14,71468,5,0,0:0:0:0:
460,192,71658,1,0,0:0:0:0:
153,369,71848,5,0,0:0:0:0:
97,160,72037,1,0,0:0:0:0:
305,104,72227,1,0,0:0:0:0:
361,313,72417,1,0,0:0:0:0:
19,295,72607,5,0,0:0:0:0:
179,64,72797,1,0,0:0:0:0:
279,329,72987,1,0,0:0:0:0:
6,102,73176,1,0,0:0:0:0:
464,25,73366,5,0,0:0:0:0:
381,94,73461,1,0,0:0:0:0:
389,201,73556,2,0,P|430:223|492:215,1,89.9999972534181
296,157,73746,5,0,0:0:0:0:
130,211,73840,1,0,0:0:0:0:
233,70,73935,1,0,0:0:0:0:
233,245,74030,1,0,0:0:0:0:
130,103,74125,2,0,P|89:81|27:89,1,89.9999972534181
204,157,74315,5,0,0:0:0:0:
169,305,74410,1,0,0:0:0:0:
315,262,74505,2,0,P|356:284|418:276,1,89.9999972534181
474,206,74694,1,0,0:0:0:0:
447,101,74789,1,0,0:0:0:0:
344,67,74884,6,0,L|248:75,1,89.9999972534181
171,3,75074,1,0,0:0:0:0:
35,279,75264,5,0,0:0:0:0:
4,103,75359,1,0,0:0:0:0:
171,164,75453,1,0,0:0:0:0:
116,308,75548,1,0,0:0:0:0:
85,132,75643,1,0,0:0:0:0:
308,247,75833,1,0,0:0:0:0:
395,175,75928,1,0,0:0:0:0:
413,286,76023,2,0,L|387:378,1,89.9999972534181
285,131,76213,5,0,0:0:0:0:
53,294,79674,5,0,0:0:0:0:
53,181,79879,1,0,0:0:0:0:
150,237,80085,1,0,0:0:0:0:
150,237,80291,1,0,0:0:0:0:
484,143,80497,6,0,P|398:74|293:96,1,225
292,96,81319,6,0,P|399:74|484:143,1,225
499,231,82142,1,0,0:0:0:0:
252,343,82348,1,0,0:0:0:0:
278,73,82554,2,0,L|286:168,1,75
102,329,82965,6,0,L|252:343,2,150
38,265,83994,2,0,P|30:220|45:182,1,75
2,109,84405,1,0,0:0:0:0:
65,45,84611,6,0,P|171:23|256:91,1,225
275,179,85434,1,0,0:0:0:0:
262,328,85640,2,0,L|277:152,1,150
359,294,86257,6,0,L|454:285,1,75
186,225,86668,2,0,L|111:231,1,75
45,107,87080,2,0,L|268:126,1,225
359,72,87903,2,0,P|367:35|359:0,1,75
365,181,88314,5,0,0:0:0:0:
365,181,88520,1,0,0:0:0:0:
448,295,88725,2,0,P|412:303|376:295,1,75
152,384,89137,2,0,P|144:348|153:312,1,75
63,88,89548,6,0,P|170:66|255:135,1,225
325,279,90371,6,0,P|336:201|419:274,1,225
425,258,91194,6,0,P|358:190|325:279,1,225
390,361,92017,1,0,0:0:0:0:
350,107,92223,1,0,0:0:0:0:
151,269,92428,2,0,L|55:277,1,75
242,351,92840,6,0,L|256:192,2,150
172,149,93868,2,0,P|159:111|172:59,1,75
342,285,94280,1,0,0:0:0:0:
242,102,94486,6,0,P|327:33|434:56,1,225
203,238,95309,2,0,L|107:229,1,75
53,157,95720,1,0,0:0:0:0:
281,282,95926,1,0,0:0:0:0:
276,23,96131,6,0,P|345:108|322:215,1,225
203,256,96954,6,0,P|284:328|391:310,1,225
206,166,97777,2,0,P|166:171|134:199,1,75
84,282,98189,1,0,0:0:0:0:
143,84,98394,1,0,0:0:0:0:
284,234,98600,1,0,0:0:0:0:
17,164,98806,1,0,0:0:0:0:
268,13,99012,1,0,0:0:0:0:
291,321,99217,1,0,0:0:0:0:
77,307,99423,6,0,B|164:299|164:299|199:328|199:328|302:319,1,225
304,106,100246,6,0,B|311:193|311:193|282:228|282:228|291:331,1,225
290,319,101069,6,0,B|199:328|199:328|164:299|164:299|77:307,1,225
2,232,101892,1,0,0:0:0:0:
134,77,102097,2,0,L|126:-10,1,75
284,245,102509,2,0,L|291:332,1,75
416,90,102920,1,0,0:0:0:0:
194,292,103126,6,0,L|42:305,1,150
77,205,103743,1,0,0:0:0:0:
284,361,103949,2,0,L|371:353,1,75
433,280,104360,6,0,P|445:239|426:193,1,75
362,133,104772,1,0,0:0:0:0:
71,119,104977,5,0,0:0:0:0:
354,4,105183,1,0,0:0:0:0:
312,307,105389,2,0,L|318:227,1,75
244,157,105800,1,0,0:0:0:0:
0,245,106006,6,0,P|81:318|188:299,1,225
375,353,106829,6,0,P|293:280|186:299,1,225
43,158,107652,2,0,L|50:70,1,75
123,8,108063,1,0,0:0:0:0:
296,153,108269,1,0,0:0:0:0:
84,231,108475,1,0,0:0:0:0:
276,18,108680,1,0,0:0:0:0:
364,290,108886,6,0,P|307:332|223:321,1,150
283,249,109503,1,0,0:0:0:0:
157,371,109709,2,0,P|145:336|155:290,1,75
224,176,110121,6,0,B|173:148|173:148|-1:163,1,225
510,240,110943,2,0,B|343:254|343:254|292:226,1,225
305,122,111766,1,0,0:0:0:0:
208,274,111972,1,0,0:0:0:0:
411,93,112178,1,0,0:0:0:0:
96,302,112383,1,0,0:0:0:0:
292,226,112589,6,0,P|306:289|265:361,2,150
217,151,113618,2,0,P|204:115|210:76,1,75
380,187,114029,1,0,0:0:0:0:
192,243,114235,6,0,P|85:261|5:189,1,225
79,114,115058,1,0,0:0:0:0:
218,341,115264,2,0,L|297:334,1,75
367,260,115675,1,0,0:0:0:0:
386,35,115881,6,0,L|366:258,1,225
145,258,116704,2,0,L|126:35,1,225
222,76,117527,1,0,0:0:0:0:
55,214,117732,1,0,0:0:0:0:
258,289,117938,1,0,0:0:0:0:
75,82,118144,1,0,0:0:0:0:
345,27,118349,1,0,0:0:0:0:
237,149,118555,5,0,0:0:0:0:
237,149,118761,1,0,0:0:0:0:
60,372,122052,5,0,0:0:0:0:
55,279,122276,5,0,0:0:0:0:
43,175,122368,1,0,0:0:0:0:
55,279,122460,1,0,0:0:0:0:
43,175,122552,1,0,0:0:0:0:
55,279,122645,2,0,L|150:270,1,75
193,209,122829,2,0,L|288:217,1,75
442,379,123014,5,0,0:0:0:0:
442,221,123106,1,0,0:0:0:0:
349,348,123198,1,0,0:0:0:0:
499,300,123291,1,0,0:0:0:0:
349,251,123383,2,0,L|357:155,1,75
430,101,123568,2,0,L|423:27,1,75
270,78,123752,5,0,0:0:0:0:
166,66,123844,1,0,0:0:0:0:
270,78,123936,1,0,0:0:0:0:
166,66,124028,1,0,0:0:0:0:
270,78,124122,2,0,L|365:69,1,75
81,51,124306,2,0,L|6:58,1,75
65,145,124491,5,0,0:0:0:0:
27,225,124583,1,0,0:0:0:0:
50,310,124675,1,0,0:0:0:0:
121,361,124769,5,0,0:0:0:0:
257,267,124861,1,0,0:0:0:0:
172,290,124953,5,0,0:0:0:0:
338,305,125045,1,0,0:0:0:0:
423,328,125137,1,0,0:0:0:0:
504,290,125229,6,0,P|513:249|499:209,1,75
312,98,125414,2,0,P|303:139|317:179,1,75
410,131,125599,1,0,0:0:0:0:
386,29,125691,1,0,0:0:0:0:
247,216,125783,2,0,P|278:244|319:252,1,75
312,98,125968,5,0,0:0:0:0:
235,27,126060,1,0,0:0:0:0:
139,70,126152,2,0,L|27:60,1,75
386,29,126337,2,0,L|460:35,1,75
228,101,126522,2,0,L|234:26,1,75
293,186,126706,5,0,0:0:0:0:
281,290,126798,1,0,0:0:0:0:
293,186,126890,1,0,0:0:0:0:
281,290,126982,1,0,0:0:0:0:
293,186,127076,2,0,P|329:177|389:197,1,75
220,355,127260,2,0,P|184:364|124:344,1,75
72,282,127445,5,0,0:0:0:0:
26,205,127537,1,0,0:0:0:0:
36,118,127629,1,0,0:0:0:0:
98,54,127723,1,0,0:0:0:0:
159,118,127815,1,0,0:0:0:0:
247,131,127907,1,0,0:0:0:0:
324,88,127999,1,0,0:0:0:0:
397,37,128091,1,0,0:0:0:0:
485,53,128183,5,0,0:0:0:0:
484,83,128276,1,0,0:0:0:0:
483,112,128368,1,0,0:0:0:0:
482,141,128460,1,0,0:0:0:0:
418,204,128552,5,0,0:0:0:0:
419,233,128644,1,0,0:0:0:0:
420,262,128736,1,0,0:0:0:0:
421,292,128829,1,0,0:0:0:0:
485,356,128922,5,0,0:0:0:0:
413,376,129014,1,0,0:0:0:0:
346,340,129106,1,0,0:0:0:0:
318,269,129199,1,0,0:0:0:0:
246,249,129291,1,0,0:0:0:0:
179,285,129383,1,0,0:0:0:0:
151,356,129476,1,0,0:0:0:0:
96,304,129568,1,0,0:0:0:0:
21,300,129660,5,0,0:0:0:0:
10,272,129752,1,0,0:0:0:0:
8,241,129845,1,0,0:0:0:0:
14,211,129937,1,0,0:0:0:0:
98,180,130029,5,0,0:0:0:0:
104,150,130121,1,0,0:0:0:0:
102,119,130214,1,0,0:0:0:0:
91,91,130306,1,0,0:0:0:0:
5,61,130399,6,0,P|3:104|20:141,1,75
194,158,130583,2,0,P|196:115|179:78,1,75
98,180,130768,2,0,P|96:223|113:260,1,75
287,277,130952,2,0,P|289:234|272:197,1,75
184,85,131137,5,0,0:0:0:0:
259,36,131229,1,0,0:0:0:0:
348,47,131322,1,0,0:0:0:0:
412,108,131414,1,0,0:0:0:0:
431,17,131506,6,0,L|542:26,1,75
277,204,131691,2,0,L|165:194,1,75
332,342,131876,6,0,L|339:268,1,75
158,39,132061,2,0,L|152:114,1,75
93,277,132245,6,0,L|168:284,1,75
397,104,132430,2,0,L|322:97,1,75
36,339,132614,5,0,0:0:0:0:
30,224,132706,1,0,0:0:0:0:
36,339,132799,1,0,0:0:0:0:
30,224,132891,1,0,0:0:0:0:
36,339,132983,2,0,P|68:358|117:356,1,75
237,304,133168,2,0,P|205:285|156:287,1,75
105,359,133352,5,0,0:0:0:0:
164,290,133445,1,0,0:0:0:0:
186,203,133537,1,0,0:0:0:0:
166,115,133629,1,0,0:0:0:0:
102,50,133722,1,0,0:0:0:0:
80,137,133814,1,0,0:0:0:0:
100,225,133906,1,0,0:0:0:0:
164,290,133999,1,0,0:0:0:0:
259,307,134091,6,0,L|370:297,1,75
397,236,134276,1,0,0:0:0:0:
456,360,134368,1,0,0:0:0:0:
251,286,134460,6,0,L|362:276,1,75
471,229,134645,2,0,L|359:238,1,75
339,66,134829,5,0,0:0:0:0:
332,172,134922,1,0,0:0:0:0:
339,66,135014,1,0,0:0:0:0:
332,172,135107,1,0,0:0:0:0:
339,66,135199,2,0,L|227:75,1,75
174,121,135383,2,0,P|163:88|181:15,1,75
419,21,135568,6,0,P|430:54|411:126,1,75
332,172,135752,1,0,0:0:0:0:
339,66,135845,1,0,0:0:0:0:
433,10,135937,6,0,P|444:43|425:115,1,75
340,244,136122,2,0,P|329:211|347:138,1,75
452,280,136306,5,0,0:0:0:0:
390,346,136399,1,0,0:0:0:0:
300,351,136491,1,0,0:0:0:0:
227,298,136583,1,0,0:0:0:0:
165,232,136676,1,0,0:0:0:0:
75,227,136769,1,0,0:0:0:0:
2,280,136861,5,0,0:0:0:0:
125,145,136952,1,0,0:0:0:0:
227,298,137045,2,0,L|220:377,1,75
114,127,137229,2,0,L|120:52,1,75
199,6,137414,5,0,0:0:0:0:
36,81,137506,1,0,0:0:0:0:
235,178,137599,2,0,P|269:189|321:177,1,75
501,53,137783,2,0,P|467:42|415:54,1,75
377,312,137968,2,0,P|371:275|382:239,1,75
11,331,138152,2,0,P|45:342|97:330,1,75
135,72,138337,2,0,P|140:108|129:144,1,75
40,64,138522,5,0,0:0:0:0:
214,31,138614,1,0,0:0:0:0:
156,218,138706,2,0,P|118:220|84:207,1,75
128,144,138891,5,0,0:0:0:0:
216,126,138983,1,0,0:0:0:0:
304,144,139076,1,0,0:0:0:0:
375,198,139168,1,0,0:0:0:0:
463,210,139260,5,0,0:0:0:0:
380,175,139352,1,0,0:0:0:0:
301,220,139445,1,0,0:0:0:0:
273,305,139537,1,0,0:0:0:0:
196,352,139629,1,0,0:0:0:0:
108,333,139722,1,0,0:0:0:0:
64,254,139814,1,0,0:0:0:0:
1,190,139906,1,0,0:0:0:0:
185,189,139999,5,0,0:0:0:0:
92,158,140091,1,0,0:0:0:0:
92,61,140183,1,0,0:0:0:0:
185,31,140276,1,0,0:0:0:0:
242,110,140368,1,0,0:0:0:0:
315,44,140460,1,0,0:0:0:0:
399,93,140552,1,0,0:0:0:0:
378,189,140645,1,0,0:0:0:0:
281,198,140737,6,0,L|289:293,1,75
484,83,140922,2,0,L|475:-12,1,75
175,304,141106,2,0,L|183:399,1,75
378,189,141291,2,0,L|369:93,1,75
315,44,141476,5,0,0:0:0:0:
235,5,141568,1,0,0:0:0:0:
147,18,141660,1,0,0:0:0:0:
82,78,141752,1,0,0:0:0:0:
43,157,141845,1,0,0:0:0:0:
56,245,141937,1,0,0:0:0:0:
116,310,142029,1,0,0:0:0:0:
197,349,142122,1,0,0:0:0:0:
286,343,142214,6,0,P|294:294|282:261,1,75
212,110,142399,2,0,P|204:159|216:192,1,75
45,314,142583,6,0,P|128:327|185:307,1,75
443,187,142768,2,0,P|359:174|302:194,1,75
100,244,142952,5,0,0:0:0:0:
88,136,143045,1,0,0:0:0:0:
100,244,143137,1,0,0:0:0:0:
88,136,143229,1,0,0:0:0:0:
100,244,143322,2,0,L|195:235,1,75
370,173,143506,2,0,L|274:181,1,75
231,115,143691,5,0,0:0:0:0:
297,55,143783,1,0,0:0:0:0:
387,58,143876,1,0,0:0:0:0:
464,102,143968,1,0,0:0:0:0:
493,186,144060,1,0,0:0:0:0:
471,273,144152,1,0,0:0:0:0:
387,308,144245,1,0,0:0:0:0:
298,320,144337,1,0,0:0:0:0:
225,266,144429,6,0,P|182:243|152:242,1,75
40,319,144614,2,0,P|83:342|113:343,1,75
403,40,144799,6,0,P|440:45|472:65,1,75
355,142,144984,2,0,P|318:137|287:118,1,75
223,54,145168,6,0,P|259:33|307:31,1,75
415,206,145352,2,0,P|379:227|331:229,1,75
259,343,145537,6,0,P|223:364|175:366,1,75
67,191,145721,2,0,P|103:170|151:168,1,75
256,192,145899,5,0,0:0:0:0:
214,263,146088,5,0,0:0:0:0:
214,119,146183,1,0,0:0:0:0:
338,192,146278,1,0,0:0:0:0:
132,191,146468,5,0,0:0:0:0:
318,83,146563,1,0,0:0:0:0:
317,299,146658,1,0,0:0:0:0:
214,119,146848,5,0,0:0:0:0:
339,191,146943,1,0,0:0:0:0:
214,263,147038,1,0,0:0:0:0:
318,85,147227,5,0,0:0:0:0:
318,300,147322,1,0,0:0:0:0:
132,192,147417,1,0,0:0:0:0:
338,191,147607,5,0,0:0:0:0:
214,263,147702,1,0,0:0:0:0:
215,120,147797,1,0,0:0:0:0:
317,299,147986,5,0,0:0:0:0:
131,192,148081,1,0,0:0:0:0:
318,85,148176,1,0,0:0:0:0:
162,352,148366,5,0,0:0:0:0:
161,30,148461,1,0,0:0:0:0:
440,193,148556,1,0,0:0:0:0:
256,192,148746,5,0,0:0:0:0:
37,327,148936,6,0,B|99:305|132:318|132:318|168:329|232:309,1,194.999991073609
330,368,149220,1,0,0:0:0:0:
256,192,149315,2,0,P|296:170|356:179,1,97.4999955368044
420,350,149505,2,0,P|380:372|320:363,1,97.4999955368044
165,238,149695,6,0,B|172:155|172:155|198:125|198:125|205:53,1,194.999991073609
313,8,149979,1,0,0:0:0:0:
119,80,150074,2,0,L|21:71,1,97.4999955368044
256,192,150264,1,0,0:0:0:0:
205,53,150454,5,0,0:0:0:0:
165,238,150549,1,0,0:0:0:0:
443,189,150644,2,0,L|346:181,1,97.4999955368044
227,173,150834,5,0,0:0:0:0:
187,358,150929,1,0,0:0:0:0:
367,300,151024,2,0,L|465:309,1,97.4999955368044
421,69,151213,2,0,L|324:61,1,97.4999955368044
205,53,151403,5,0,0:0:0:0:
90,30,151498,1,0,0:0:0:0:
7,112,151593,2,0,B|14:195|14:195|40:225|40:225|47:297,1,194.999991073609
339,266,151973,6,0,P|259:213|157:240,1,194.999991073609
238,327,152257,1,0,0:0:0:0:
401,327,152352,2,0,P|426:279|417:230,1,97.4999955368044
186,142,152542,2,0,P|161:190|170:239,1,97.4999955368044
339,266,152732,2,0,L|356:66,1,194.999991073609
279,0,153016,1,0,0:0:0:0:
452,117,153111,6,0,L|443:19,1,97.4999955368044
258,102,153301,2,0,L|267:200,1,97.4999955368044
166,285,153491,5,0,0:0:0:0:
346,143,153586,1,0,0:0:0:0:
142,72,153681,2,0,L|151:170,1,97.4999955368044
282,315,153871,5,0,0:0:0:0:
462,173,153966,1,0,0:0:0:0:
258,102,154061,2,0,L|267:200,1,97.4999955368044
35,140,154250,2,0,L|26:42,1,97.4999955368044
462,173,154440,2,0,L|471:271,1,97.4999955368044
222,366,154630,6,0,P|126:375|59:307,1,194.999991073609
180,76,155010,6,0,L|161:283,1,194.999991073609
222,366,155294,1,0,0:0:0:0:
80,214,155389,2,0,P|60:167|68:107,1,97.4999955368044
252,13,155579,2,0,P|272:60|264:120,1,97.4999955368044
76,95,155769,6,0,B|135:88|171:100|171:100|211:113|272:105,1,194.999991073609
352,22,156053,1,0,0:0:0:0:
342,184,156148,2,0,P|390:199|449:186,1,97.4999955368044
487,111,156338,1,0,0:0:0:0:
395,109,156528,5,0,0:0:0:0:
443,303,156623,1,0,0:0:0:0:
250,247,156718,2,0,L|138:256,1,97.4999955368044
297,117,156908,5,0,0:0:0:0:
345,311,157003,1,0,0:0:0:0:
152,255,157098,2,0,L|40:264,1,97.4999955368044
93,152,157287,5,0,0:0:0:0:
109,358,157382,1,0,0:0:0:0:
279,243,157477,2,0,L|376:235,1,97.4999955368044
459,151,157667,6,0,P|477:98|459:50,1,97.4999955368044
53,233,157857,2,0,P|35:286|53:334,1,97.4999955368044
376,234,158047,6,0,B|296:240|296:240|272:274|272:274|171:284,1,194.999991073609
115,364,158331,1,0,0:0:0:0:
221,188,158426,2,0,L|209:60,1,97.4999955368044
458,276,158616,2,0,L|469:403,1,97.4999955368044
42,128,158806,6,0,P|123:72|230:105,1,194.999991073609
198,281,159090,1,0,0:0:0:0:
376,234,159185,2,0,L|278:242,1,97.4999955368044
453,173,159375,1,0,0:0:0:0:
338,332,159565,5,0,0:0:0:0:
294,72,159660,1,0,0:0:0:0:
91,241,159755,1,0,0:0:0:0:
255,365,159850,5,0,0:0:0:0:
211,105,159945,2,0,L|83:116,1,97.4999955368044
338,332,160134,2,0,L|465:320,1,97.4999955368044
17,16,160324,5,0,0:0:0:0:
173,201,160514,1,0,0:0:0:0:
469,71,160704,2,0,P|411:30|323:48,1,150
388,119,161107,5,0,0:0:0:0:
