osu file format v14

[General]
AudioFilename: audio.mp3
AudioLeadIn: 0
PreviewTime: 122183
Countdown: 1
SampleSet: None
StackLeniency: 0.4
Mode: 0
LetterboxInBreaks: 0
WidescreenStoryboard: 1

[Editor]
Bookmarks: 15678,18714,21750,33895,36931,39967,52112,55148,58184,70329,73365,76402,119572,161082
DistanceSpacing: 0.1
BeatDivisor: 4
GridSize: 8
TimelineZoom: 2.100005

[Metadata]
Title:Imaginary Places
TitleUnicode:Imaginary Places
Artist:Busdriver
ArtistUnicode:Busdriver
Creator:DJKratos
Version:Kuroame's dancing bhop
Source:
Tags:
BeatmapID:1701645
BeatmapSetID:810290

[Difficulty]
HPDrainRate:3
CircleSize:3.8
OverallDifficulty:10
ApproachRate:9.8
SliderMultiplier:2.4
SliderTickRate:1

[Events]
//Background and Video events
0,0,"surreal-world-1080P-wallpaper.jpg",0,0
//Break Periods
2,76705,79216
2,119346,121612
2,146014,147698
//Storyboard Layer 0 (Background)
//Storyboard Layer 1 (Fail)
//Storyboard Layer 2 (Pass)
//Storyboard Layer 3 (Foreground)
//Storyboard Sound Samples

[TimingPoints]
495,379.578667678876,4,3,0,60,1,0
15678,-333.333333333333,4,3,0,40,0,0
18714,-100,4,3,0,55,0,0
33897,-333.333333333333,4,3,0,40,0,0
36934,-100,4,3,0,55,0,0
52117,-333.333333333333,4,3,0,40,0,0
55154,-100,4,3,0,55,0,0
70337,-25,4,3,0,40,0,0
70717,-50,4,3,0,40,0,0
70906,-25,4,3,0,40,0,0
71286,-20,4,3,0,40,0,0
72045,-50,4,3,0,40,0,0
72235,-25,4,3,0,40,0,0
73184,-20,4,3,0,40,0,0
73374,-100,4,3,0,55,0,0
76031,-111.111111111111,4,3,0,55,0,0
79695,410.958904109589,4,3,0,60,1,0
118325,-142.857142857143,4,3,0,30,0,0
118736,-250,4,3,0,15,0,0
119147,394.736842105263,4,3,0,60,1,0
122091,184.615384615385,4,3,0,60,1,0
122091,-100,4,3,0,70,0,0
122276,369.230769230769,4,3,0,60,1,0
122276,-100,4,3,0,90,0,1
145900,379.626700411262,4,3,0,60,1,0
148177,-333.333333333333,4,3,0,40,0,0
148937,-100,4,3,0,55,0,0
161085,369.11719470932,4,3,0,60,1,0

[Colours]
Combo1 : 255,224,130
Combo2 : 0,64,128
Combo3 : 128,255,128
Combo4 : 235,235,235

[HitObjects]
380,211,495,5,0,0:0:0:0:
280,125,684,2,0,L|232:85,2,60,0|0|0,0:0|0:0|0:0,0:0:0:0:
149,203,1064,2,0,L|197:163,2,60,0|0|0,0:0|0:0|0:0,0:0:0:0:
280,281,1443,2,0,L|232:241,2,60,0|0|0,0:0|0:0|0:0,0:0:0:0:
364,164,1823,6,0,L|317:202,1,60,0|0,0:0|0:0,0:0:0:0:
437,101,2013,1,0,0:0:0:0:
317,202,2203,2,0,L|363:240,1,60,0|0,0:0|0:0,0:0:0:0:
244,139,2392,1,0,0:0:0:0:
363,37,2582,2,0,L|316:75,1,60,0|0,0:0|0:0,0:0:0:0:
363,37,2772,5,0,0:0:0:0:
404,28,2867,1,0,0:0:0:0:
442,43,2962,1,0,0:0:0:0:
473,70,3057,1,0,0:0:0:0:
491,107,3152,1,0,0:0:0:0:
491,147,3246,1,0,0:0:0:0:
471,184,3341,1,0,0:0:0:0:
442,215,3436,1,0,0:0:0:0:
403,232,3531,6,0,L|340:240,1,60,0|0,0:0|0:0,0:0:0:0:
246,258,3721,1,0,0:0:0:0:
324,140,3816,1,0,0:0:0:0:
348,241,3911,6,0,L|366:310,1,60,0|0,0:0|0:0,0:0:0:0:
382,383,4100,1,0,0:0:0:0:
468,281,4195,1,0,0:0:0:0:
360,297,4290,6,0,P|293:300|238:335,1,120,0|0,0:0|0:0,0:0:0:0:
159,265,4575,1,0,0:0:0:0:
250,208,4670,2,0,P|259:275|240:341,1,120,0|0,0:0|0:0,0:0:0:0:
169,176,5049,5,0,0:0:0:0:
260,119,5144,1,0,0:0:0:0:
166,69,5239,2,0,L|113:106,1,60,0|0,0:0|0:0,0:0:0:0:
169,176,5429,5,0,0:0:0:0:
78,233,5524,1,0,0:0:0:0:
172,283,5619,2,0,L|225:246,1,60,0|0,0:0|0:0,0:0:0:0:
309,84,5809,6,0,L|256:121,1,60,0|0,0:0|0:0,0:0:0:0:
169,176,5998,1,0,0:0:0:0:
312,190,6093,1,0,0:0:0:0:
172,283,6188,2,0,B|111:333|111:333|63:333,1,120,0|0,0:0|0:0,0:0:0:0:
77,173,6568,6,0,L|78:249,1,60,0|0,0:0|0:0,0:0:0:0:
85,256,6758,1,0,0:0:0:0:
99,275,6852,1,0,0:0:0:0:
118,289,6947,2,0,L|177:304,1,60,0|0,0:0|0:0,0:0:0:0:
211,157,7137,6,0,L|164:201,1,60,0|0,0:0|0:0,0:0:0:0:
331,180,7327,2,0,L|378:136,1,60,0|0,0:0|0:0,0:0:0:0:
265,239,7517,5,0,0:0:0:0:
283,110,7612,1,0,0:0:0:0:
150,111,7706,2,0,P|95:149|79:206,1,120,0|0,0:0|0:0,0:0:0:0:
176,331,8086,5,0,0:0:0:0:
168,199,8181,1,0,0:0:0:0:
317,268,8276,2,0,L|254:269,1,60,0|0,0:0|0:0,0:0:0:0:
106,267,8466,5,0,3:0:0:0:
123,132,8561,1,0,0:0:0:0:
0,225,8655,2,0,L|53:187,1,60,0|0,0:0|0:0,0:0:0:0:
174,44,8845,6,0,L|144:112,1,60,0|0,0:0|0:0,0:0:0:0:
236,249,9035,2,0,L|168:206,1,60,0|0,0:0|0:0,0:0:0:0:
345,238,9225,2,0,P|335:298|280:350,1,120,2|0,0:0|0:0,0:0:0:0:
286,153,9604,5,0,0:0:0:0:
404,153,9794,1,0,0:0:0:0:
345,238,9889,1,2,0:0:0:0:
286,153,9984,1,0,3:0:0:0:
168,153,10174,5,2,0:0:0:0:
227,68,10269,1,2,0:0:0:0:
286,153,10364,2,0,L|331:220,1,60,0|0,1:0|0:0,0:0:0:0:
227,68,10553,6,0,L|293:41,1,60,0|0,0:0|0:0,0:0:0:0:
168,153,10743,2,0,L|234:279,1,120,2|0,0:0|0:0,0:0:0:0:
379,200,11123,6,0,L|312:203,1,60,4|0,3:0|0:0,0:0:0:0:
108,155,11312,2,0,L|175:152,1,60,0|0,0:0|0:0,0:0:0:0:
226,319,11502,6,0,L|223:252,1,60,0|0,3:0|0:0,0:0:0:0:
271,48,11692,2,0,L|274:115,1,60,0|0,0:0|0:0,0:0:0:0:
311,277,11882,5,0,1:0:0:0:
244,184,11977,1,0,0:0:0:0:
151,251,12072,5,0,0:0:0:0:
244,184,12167,1,0,0:0:0:0:
177,91,12261,2,0,B|120:33|120:33|75:27,1,120,2|2,0:0|0:0,0:0:0:0:
62,143,12641,5,4,3:0:0:0:
151,251,12831,6,0,L|197:301,2,60,0|0|0,0:0|0:0|3:0,0:0:0:0:
62,143,13210,6,0,L|16:93,2,60,0|0|0,0:0|0:0|1:0,0:0:0:0:
151,251,13590,6,0,L|105:199,1,60,2|0,0:0|0:0,0:0:0:0:
151,251,13780,2,0,P|205:272|226:326,1,120,2|2,0:0|0:0,0:0:0:0:
69,282,14159,5,4,3:0:0:0:
185,167,14254,1,0,0:0:0:0:
226,326,14349,2,0,P|194:335|160:334,1,60,2|0,0:0|0:0,0:0:0:0:
167,228,14539,5,0,0:0:0:0:
51,113,14634,1,2,0:0:0:0:
10,272,14729,2,0,P|42:281|76:280,1,60,0|0,3:0|0:0,0:0:0:0:
191,91,14918,5,0,1:0:0:0:
82,200,15013,1,0,0:0:0:0:
230,79,15108,5,0,0:0:0:0:
98,188,15203,1,0,0:0:0:0:
274,73,15298,2,0,P|338:82|385:114,1,120,2|0,0:0|0:0,0:0:0:0:
452,313,15678,6,0,L|420:317,1,17.9999994506836,2|0,0:0|0:0,0:0:0:0:
305,156,15867,2,0,L|306:186,1,17.9999994506836,2|0,0:0|0:0,0:0:0:0:
165,266,16057,2,0,L|133:270,1,17.9999994506836,0|0,0:0|0:0,0:0:0:0:
67,58,16247,2,0,L|68:88,1,17.9999994506836,0|0,0:0|0:0,0:0:0:0:
452,313,16437,6,0,L|420:317,1,17.9999994506836,2|0,1:2|0:0,0:0:0:0:
305,156,16627,2,0,L|306:186,1,17.9999994506836,2|0,0:0|0:0,0:0:0:0:
165,266,16816,2,0,L|133:270,1,17.9999994506836,2|0,0:0|0:0,0:0:0:0:
67,58,17006,2,0,L|64:84,1,17.9999994506836,2|0,0:0|0:0,0:0:0:0:
67,58,17196,6,0,L|67:41,1,17.9999994506836,2|0,0:0|0:0,0:0:0:0:
165,266,17386,2,0,L|183:264,1,17.9999994506836,2|0,0:0|0:0,0:0:0:0:
305,156,17576,2,0,L|305:139,1,17.9999994506836,0|0,0:0|0:0,0:0:0:0:
452,313,17765,2,0,L|470:311,1,17.9999994506836,0|0,0:0|0:0,0:0:0:0:
67,58,17955,6,0,L|67:41,1,17.9999994506836,2|0,1:2|0:0,0:0:0:0:
165,266,18145,2,0,L|183:264,1,17.9999994506836,2|0,0:0|0:0,0:0:0:0:
305,156,18335,2,0,L|305:139,1,17.9999994506836,0|0,0:0|0:0,0:0:0:0:
452,313,18524,2,0,L|470:311,1,17.9999994506836,2|0,0:0|0:0,0:0:0:0:
306,269,18714,5,4,3:0:0:0:
416,144,18809,2,0,L|426:80,1,60,0|0,0:0|0:0,0:0:0:0:
196,144,18999,2,0,L|186:80,1,60,0|2,0:0|0:0,0:0:0:0:
307,293,19189,1,0,0:0:0:0:
307,71,19284,2,0,L|305:140,1,60,0|0,0:0|0:0,0:0:0:0:
307,321,19473,5,0,1:0:0:0:
425,84,19568,2,0,L|415:143,1,60,0|0,0:0|0:0,0:0:0:0:
306,350,19758,1,0,0:0:0:0:
186,84,19853,2,0,L|195:143,1,60,2|0,0:0|0:0,0:0:0:0:
307,71,20043,2,0,L|308:11,1,60,0|0,0:0|0:0,0:0:0:0:
136,22,20233,5,4,3:0:0:0:
196,144,20327,1,0,0:0:0:0:
76,77,20422,5,0,0:0:0:0:
146,193,20517,1,0,0:0:0:0:
23,154,20612,5,2,0:0:0:0:
112,256,20707,1,0,0:0:0:0:
0,264,20802,5,0,0:0:0:0:
118,329,20897,1,0,0:0:0:0:
233,216,20992,5,4,0:0:0:0:
249,77,21087,1,0,0:0:0:0:
233,216,21182,5,2,0:0:0:0:
339,123,21276,1,2,0:0:0:0:
233,216,21371,5,0,3:0:0:0:
369,228,21466,1,0,0:0:0:0:
233,216,21561,5,0,0:0:0:0:
321,320,21656,1,0,0:0:0:0:
186,299,21751,6,0,B|141:228|141:228|147:183,1,120,4|0,3:0|0:0,0:0:0:0:
203,101,22036,1,0,0:0:0:0:
73,148,22130,2,0,B|60:243|60:243|75:275,1,120,0|0,3:0|3:0,0:0:0:0:
158,368,22415,5,0,0:0:0:0:
276,305,22510,2,0,B|321:234|321:234|315:189,1,120,0|0,1:0|0:0,0:0:0:0:
259,103,22795,1,0,0:0:0:0:
389,150,22890,2,0,B|402:245|402:245|387:277,1,120,2|0,0:0|0:0,0:0:0:0:
233,216,23269,5,4,3:0:0:0:
338,88,23364,1,0,0:0:0:0:
317,251,23459,2,0,P|290:286|260:301,1,60,0|0,0:0|0:0,0:0:0:0:
310,168,23649,6,0,P|352:178|378:199,1,60,0|0,3:0|0:0,0:0:0:0:
373,316,23839,1,0,0:0:0:0:
239,117,23933,2,0,P|276:94|310:90,1,60,0|2,0:0|1:2,0:0:0:0:
317,251,24123,5,0,0:0:0:0:
156,108,24218,2,0,P|166:65|187:39,1,60,0|0,0:0|0:0,0:0:0:0:
173,219,24408,2,0,P|83:199|50:164,1,120,2|0,0:0|0:0,0:0:0:0:
253,191,24788,6,0,L|254:262,1,60,4|0,3:0|0:0,0:0:0:0:
330,133,24977,1,2,0:0:0:0:
183,127,25072,1,0,0:0:0:0:
337,231,25167,6,0,L|351:300,1,60,0|0,3:0|0:0,0:0:0:0:
406,166,25357,1,2,3:2:0:0:
257,114,25452,1,0,0:0:0:0:
428,256,25547,6,0,L|464:318,1,60,0|0,1:0|0:0,0:0:0:0:
486,176,25736,1,0,0:0:0:0:
330,133,25831,1,0,0:0:0:0:
428,256,25926,2,0,P|448:318|414:367,1,120,2|0,0:0|0:0,0:0:0:0:
406,166,26306,6,0,P|417:130|436:109,1,60,4|0,3:0|0:0,0:0:0:0:
322,234,26496,1,0,0:0:0:0:
277,75,26591,1,0,0:0:0:0:
217,234,26685,5,2,0:0:0:0:
345,122,26780,1,0,0:0:0:0:
184,87,26875,2,0,P|142:90|106:112,1,60,0|0,0:0|0:0,0:0:0:0:
211,158,27065,6,0,P|253:155|289:133,1,60,0|0,1:0|0:0,0:0:0:0:
123,172,27255,1,0,0:0:0:0:
197,312,27350,1,0,0:0:0:0:
50,218,27445,2,0,P|32:158|53:101,1,120,0|0,0:0|0:0,0:0:0:0:
217,234,27824,5,6,0:0:0:0:
238,325,28014,2,0,L|252:384,1,60,0|0,0:0|0:0,0:0:0:0:
217,234,28204,5,0,3:0:0:0:
129,254,28394,2,0,L|70:268,1,60,0|0,0:0|0:0,0:0:0:0:
217,234,28583,5,0,1:0:0:0:
196,143,28773,2,0,L|182:84,1,60,0|0,0:0|0:0,0:0:0:0:
217,234,28963,2,0,L|345:205,1,120,2|0,0:0|0:0,0:0:0:0:
406,117,29342,5,4,3:0:0:0:
396,283,29437,1,0,3:0:0:0:
304,135,29532,2,0,P|309:93|325:64,1,60,0|0,0:0|0:0,0:0:0:0:
471,213,29722,6,0,P|429:208|400:192,1,60,2|0,0:0|0:0,0:0:0:0:
406,117,29912,1,0,0:0:0:0:
317,227,30007,1,0,0:0:0:0:
233,90,30102,6,0,P|237:52|254:25,1,60,0|0,0:0|0:0,0:0:0:0:
144,188,30291,2,0,P|140:150|123:123,1,60,0|0,0:0|0:0,0:0:0:0:
226,288,30481,2,0,L|246:219,3,60,2|2|0|0,0:0|0:0|0:0|0:0,0:0:0:0:
334,110,30861,6,0,L|346:179,1,60,0|0,0:0|0:0,0:0:0:0:
397,252,31051,1,0,0:0:0:0:
251,101,31145,1,0,0:0:0:0:
431,33,31240,6,0,L|418:108,1,60,0|0,3:0|0:0,0:0:0:0:
392,179,31430,1,0,0:0:0:0:
505,69,31525,1,0,0:0:0:0:
223,47,31620,6,0,L|260:120,1,60,0|0,0:0|0:0,0:0:0:0:
324,171,31810,1,0,0:0:0:0:
140,51,31905,1,0,0:0:0:0:
348,58,32000,2,0,B|298:113|359:125|308:198,1,120,0|0,0:0|0:0,0:0:0:0:
351,307,32379,5,0,0:0:0:0:
242,199,32474,1,0,0:0:0:0:
432,188,32569,2,0,L|379:224,1,60,0|0,0:0|0:0,0:0:0:0:
228,309,32759,5,0,0:0:0:0:
165,169,32854,1,0,0:0:0:0:
308,245,32948,1,0,3:0:0:0:
141,264,33043,1,0,0:0:0:0:
264,150,33138,6,0,P|269:109|257:77,1,60,0|0,0:0|0:0,0:0:0:0:
165,169,33328,1,0,0:0:0:0:
228,309,33423,1,0,0:0:0:0:
351,101,33518,2,0,P|344:66|328:39,1,60,0|0,0:0|0:0,0:0:0:0:
451,132,33708,2,0,L|395:177,1,60,0|0,0:0|0:0,0:0:0:0:
308,255,33897,6,0,L|335:239,1,17.9999994506836,0|0,0:0|0:0,0:0:0:0:
100,243,34087,2,0,L|79:262,1,17.9999994506836,0|0,0:0|0:0,0:0:0:0:
216,134,34277,2,0,L|199:114,1,17.9999994506836,0|0,0:0|0:0,0:0:0:0:
213,338,34467,2,0,L|229:362,1,17.9999994506836,0|0,0:0|0:0,0:0:0:0:
424,235,34657,6,0,L|426:267,1,17.9999994506836,0|0,0:0|0:0,0:0:0:0:
281,209,34846,2,0,L|286:230,1,17.9999994506836,0|0,0:0|0:0,0:0:0:0:
126,140,35036,2,0,L|142:156,1,17.9999994506836,0|0,0:0|0:0,0:0:0:0:
24,31,35226,2,0,L|49:24,1,17.9999994506836,0|0,0:0|0:0,0:0:0:0:
24,31,35416,6,0,L|53:28,1,17.9999994506836,0|0,0:0|0:0,0:0:0:0:
126,140,35606,2,0,L|141:131,1,17.9999994506836,0|0,0:0|0:0,0:0:0:0:
281,209,35795,2,0,L|284:185,1,17.9999994506836,0|0,0:0|0:0,0:0:0:0:
424,235,35985,2,0,L|420:203,1,17.9999994506836,0|0,0:0|0:0,0:0:0:0:
401,35,36175,6,0,L|408:62,1,17.9999994506836,0|0,0:0|0:0,0:0:0:0:
319,120,36365,2,0,L|336:145,1,17.9999994506836,0|0,0:0|0:0,0:0:0:0:
221,215,36554,2,0,L|243:234,1,17.9999994506836,0|0,0:0|0:0,0:0:0:0:
95,322,36744,2,0,L|126:323,1,17.9999994506836,0|0,0:0|0:0,0:0:0:0:
353,325,36934,6,0,L|322:263,1,60,0|0,0:0|0:0,0:0:0:0:
251,146,37124,1,0,0:0:0:0:
436,229,37219,1,0,0:0:0:0:
230,280,37314,5,0,0:0:0:0:
362,127,37409,1,0,0:0:0:0:
181,107,37503,2,0,P|171:146|176:184,1,60,0|0,0:0|0:0,0:0:0:0:
85,82,37693,6,0,P|95:43|90:5,1,60,0|0,0:0|0:0,0:0:0:0:
0,182,37883,2,0,P|1:152|10:124,1,60,0|0,0:0|0:0,0:0:0:0:
91,286,38073,2,0,L|37:311,1,60,0|0,0:0|0:0,0:0:0:0:
230,280,38263,2,0,L|239:213,1,60,0|0,0:0|0:0,0:0:0:0:
271,37,38452,5,0,0:0:0:0:
375,106,38547,1,0,0:0:0:0:
279,122,38642,5,0,0:0:0:0:
350,234,38737,1,0,0:0:0:0:
254,250,38832,5,0,0:0:0:0:
281,366,38927,1,0,0:0:0:0:
179,208,39022,5,0,0:0:0:0:
171,328,39117,1,0,0:0:0:0:
113,102,39212,5,0,0:0:0:0:
88,230,39306,1,0,0:0:0:0:
204,80,39401,5,0,0:0:0:0:
179,208,39496,1,0,0:0:0:0:
279,122,39591,5,0,0:0:0:0:
254,250,39686,1,0,0:0:0:0:
375,106,39781,5,0,0:0:0:0:
350,234,39876,1,0,0:0:0:0:
456,95,39971,5,0,0:0:0:0:
436,236,40160,2,0,L|454:297,1,60,0|0,0:0|0:0,0:0:0:0:
374,82,40350,5,0,0:0:0:0:
340,202,40540,2,0,L|366:267,1,60,0|0,0:0|0:0,0:0:0:0:
302,24,40730,5,0,0:0:0:0:
229,177,40920,2,0,L|265:231,1,60,0|0,0:0|0:0,0:0:0:0:
217,72,41109,2,0,B|194:124|194:124|239:193,1,120,0|0,0:0|0:0,0:0:0:0:
344,241,41489,5,0,0:0:0:0:
286,121,41584,1,0,0:0:0:0:
427,121,41679,2,0,L|384:183,1,60,0|0,0:0|0:0,0:0:0:0:
342,62,41869,5,0,0:0:0:0:
210,103,41963,1,0,0:0:0:0:
427,121,42058,2,0,L|356:144,1,60,0|0,0:0|0:0,0:0:0:0:
247,231,42248,6,0,L|318:208,1,60,0|0,0:0|0:0,0:0:0:0:
179,180,42438,1,0,0:0:0:0:
379,244,42533,1,0,0:0:0:0:
298,114,42628,2,0,L|260:62,1,60,0|0,0:0|0:0,0:0:0:0:
153,234,42818,2,0,L|188:161,1,60,0|0,0:0|0:0,0:0:0:0:
276,317,43007,5,0,0:0:0:0:
379,244,43102,2,0,L|427:207,2,60,0|0|0,0:0|0:0|0:0,0:0:0:0:
276,317,43387,1,0,0:0:0:0:
276,317,43577,5,0,0:0:0:0:
265,189,43672,1,0,0:0:0:0:
379,244,43766,1,0,0:0:0:0:
379,244,43956,5,0,0:0:0:0:
265,189,44051,1,0,0:0:0:0:
368,116,44146,2,0,P|431:116|414:175,1,120,0|0,0:0|0:0,0:0:0:0:
379,244,44526,5,0,0:0:0:0:
281,100,44621,1,0,0:0:0:0:
192,229,44715,1,0,0:0:0:0:
338,170,44810,5,0,0:0:0:0:
315,336,44905,1,0,0:0:0:0:
265,189,45000,1,0,0:0:0:0:
449,183,45095,6,0,L|390:216,1,60,0|0,0:0|0:0,0:0:0:0:
271,270,45285,1,0,0:0:0:0:
448,336,45380,5,0,0:0:0:0:
449,183,45475,2,0,P|443:144|432:118,1,60,0|0,0:0|0:0,0:0:0:0:
292,38,45664,2,0,P|282:67|279:97,1,60,0|0,0:0|0:0,0:0:0:0:
425,164,45854,2,0,P|419:125|408:99,1,60,0|0,0:0|0:0,0:0:0:0:
272,195,46044,5,0,0:0:0:0:
174,104,46234,2,0,L|108:98,1,60,0|0,0:0|0:0,0:0:0:0:
272,195,46424,5,0,0:0:0:0:
353,92,46613,2,0,L|419:86,1,60,0|0,0:0|0:0,0:0:0:0:
260,44,46803,5,0,0:0:0:0:
260,44,46993,1,0,0:0:0:0:
283,216,47088,1,0,0:0:0:0:
230,22,47183,2,0,P|163:14|109:29,1,120,0|0,0:0|0:0,0:0:0:0:
129,211,47562,5,0,0:0:0:0:
243,107,47657,2,0,L|173:137,1,60,0|0,0:0|0:0,0:0:0:0:
161,252,47847,5,0,0:0:0:0:
14,112,47942,2,0,L|84:142,1,60,0|0,0:0|0:0,0:0:0:0:
108,253,48132,5,0,0:0:0:0:
319,197,48227,2,0,L|254:197,1,60,0|0,0:0|0:0,0:0:0:0:
18,237,48416,6,0,L|94:251,1,60,0|0,0:0|0:0,0:0:0:0:
230,283,48606,1,0,0:0:0:0:
144,95,48701,2,0,L|184:163,1,60,0|0,0:0|0:0,0:0:0:0:
287,45,48891,2,0,L|228:43,1,60,0|0,0:0|0:0,0:0:0:0:
95,30,49081,5,0,0:0:0:0:
95,172,49270,1,0,0:0:0:0:
95,172,49365,2,0,L|127:229,1,60,0|0,0:0|0:0,0:0:0:0:
203,94,49650,5,0,0:0:0:0:
203,94,49745,2,0,L|171:151,1,60,0|0,0:0|0:0,0:0:0:0:
309,290,50030,6,0,L|341:233,1,60,0|0,0:0|0:0,0:0:0:0:
334,69,50219,2,0,L|258:193,1,120,0|0,0:0|0:0,0:0:0:0:
162,296,50599,6,0,L|204:242,1,60,0|0,0:0|0:0,0:0:0:0:
225,108,50789,1,0,0:0:0:0:
418,83,50884,6,0,L|376:137,1,60,0|0,0:0|0:0,0:0:0:0:
355,271,51073,1,0,0:0:0:0:
303,124,51168,5,0,0:0:0:0:
448,181,51263,2,0,P|469:218|470:249,1,60,0|0,0:0|0:0,0:0:0:0:
385,368,51453,6,0,P|348:347|317:346,1,60,0|0,0:0|0:0,0:0:0:0:
194,337,51643,1,0,0:0:0:0:
336,200,51738,2,0,P|399:172|454:184,1,120,0|0,0:0|0:0,0:0:0:0:
405,292,52117,6,0,L|401:262,1,17.9999994506836,0|0,0:0|0:0,0:0:0:0:
260,171,52307,2,0,L|262:202,1,17.9999994506836,0|0,0:0|0:0,0:0:0:0:
401,91,52497,2,0,L|371:93,1,17.9999994506836,0|0,0:0|0:0,0:0:0:0:
159,183,52687,2,0,L|188:183,1,17.9999994506836,0|0,0:0|0:0,0:0:0:0:
379,184,52876,6,0,L|353:186,1,17.9999994506836,0|0,0:0|0:0,0:0:0:0:
161,91,53066,2,0,L|181:104,1,17.9999994506836,0|0,0:0|0:0,0:0:0:0:
357,281,53256,2,0,L|336:261,1,17.9999994506836,0|0,0:0|0:0,0:0:0:0:
260,47,53446,2,0,L|264:73,1,17.9999994506836,0|0,0:0|0:0,0:0:0:0:
427,100,53636,6,0,L|442:95,1,17.9999994506836,0|0,0:0|0:0,0:0:0:0:
427,100,53825,2,0,L|446:99,1,17.9999994506836,0|0,0:0|0:0,0:0:0:0:
423,290,54015,2,0,L|424:317,1,17.9999994506836,0|0,0:0|0:0,0:0:0:0:
303,139,54205,2,0,L|282:137,1,17.9999994506836,0|0,0:0|0:0,0:0:0:0:
158,314,54395,6,0,L|188:312,1,17.9999994506836,0|0,0:0|0:0,0:0:0:0:
134,109,54584,2,0,L|130:127,1,17.9999994506836,0|0,0:0|0:0,0:0:0:0:
134,109,54774,2,0,L|134:131,1,17.9999994506836,0|0,0:0|0:0,0:0:0:0:
301,276,54964,2,0,L|284:262,1,17.9999994506836,0|0,0:0|0:0,0:0:0:0:
223,118,55154,5,0,0:0:0:0:
178,270,55249,1,0,0:0:0:0:
353,176,55344,2,0,L|281:185,1,60,0|0,0:0|0:0,0:0:0:0:
160,183,55533,5,0,0:0:0:0:
243,331,55628,1,0,0:0:0:0:
55,317,55723,2,0,L|116:298,1,60,0|0,0:0|0:0,0:0:0:0:
293,183,55913,6,0,L|238:206,1,60,0|0,0:0|0:0,0:0:0:0:
169,356,56103,1,0,0:0:0:0:
84,221,56198,1,0,0:0:0:0:
298,266,56293,2,0,L|363:284,1,60,0|0,0:0|0:0,0:0:0:0:
209,132,56482,2,0,L|152:169,1,60,0|0,0:0|0:0,0:0:0:0:
381,74,56672,6,0,L|392:3,1,60,0|0,0:0|0:0,0:0:0:0:
218,229,56862,2,0,L|218:298,1,60,0|0,0:0|0:0,0:0:0:0:
444,225,57052,2,0,L|385:223,1,60,0|0,0:0|0:0,0:0:0:0:
114,47,57242,2,0,L|173:49,1,60,0|0,0:0|0:0,0:0:0:0:
326,97,57431,5,0,0:0:0:0:
298,257,57526,1,0,0:0:0:0:
228,95,57621,5,0,0:0:0:0:
238,261,57716,1,0,0:0:0:0:
113,114,57811,5,0,0:0:0:0:
196,301,57906,1,0,0:0:0:0:
24,254,58001,5,0,0:0:0:0:
198,180,58096,1,0,0:0:0:0:
4,197,58190,6,0,L|24:256,1,60,0|0,0:0|0:0,0:0:0:0:
126,338,58380,2,0,P|149:368|179:373,2,60,0|0|0,0:0|0:0|0:0,0:0:0:0:
113,190,58760,5,0,0:0:0:0:
240,281,58855,2,0,P|276:277|311:253,1,60,0|0,0:0|0:0,0:0:0:0:
242,183,59139,5,0,0:0:0:0:
415,209,59234,1,0,0:0:0:0:
294,109,59329,2,0,P|236:94|170:121,1,120,0|0,0:0|0:0,0:0:0:0:
153,254,59709,5,0,0:0:0:0:
315,192,59804,1,0,0:0:0:0:
282,356,59899,1,0,0:0:0:0:
232,207,59993,5,0,0:0:0:0:
352,300,60088,2,0,L|413:314,1,60,0|0,0:0|0:0,0:0:0:0:
197,338,60278,6,0,L|147:370,1,60,0|0,0:0|0:0,0:0:0:0:
225,180,60468,1,0,0:0:0:0:
270,311,60563,5,0,0:0:0:0:
306,164,60658,1,0,0:0:0:0:
154,219,60753,1,0,0:0:0:0:
187,90,60848,2,0,P|202:59|227:39,1,60,0|0,0:0|0:0,0:0:0:0:
113,135,61037,2,0,P|82:120|62:95,1,60,0|0,0:0|0:0,0:0:0:0:
258,130,61227,6,0,P|289:145|309:170,1,60,0|0,0:0|0:0,0:0:0:0:
252,232,61417,1,0,0:0:0:0:
367,117,61512,1,0,0:0:0:0:
353,263,61607,6,0,P|370:288|408:307,1,60,0|0,0:0|0:0,0:0:0:0:
455,242,61796,1,0,0:0:0:0:
348,371,61891,1,0,0:0:0:0:
468,222,61986,5,0,0:0:0:0:
328,183,62176,1,0,0:0:0:0:
496,151,62271,1,0,0:0:0:0:
367,117,62366,2,0,P|302:109|256:150,1,120,0|0,0:0|0:0,0:0:0:0:
199,273,62745,5,0,0:0:0:0:
154,119,62840,1,0,0:0:0:0:
283,216,62935,2,0,P|301:234|314:282,1,60,0|0,0:0|0:0,0:0:0:0:
74,125,63125,6,0,P|74:99|98:56,1,60,0|0,0:0|0:0,0:0:0:0:
208,187,63315,1,0,0:0:0:0:
210,39,63410,5,0,0:0:0:0:
125,189,63505,2,0,P|107:229|113:274,1,60,0|0,0:0|0:0,0:0:0:0:
227,117,63694,5,0,0:0:0:0:
313,265,63789,1,0,0:0:0:0:
406,127,63884,2,0,P|356:135|332:158,1,60,0|0,0:0|0:0,0:0:0:0:
235,317,64074,2,0,L|234:247,1,60,0|0,0:0|0:0,0:0:0:0:
227,117,64264,6,0,P|244:78|265:57,1,60,0|0,0:0|0:0,0:0:0:0:
275,188,64454,1,0,0:0:0:0:
149,103,64548,5,0,0:0:0:0:
323,42,64643,2,0,P|352:35|397:42,1,60,0|0,0:0|0:0,0:0:0:0:
307,119,64833,5,0,0:0:0:0:
268,0,64928,1,0,0:0:0:0:
447,80,65023,2,0,P|463:108|476:157,1,60,0|0,0:0|0:0,0:0:0:0:
378,107,65213,5,0,0:0:0:0:
453,4,65308,1,0,0:0:0:0:
433,202,65402,2,0,P|410:242|367:263,1,60,0|0,0:0|0:0,0:0:0:0:
303,364,65592,2,0,L|299:297,1,60,0|0,0:0|0:0,0:0:0:0:
214,208,65782,6,0,P|179:236|162:266,1,60,0|0,0:0|0:0,0:0:0:0:
277,129,65972,2,0,P|304:148|332:177,1,60,0|0,0:0|0:0,0:0:0:0:
129,141,66162,6,0,L|65:145,1,60,0|0,0:0|0:0,0:0:0:0:
197,58,66351,2,0,L|260:53,1,60,0|0,0:0|0:0,0:0:0:0:
350,97,66541,5,0,0:0:0:0:
203,134,66636,1,0,0:0:0:0:
323,239,66731,1,0,0:0:0:0:
277,129,66826,1,0,0:0:0:0:
405,222,66921,6,0,P|425:252|435:286,1,60,0|0,0:0|0:0,0:0:0:0:
241,251,67111,2,0,P|228:284|227:320,1,60,0|0,0:0|0:0,0:0:0:0:
94,232,67300,6,0,L|140:185,1,60,0|0,0:0|0:0,0:0:0:0:
66,155,67490,1,0,0:0:0:0:
118,308,67585,1,0,0:0:0:0:
214,101,67680,6,0,L|261:147,1,60,0|0,0:0|0:0,0:0:0:0:
291,73,67870,1,0,0:0:0:0:
138,125,67965,1,0,0:0:0:0:
345,217,68060,6,0,L|299:264,1,60,0|0,0:0|0:0,0:0:0:0:
373,294,68249,1,0,0:0:0:0:
321,141,68344,1,0,0:0:0:0:
186,306,68439,6,0,L|229:348,1,60,0|0,0:0|0:0,0:0:0:0:
256,142,68629,2,0,L|242:201,1,60,0|0,0:0|0:0,0:0:0:0:
137,160,68819,5,0,0:0:0:0:
267,63,68914,1,0,0:0:0:0:
102,0,69008,1,0,0:0:0:0:
194,102,69103,1,0,0:0:0:0:
43,127,69198,6,0,L|97:85,1,60,0|0,0:0|0:0,0:0:0:0:
40,234,69388,2,0,L|-14:184,1,60,0|0,0:0|0:0,0:0:0:0:
54,326,69578,2,0,L|103:283,1,60,0|0,0:0|0:0,0:0:0:0:
209,297,69768,5,0,0:0:0:0:
108,192,69863,1,0,0:0:0:0:
251,158,69957,2,0,P|287:150|330:155,1,60,0|0,0:0|0:0,0:0:0:0:
179,162,70147,2,0,P|171:126|176:83,1,60,0|0,0:0|0:0,0:0:0:0:
245,84,70337,6,0,B|262:17|262:17|298:46|298:46|339:15|339:15|365:99,1,240,0|0,0:0|0:0,0:0:0:0:
317,225,70527,2,0,B|310:151|310:151|387:210|387:210|382:142,1,240,0|0,0:0|0:0,0:0:0:0:
414,361,70717,2,0,L|414:241,1,120,0|0,0:0|0:0,0:0:0:0:
328,360,70906,2,0,B|306:290|306:290|265:321|265:321|229:292|229:292|212:359,1,240,0|0,0:0|0:0,0:0:0:0:
101,355,71096,6,0,B|98:265|98:265|146:264|146:264|44:266,1,240,0|0,0:0|0:0,0:0:0:0:
0,203,71286,2,0,B|-3:109|-3:109|78:109|80:156|33:157|33:157|80:156|80:207|26:204,1,300,0|0,0:0|0:0,0:0:0:0:
136,192,71476,2,0,B|136:111|136:111|235:111|236:190|176:189,1,240,0|0,0:0|0:0,0:0:0:0:
228,36,71666,2,0,B|298:165|298:165|360:21,1,300,0|0,0:0|0:0,0:0:0:0:
512,55,71855,6,0,B|410:53|410:53|458:54|458:54|455:144,1,240,0|0,0:0|0:0,0:0:0:0:
390,146,72045,2,0,L|389:266,1,120,0|0,0:0|0:0,0:0:0:0:
495,267,72235,2,0,B|393:265|393:265|441:266|441:266|438:356,1,240,0|0,0:0|0:0,0:0:0:0:
285,350,72425,2,0,B|285:219|285:219|352:219|352:279|291:279,1,240,0|0,0:0|0:0,0:0:0:0:
145,330,72614,6,0,B|145:249|145:249|244:249|245:328|185:327,1,240,0|0,0:0|0:0,0:0:0:0:
63,341,72804,2,0,P|-15:261|61:242,1,240,0|0,0:0|0:0,0:0:0:0:
145,248,72994,2,0,B|145:117|145:117|212:117|212:177|151:177,1,240,0|0,0:0|0:0,0:0:0:0:
11,164,73184,2,0,B|10:54|10:54|84:54|84:92|35:92|35:92|80:164,1,300,0|0,0:0|0:0,0:0:0:0:
220,64,73374,6,0,L|148:104,1,60,0|0,0:0|0:0,0:0:0:0:
274,162,73563,1,0,0:0:0:0:
309,30,73658,1,0,0:0:0:0:
416,159,73753,6,0,L|368:99,1,60,0|0,0:0|0:0,0:0:0:0:
327,236,73943,2,0,L|375:296,1,60,0|0,0:0|0:0,0:0:0:0:
259,335,74133,5,0,0:0:0:0:
246,236,74228,1,0,0:0:0:0:
136,283,74323,5,0,0:0:0:0:
187,166,74417,1,0,0:0:0:0:
61,172,74512,5,0,0:0:0:0:
209,78,74607,1,0,0:0:0:0:
332,189,74702,5,0,0:0:0:0:
121,106,74797,1,0,0:0:0:0:
192,336,74892,5,0,0:0:0:0:
288,119,74987,1,0,0:0:0:0:
371,288,75082,6,0,P|402:266|423:235,1,60,0|0,0:0|0:0,0:0:0:0:
375,33,75271,5,0,0:0:0:0:
246,236,75366,1,0,0:0:0:0:
160,33,75461,5,0,0:0:0:0:
332,189,75556,1,0,0:0:0:0:
249,54,75651,6,0,P|268:31|295:17,1,60,0|0,0:0|0:0,0:0:0:0:
237,158,75841,2,0,P|198:167|172:167,1,60,0|0,0:0|0:0,0:0:0:0:
76,169,76031,2,0,B|21:205|-13:119|146:64|88:222|258:151,1,269.999991760254,0|0,0:0|0:0,0:0:0:0:
247,179,79695,5,0,0:0:0:0:
319,142,79900,1,0,0:0:0:0:
330,139,80105,1,0,0:0:0:0:
341,136,80311,1,0,0:0:0:0:
352,132,80516,6,0,B|419:122|440:65|440:65|419:122|479:176,1,240,0|0,0:0|0:0,0:0:0:0:
393,216,81133,1,0,0:0:0:0:
434,300,81338,2,0,B|367:310|346:367|346:367|367:310|307:256,1,240,0|0,0:0|0:0,0:0:0:0:
393,216,81955,5,0,0:0:0:0:
298,164,82160,1,0,0:0:0:0:
287,159,82366,1,0,0:0:0:0:
276,153,82571,1,0,0:0:0:0:
264,149,82777,6,0,P|206:134|147:161,1,120,0|0,0:0|0:0,0:0:0:0:
152,156,83393,1,0,0:0:0:0:
152,156,83804,5,0,0:0:0:0:
259,84,84010,2,0,P|316:59|372:65,1,120,0|0,0:0|0:0,0:0:0:0:
363,250,84421,1,0,0:0:0:0:
265,174,84626,2,0,P|208:149|152:155,1,120,0|0,0:0|0:0,0:0:0:0:
194,237,85037,5,0,0:0:0:0:
288,264,85242,2,0,P|368:182|296:95,1,240,0|0,0:0|0:0,0:0:0:0:
304,96,86270,1,0,0:0:0:0:
138,84,86886,1,0,0:0:0:0:
243,142,87092,6,0,B|390:195|257:265|384:320,1,240,0|0,0:0|0:0,0:0:0:0:
235,242,87708,1,0,0:0:0:0:
413,223,87914,2,0,P|447:169|447:111,1,120,0|0,0:0|0:0,0:0:0:0:
333,79,88325,1,0,0:0:0:0:
321,75,88530,1,0,0:0:0:0:
309,71,88736,1,0,0:0:0:0:
298,66,88941,1,0,0:0:0:0:
286,63,89147,2,0,P|230:44|152:61,1,120,0|0,0:0|0:0,0:0:0:0:
223,120,89558,6,0,P|118:117|86:55,1,180,0|0,0:0|0:0,0:0:0:0:
18,22,89968,2,0,P|61:100|39:194,1,180,0|0,0:0|0:0,0:0:0:0:
42,267,90379,2,0,B|89:253|89:253|101:238|101:238|166:221,1,120,0|0,0:0|0:0,0:0:0:0:
242,203,90790,1,0,0:0:0:0:
254,202,90996,1,0,0:0:0:0:
265,201,91201,1,0,0:0:0:0:
384,184,91818,5,0,0:0:0:0:
302,124,92023,2,0,P|235:119|190:157,1,120,0|0,0:0|0:0,0:0:0:0:
165,253,92434,1,0,0:0:0:0:
165,253,92845,1,0,0:0:0:0:
253,322,93256,1,0,0:0:0:0:
347,283,93667,5,0,0:0:0:0:
262,230,93873,1,0,0:0:0:0:
347,177,94078,1,0,0:0:0:0:
262,124,94284,1,0,0:0:0:0:
347,71,94489,1,0,0:0:0:0:
262,18,94695,1,0,0:0:0:0:
177,71,94900,1,0,0:0:0:0:
178,177,95105,6,0,B|189:232|218:250|218:250|245:268|238:337|238:337|296:284|331:289|331:289|385:286|454:277|483:223|481:136|434:98|352:93,1,600,0|0,0:0|0:0,0:0:0:0:
381,97,96749,1,0,0:0:0:0:
313,53,96955,2,0,B|255:-14|161:19|134:88|160:151|160:151|186:192|186:192|75:227|75:113,1,480,4|0,0:3|1:0,0:0:0:0:
243,112,97982,1,0,0:0:0:0:
249,121,98188,1,0,3:0:0:0:
255,130,98393,1,0,3:0:0:0:
262,139,98599,6,0,P|285:196|265:262,1,120,4|0,0:0|0:0,0:0:0:0:
194,202,99010,1,0,0:0:0:0:
194,202,99421,6,0,L|72:191,1,120,0|0,0:0|0:0,0:0:0:0:
262,139,99831,2,0,L|385:149,1,120,0|0,0:0|0:0,0:0:0:0:
422,235,100242,2,0,P|302:200|408:60,1,360,0|0,0:0|0:0,0:0:0:0:
381,148,101064,1,0,0:0:0:0:
381,148,101681,5,0,0:0:0:0:
262,139,101886,2,0,P|219:189|217:249,1,120,0|0,0:0|0:0,0:0:0:0:
342,97,102297,2,0,P|292:54|232:52,1,120,0|0,0:0|0:0,0:0:0:0:
304,220,102708,1,0,0:0:0:0:
353,143,103119,1,0,0:0:0:0:
353,143,103530,6,0,P|381:172|389:250,1,120,0|0,0:0|0:0,0:0:0:0:
304,220,103941,1,0,0:0:0:0:
262,139,104147,1,0,0:0:0:0:
311,62,104352,2,0,P|340:34|418:26,1,120,0|0,0:0|0:0,0:0:0:0:
386,112,104763,1,0,0:0:0:0:
302,153,104968,6,0,B|235:144|199:78|232:15|232:15|202:89|137:103|77:62|77:62|147:99|161:168|137:266,1,600,0|0,0:0|0:0,0:0:0:0:
138,259,106612,1,0,0:0:0:0:
241,232,106818,1,0,0:0:0:0:
252,229,107023,1,0,0:0:0:0:
263,226,107229,1,0,0:0:0:0:
274,222,107434,6,0,P|337:229|371:271,1,120,0|0,0:0|0:0,0:0:0:0:
370,270,108051,1,0,0:0:0:0:
479,135,108462,2,0,L|357:188,1,120,0|0,0:0|0:0,0:0:0:0:
275,284,108873,1,0,0:0:0:0:
275,284,109284,6,0,P|218:341|183:265,1,180,0|0,0:0|0:0,0:0:0:0:
234,218,109695,2,0,P|291:161|326:237,1,180,0|0,0:0|0:0,0:0:0:0:
157,199,110105,2,0,P|184:129|221:99,1,120,0|0,0:0|0:0,0:0:0:0:
140,64,110516,1,0,0:0:0:0:
82,178,110722,6,0,P|82:238|142:278,1,120,0|0,0:0|0:0,0:0:0:0:
124,274,111544,1,0,0:0:0:0:
212,202,111749,1,0,0:0:0:0:
312,205,111955,2,0,P|290:148|233:123,1,120,0|0,0:0|0:0,0:0:0:0:
155,118,112366,6,0,P|177:61|234:36,1,120,0|0,0:0|0:0,0:0:0:0:
227,36,112982,1,0,0:0:0:0:
319,120,113393,1,0,0:0:0:0:
379,180,113599,1,0,0:0:0:0:
199,166,113804,1,0,0:0:0:0:
169,239,114010,1,0,0:0:0:0:
272,146,114215,1,0,0:0:0:0:
142,114,114421,1,0,0:0:0:0:
247,225,114626,1,0,0:0:0:0:
193,60,114831,6,0,B|141:5|48:46|46:113|71:160|104:214|104:214|147:279|80:375|-81:320|-30:161|85:177|58:258,1,600,0|0,0:0|0:0,0:0:0:0:
163,331,116270,2,0,P|226:347|281:323,1,120,0|0,0:0|0:0,0:0:0:0:
217,257,116681,1,0,0:0:0:0:
218,245,116886,1,0,0:0:0:0:
219,233,117092,1,0,0:0:0:0:
220,221,117297,1,0,0:0:0:0:
221,209,117503,5,0,0:0:0:0:
280,119,117914,2,0,P|342:101|398:124,1,120,0|0,0:0|0:0,0:0:0:0:
417,199,118325,2,0,P|356:195|323:169,1,83.9999974365235,0|0,0:0|0:0,0:0:0:0:
472,136,118736,2,0,P|494:170|491:234,1,96,0|0,0:0|0:0,0:0:0:0:
256,192,122091,6,0,L|130:193,1,120,0|0,0:0|0:0,0:0:0:0:
268,96,122276,5,4,0:0:0:0:
200,281,122368,1,0,0:0:0:0:
389,206,122460,2,0,L|442:179,1,60,2|0,0:0|0:0,0:0:0:0:
357,44,122645,2,0,L|390:104,1,60,0|0,0:0|0:0,0:0:0:0:
363,313,122829,2,0,L|322:249,1,60,2|0,0:0|0:0,0:0:0:0:
267,148,123014,5,4,1:2:0:0:
92,234,123106,1,4,0:0:0:0:
330,262,123199,1,4,0:0:0:0:
182,140,123291,1,0,0:0:0:0:
207,305,123383,5,6,0:0:0:0:
230,78,123476,1,0,0:0:0:0:
39,163,123568,1,0,0:0:0:0:
219,210,123660,1,0,0:0:0:0:
95,53,123752,6,0,L|109:124,1,60,4|0,0:0|0:0,0:0:0:0:
142,246,123937,1,2,0:0:0:0:
278,145,124029,1,0,0:0:0:0:
91,187,124122,2,0,P|53:210|31:244,1,60,0|0,0:0|0:0,0:0:0:0:
243,264,124306,2,0,L|215:202,1,60,2|0,0:0|0:0,0:0:0:0:
190,85,124491,5,4,1:2:0:0:
350,197,124583,1,4,0:2:0:0:
305,36,124676,5,4,0:2:0:0:
388,202,124768,1,0,0:0:0:0:
420,27,124860,5,4,0:0:0:0:
419,222,124952,1,0,0:0:0:0:
512,94,125045,5,2,0:0:0:0:
445,255,125137,1,0,0:0:0:0:
351,106,125229,6,0,L|290:125,1,60,4|0,0:0|0:0,0:0:0:0:
131,287,125414,2,0,L|201:262,1,60,2|0,0:0|0:0,0:0:0:0:
373,77,125599,2,0,L|312:96,1,60,0|0,0:0|0:0,0:0:0:0:
150,255,125783,2,0,L|220:230,1,60,2|0,0:0|0:0,0:0:0:0:
363,164,125968,5,4,1:2:0:0:
224,82,126060,1,4,0:0:0:0:
204,235,126152,2,0,P|222:273|251:298,1,60,4|0,0:0|0:0,0:0:0:0:
395,272,126337,5,4,0:0:0:0:
315,94,126429,1,0,0:0:0:0:
144,185,126522,2,0,P|119:218|112:249,1,60,2|0,0:0|0:0,0:0:0:0:
318,239,126706,6,0,L|270:185,1,60,4|0,0:0|0:0,0:0:0:0:
154,104,126891,1,4,0:0:0:0:
189,252,126983,1,4,0:0:0:0:
242,70,127076,2,0,P|262:39|296:26,1,60,2|0,0:0|0:0,0:0:0:0:
408,138,127260,2,0,L|335:135,1,60,4|0,0:0|0:0,0:0:0:0:
195,163,127445,5,4,1:2:0:0:
348,297,127537,1,0,0:0:0:0:
133,340,127629,5,4,0:0:0:0:
302,204,127722,1,0,0:0:0:0:
79,134,127814,5,4,0:0:0:0:
234,301,127906,1,4,0:0:0:0:
3,309,127999,5,4,0:0:0:0:
195,163,128091,1,2,0:0:0:0:
0,202,128183,6,0,L|53:247,1,60,4|0,0:0|0:0,0:0:0:0:
195,76,128368,2,0,L|138:116,1,60,2|0,0:0|0:0,0:0:0:0:
0,102,128552,2,0,L|48:149,1,60,0|0,0:0|0:0,0:0:0:0:
173,0,128737,2,0,L|115:36,1,60,2|0,0:0|0:0,0:0:0:0:
108,193,128922,5,4,1:2:0:0:
259,129,129014,1,4,0:0:0:0:
241,274,129106,1,4,0:0:0:0:
175,142,129199,1,0,0:0:0:0:
299,208,129291,5,4,0:0:0:0:
192,338,129383,1,0,0:0:0:0:
222,200,129476,1,0,0:0:0:0:
331,316,129568,1,0,0:0:0:0:
168,263,129660,6,0,L|101:247,1,60,4|0,0:0|0:0,0:0:0:0:
259,129,129845,2,0,L|327:132,1,60,2|0,0:0|0:0,0:0:0:0:
463,144,130029,1,0,0:0:0:0:
329,235,130122,1,0,0:0:0:0:
439,41,130214,2,0,L|358:75,1,60,2|0,0:0|0:0,0:0:0:0:
257,203,130399,5,4,1:2:0:0:
216,55,130491,1,4,0:0:0:0:
178,208,130583,1,4,0:0:0:0:
150,97,130676,1,0,0:0:0:0:
103,200,130768,1,4,0:0:0:0:
85,127,130860,1,0,0:0:0:0:
30,193,130952,1,0,0:0:0:0:
25,168,131045,1,0,0:0:0:0:
220,138,131137,6,0,L|280:120,1,60,4|0,0:0|0:0,0:0:0:0:
392,198,131322,1,2,0:0:0:0:
391,20,131414,2,0,L|366:85,1,60,0|0,0:0|0:0,0:0:0:0:
317,219,131599,1,0,0:0:0:0:
503,167,131691,2,0,L|441:135,1,60,2|0,0:0|0:0,0:0:0:0:
312,33,131876,5,4,1:2:0:0:
358,185,131968,1,4,0:0:0:0:
221,48,132060,5,4,0:0:0:0:
267,200,132152,1,0,0:0:0:0:
134,61,132245,5,4,0:0:0:0:
180,213,132337,1,0,0:0:0:0:
43,76,132429,5,0,0:0:0:0:
89,228,132521,1,0,0:0:0:0:
249,142,132614,6,0,L|273:219,1,60,4|0,0:0|0:0,0:0:0:0:
392,321,132799,2,0,L|365:251,1,60,4|4,0:0|0:0,0:0:0:0:
321,116,132983,1,0,0:0:0:0:
215,253,133076,1,0,0:0:0:0:
399,190,133168,2,0,P|427:167|441:140,1,60,4|0,0:0|0:0,0:0:0:0:
275,39,133352,5,4,1:2:0:0:
303,263,133445,1,0,0:0:0:0:
147,93,133537,5,4,0:0:0:0:
327,187,133629,1,0,0:0:0:0:
429,82,133722,5,4,0:2:0:0:
170,224,133814,1,4,0:0:0:0:
70,36,133906,5,4,0:0:0:0:
387,245,133999,1,2,0:0:0:0:
304,95,134091,6,0,L|243:149,1,60,4|0,0:0|0:0,0:0:0:0:
161,339,134276,2,0,L|208:292,1,60,2|0,0:0|0:0,0:0:0:0:
101,131,134460,2,0,L|163:188,1,60,0|0,0:0|0:0,0:0:0:0:
357,308,134645,2,0,L|309:266,1,60,2|0,0:0|0:0,0:0:0:0:
218,205,134829,5,4,1:2:0:0:
310,93,134922,1,4,0:0:0:0:
312,221,135014,1,4,0:0:0:0:
213,117,135106,1,0,0:0:0:0:
213,223,135199,5,4,0:0:0:0:
319,79,135292,1,0,0:0:0:0:
317,240,135384,1,0,0:0:0:0:
198,101,135476,1,0,0:0:0:0:
216,253,135568,6,0,L|221:318,1,60,4|0,0:0|0:0,0:0:0:0:
328,163,135752,2,0,L|303:248,1,60,2|0,0:0|0:0,0:0:0:0:
198,101,135937,2,0,L|239:162,1,60,0|0,0:0|0:0,0:0:0:0:
319,26,136122,2,0,L|249:75,1,60,2|0,0:0|0:0,0:0:0:0:
153,184,136306,5,4,1:2:0:0:
38,72,136399,1,4,0:0:0:0:
54,306,136491,5,4,0:0:0:0:
98,126,136583,1,0,0:0:0:0:
191,381,136676,5,4,0:0:0:0:
109,249,136768,1,0,0:0:0:0:
233,177,136860,5,2,0:0:0:0:
151,316,136952,1,0,0:0:0:0:
46,178,137045,6,0,L|95:235,1,60,4|0,0:0|0:0,0:0:0:0:
225,268,137229,1,2,0:0:0:0:
365,131,137322,2,0,L|308:150,1,60,0|0,0:0|0:0,0:0:0:0:
225,293,137506,1,0,0:0:0:0:
168,103,137599,2,0,L|194:192,1,60,2|0,0:0|0:0,0:0:0:0:
226,331,137783,5,4,1:2:0:0:
389,302,137876,1,4,0:0:0:0:
223,258,137968,5,4,0:0:0:0:
384,223,138061,1,0,0:0:0:0:
219,181,138152,5,4,0:0:0:0:
378,132,138245,1,0,0:0:0:0:
216,105,138337,5,2,0:0:0:0:
364,37,138430,1,0,0:0:0:0:
210,21,138522,6,0,P|160:38|142:56,1,60,4|0,0:0|0:0,0:0:0:0:
101,224,138706,2,0,P|141:190|151:166,1,60,4|4,0:0|0:0,0:0:0:0:
59,64,138891,2,0,P|76:114|94:132,1,60,0|0,0:0|0:0,0:0:0:0:
262,173,139075,2,0,P|228:132|204:122,1,60,4|0,0:0|0:0,0:0:0:0:
172,262,139260,5,4,1:2:0:0:
318,99,139352,1,4,0:0:0:0:
351,289,139445,5,0,0:0:0:0:
148,106,139537,1,0,0:0:0:0:
121,321,139629,5,4,0:0:0:0:
369,41,139722,1,4,0:0:0:0:
412,336,139814,5,4,0:0:0:0:
89,51,139906,1,2,0:0:0:0:
304,191,139999,6,0,P|271:212|234:220,1,60,4|0,0:0|0:0,0:0:0:0:
264,63,140183,1,2,0:0:0:0:
391,178,140276,2,0,P|380:223|353:246,1,60,0|0,0:0|0:0,0:0:0:0:
369,41,140460,2,0,P|411:29|445:36,1,60,0|2,0:0|0:0,0:0:0:0:
472,189,140645,1,0,0:0:0:0:
333,116,140737,5,4,1:2:0:0:
363,268,140829,1,4,0:0:0:0:
224,96,140922,5,4,0:0:0:0:
294,238,141014,1,0,0:0:0:0:
120,82,141106,5,4,0:0:0:0:
221,206,141199,1,0,0:0:0:0:
19,69,141291,5,0,0:0:0:0:
147,176,141383,1,0,0:0:0:0:
0,153,141476,6,0,P|-2:190|2:224,1,60,4|0,0:0|0:0,0:0:0:0:
122,310,141660,1,2,0:0:0:0:
77,156,141752,1,0,0:0:0:0:
54,366,141845,2,0,P|94:385|123:383,1,60,0|0,0:0|0:0,0:0:0:0:
260,258,142029,2,0,P|217:245|189:252,1,60,2|0,0:0|0:0,0:0:0:0:
198,375,142214,5,4,1:2:0:0:
109,226,142306,1,4,0:0:0:0:
256,313,142399,5,4,0:0:0:0:
183,202,142491,1,0,0:0:0:0:
310,255,142583,5,4,0:0:0:0:
260,188,142676,1,0,0:0:0:0:
352,196,142768,5,0,0:0:0:0:
331,171,142860,1,0,0:0:0:0:
457,142,142952,6,0,P|421:117|379:114,1,60,4|0,0:0|0:0,0:0:0:0:
244,116,143137,1,2,0:0:0:0:
432,224,143229,1,0,0:0:0:0:
319,69,143322,2,0,P|350:52|395:55,1,60,0|0,0:0|0:0,0:0:0:0:
251,201,143506,2,0,P|220:218|175:215,1,60,0|0,0:0|0:0,0:0:0:0:
179,70,143691,5,4,1:2:0:0:
313,155,143783,1,4,0:0:0:0:
122,217,143876,5,4,0:0:0:0:
244,116,143968,1,0,0:0:0:0:
57,76,144060,5,4,0:0:0:0:
180,168,144152,1,0,0:0:0:0:
2,215,144245,5,2,0:0:0:0:
118,129,144337,1,0,0:0:0:0:
155,281,144429,6,0,P|170:317|208:341,1,60,4|0,1:2|0:0,0:0:0:0:
274,165,144614,2,0,P|259:129|221:105,1,60,4|4,1:2|1:2,0:0:0:0:
259,288,144799,6,0,P|274:324|312:348,1,60,2|0,0:0|0:0,0:0:0:0:
378,172,144984,2,0,P|363:136|325:112,1,60,0|0,1:0|0:0,0:0:0:0:
159,95,145168,5,4,1:2:0:0:
353,278,145260,1,0,1:0:0:0:
409,77,145352,5,2,1:2:0:0:
151,266,145445,1,0,0:0:0:0:
62,92,145537,5,4,0:0:0:0:
442,278,145629,1,4,0:0:0:0:
386,4,145722,5,0,0:0:0:0:
109,362,145814,1,2,0:0:0:0:
256,192,148177,6,0,L|369:192,1,107.999996704102,0|0,0:0|0:0,0:0:0:0:
416,80,148937,6,0,L|335:96,1,60,4|0,3:0|0:0,0:0:0:0:
181,148,149126,1,2,0:0:0:0:
266,64,149221,2,0,L|293:149,1,60,0|0,0:0|3:0,0:0:0:0:
343,286,149411,1,0,3:0:0:0:
384,192,149506,6,0,L|301:212,1,60,0|0,3:0|0:0,0:0:0:0:
157,335,149696,2,0,L|228:321,1,60,0|0,1:0|0:0,0:0:0:0:
343,286,149886,1,0,0:0:0:0:
228,216,149980,1,0,0:0:0:0:
318,130,150075,2,0,P|381:113|444:129,1,120,2|0,0:0|0:0,0:0:0:0:
458,290,150455,5,4,3:0:0:0:
384,192,150550,1,0,3:0:0:0:
284,300,150645,2,0,L|353:271,1,60,2|2,0:0|0:0,0:0:0:0:
463,213,150835,1,0,3:0:0:0:
360,121,150930,1,0,0:0:0:0:
488,80,151024,2,0,P|511:57|517:24,1,60,0|0,3:0|0:0,0:0:0:0:
298,66,151214,6,0,P|284:108|284:135,1,60,0|0,1:0|0:0,0:0:0:0:
385,258,151404,2,0,P|399:216|399:189,1,60,0|0,3:0|0:0,0:0:0:0:
200,38,151594,6,0,L|207:114,1,60,0|0,3:0|0:0,0:0:0:0:
309,279,151784,2,0,L|296:211,1,60,0|0,0:0|0:0,0:0:0:0:
126,142,151974,6,0,P|118:184|120:226,1,60,4|0,3:0|0:0,0:0:0:0:
209,288,152163,1,2,0:0:0:0:
240,170,152258,1,0,0:0:0:0:
117,198,152353,1,0,3:0:0:0:
117,198,152543,5,0,3:0:0:0:
240,170,152638,1,0,0:0:0:0:
148,80,152733,1,0,1:0:0:0:
148,80,152923,5,0,0:0:0:0:
271,52,153018,1,0,0:0:0:0:
240,170,153112,2,0,B|223:246|223:246|176:279,1,120,0|2,0:0|0:0,0:0:0:0:
144,188,153492,5,4,3:0:0:0:
116,318,153587,1,0,0:0:0:0:
41,149,153682,5,2,0:0:0:0:
44,283,153777,1,2,0:0:0:0:
171,113,153872,6,0,L|106:109,1,60,0|0,3:0|0:0,0:0:0:0:
223,192,154061,2,0,L|288:196,1,60,0|0,3:0|0:0,0:0:0:0:
363,108,154251,5,0,1:0:0:0:
362,246,154346,1,0,0:0:0:0:
478,77,154441,5,0,3:0:0:0:
452,207,154536,1,0,0:0:0:0:
337,36,154631,6,0,L|402:32,1,60,2|0,0:0|0:0,0:0:0:0:
285,115,154820,2,0,L|220:119,1,60,2|0,0:0|0:0,0:0:0:0:
113,185,155011,6,0,L|172:208,1,60,4|0,3:0|0:0,0:0:0:0:
183,214,155200,1,2,0:0:0:0:
196,222,155295,1,0,0:0:0:0:
209,232,155390,2,0,L|269:271,1,60,0|0,3:0|3:0,0:0:0:0:
394,141,155580,5,0,3:0:0:0:
384,152,155675,1,0,0:0:0:0:
374,166,155770,2,0,L|328:221,1,60,0|0,1:0|0:0,0:0:0:0:
180,58,155960,5,0,0:0:0:0:
192,66,156055,1,0,0:0:0:0:
205,77,156150,2,0,L|301:151,1,120,0|0,0:0|0:0,0:0:0:0:
437,246,156529,6,0,L|387:300,1,60,4|0,3:0|0:0,0:0:0:0:
309,372,156719,1,2,0:0:0:0:
288,253,156814,1,0,0:0:0:0:
183,335,156909,1,0,3:0:0:0:
197,208,157004,1,0,0:0:0:0:
51,221,157098,2,0,L|116:258,1,60,0|0,3:0|0:0,0:0:0:0:
200,100,157288,6,0,L|132:156,1,60,0|0,1:0|0:0,0:0:0:0:
50,124,157478,1,2,0:0:0:0:
158,29,157573,1,2,0:0:0:0:
329,110,157668,2,0,L|276:70,1,60,0|0,0:0|0:0,0:0:0:0:
326,224,157858,2,0,L|379:184,1,60,2|0,0:0|0:0,0:0:0:0:
247,170,158048,6,0,L|184:178,1,60,4|0,3:0|0:0,0:0:0:0:
90,196,158238,1,0,0:0:0:0:
168,78,158333,1,0,0:0:0:0:
192,179,158428,6,0,L|210:248,1,60,0|0,0:0|0:0,0:0:0:0:
226,321,158617,1,0,3:0:0:0:
312,219,158712,1,0,0:0:0:0:
204,235,158807,6,0,P|137:238|82:273,1,120,0|0,1:0|0:0,0:0:0:0:
3,203,159092,1,0,0:0:0:0:
94,146,159187,2,0,P|103:213|84:279,1,120,0|0,0:0|0:0,0:0:0:0:
41,356,159566,5,4,3:0:0:0:
176,328,159661,1,0,0:0:0:0:
91,263,159756,5,2,0:0:0:0:
223,262,159851,1,2,0:0:0:0:
150,175,159946,5,0,3:0:0:0:
267,199,160041,1,0,0:0:0:0:
207,104,160136,5,0,0:0:0:0:
301,129,160230,1,0,0:0:0:0:
291,20,160325,6,0,L|354:32,1,60,0|0,1:0|0:0,0:0:0:0:
447,120,160515,2,0,P|403:126|380:120,1,60,0|0,0:0|0:0,0:0:0:0:
301,129,160705,2,0,B|245:150|237:65|386:34|333:179|471:110,1,240,4|4,0:3|3:0,0:0:0:0:
256,192,161177,12,0,164037,0:0:0:0:
